<?xml version="1.0" standalone="no"?>
<!DOCTYPE svg PUBLIC "-//W3C//DTD SVG 1.1//EN" "http://www.w3.org/Graphics/SVG/1.1/DTD/svg11.dtd" >
<svg xmlns="http://www.w3.org/2000/svg" xmlns:xlink="http://www.w3.org/1999/xlink" version="1.1">
<metadata>
Created by FontForge 20190801 at Sat Feb  4 10:27:54 2017
 By Unknown
Copyright 2015 The Cormorant Project Authors (github.com/CatharsisFonts/Cormorant)
</metadata>
<defs>
<font id="CormorantGaramond-BoldItalic" horiz-adv-x="655" >
  <font-face 
    font-family="Cormorant Garamond"
    font-weight="700"
    font-style="italic"
    font-stretch="normal"
    units-per-em="1000"
    panose-1="0 0 8 0 0 0 0 0 0 0"
    ascent="800"
    descent="-200"
    x-height="395"
    cap-height="625"
    bbox="-345 -281 1278.06 928"
    underline-thickness="50"
    underline-position="-100"
    slope="-10"
    unicode-range="U+000D-FB06"
  />
<missing-glyph horiz-adv-x="450" 
d="M1 -275l177 1000h285l-176 -1000h-286zM214 556h150l6 32h-60l6 38h61l5 32h-148l-6 -32h57l-5 -38h-60zM192 426h150l5 34h-60l12 69h-90zM227 460l6 35h30l-7 -35h-29zM168 295h90l12 70h60l6 33h-149l-6 -33h59l-6 -36h-60zM159 239h149l17 99h-29l-12 -65h-119z
M135 103h149l20 113h-90l-10 -56h30l5 24h30l-8 -48h-91l14 80h-30zM104 -70h150l20 113h-150zM139 -37l8 48h92l-9 -48h-91zM81 -206h148l6 33h-91l70 47h29l6 34h-148l-6 -34h63l-71 -47z" />
    <glyph glyph-name="Aogonek_acutecomb.liga" unicode="&#x104;&#x301;" horiz-adv-x="605" 
d="M335 678q-4 0 -5 4.5t2 6.5q30 22 84 69q39 33 41 35q6 5 36.5 -3.5t54 -20t11.5 -13.5q-62 -15 -113.5 -33.5t-108.5 -43.5zM577 6q0 -6 -4 -6l-95 1q-30 0 -56.5 -21t-42.5 -56t-16 -75q0 -37 18 -57.5t53 -20.5q16 0 25.5 4.5t20.5 13.5l2 1q2 0 3 -3.5t-1 -5.5
q-29 -29 -54.5 -42.5t-54.5 -13.5q-40 0 -69 21t-29 64q0 37 17.5 65t50.5 62q34 36 50 61t16 59q0 12 -3 27l-43 211h-144l-91 -166q-26 -47 -26 -73q0 -23 19 -33.5t58 -10.5q4 0 3.5 -6t-4.5 -6q-13 0 -51 2q-46 2 -71 2q-21 0 -49 -2t-43 -2q-4 0 -4 6t4 6q28 0 66 32
t71 92l279 498q2 3 8 3q3 0 6 -1t4 -3l109 -549q8 -43 21.5 -57.5t42.5 -14.5q4 0 4 -6zM237 323h123l-33 164z" />
    <glyph glyph-name="Eogonek_acutecomb.liga" unicode="&#x118;&#x301;" horiz-adv-x="531" 
d="M290 678q-4 0 -5 4.5t2 6.5q30 22 84 69q39 33 41 35q6 5 36.5 -3.5t54 -20t11.5 -13.5q-62 -15 -113.5 -33.5t-108.5 -43.5zM525 616l-21 -134q0 -3 -4 -3q-3 0 -5.5 1.5t-2.5 2.5q-4 55 -39 88t-90 33h-18q-29 0 -42 -4.5t-18.5 -16.5t-10.5 -40l-36 -204h113
q46 0 70.5 17.5t33.5 58.5q1 5 7 4.5t5 -5.5q-4 -28 -12 -62q0 -4 -5 -27q-3 -18 -7 -47q-2 -11 -4 -25t-5 -31q-1 -4 -7 -3.5t-5 4.5q2 14 2 20q0 33 -21 50.5t-59 17.5h-111l-40 -226q-3 -18 -3 -30q0 -20 11 -27t40 -7h26q58 0 114 37.5t93 100.5q1 3 7 1.5t4 -3.5
q-16 -52 -34 -142q-2 -9 -5 -12t-11 -3h-40q-36 -45 -55 -83t-19 -81q0 -30 12.5 -49t37.5 -19t47 20l1 1q3 0 5.5 -4t0.5 -6q-29 -29 -54 -41.5t-53 -12.5q-40 0 -63 23.5t-23 60.5q0 48 36 92t106 99h-354q-3 0 -3 6t3 6q28 0 41.5 5t20 19t12.5 45l81 463q4 19 4 34
q0 21 -11.5 28t-41.5 7q-2 0 -2 6t2 6h393q8 0 6 -9z" />
    <glyph glyph-name="IJ_acutecomb.liga" unicode="&#x132;&#x301;" horiz-adv-x="619" 
d="M127 678q-4 0 -5 4.5t2 6.5q30 22 84 69q39 33 41 35q6 5 36.5 -3.5t54 -20t11.5 -13.5q-62 -15 -113.5 -33.5t-108.5 -43.5zM478 678q-4 0 -5 4.5t2 6.5q30 22 84 69q39 33 41 35q6 5 36.5 -3.5t54 -20t11.5 -13.5q-62 -15 -113.5 -33.5t-108.5 -43.5zM39 275q0 6 4 6
q30 0 44 5t21 19t12 45l34 194q4 19 4 34q0 21 -12 28t-44 7q-4 0 -4 6t4 6l50 -1q42 -2 67 -2q28 0 70 2l47 1q5 0 5 -6t-5 -6q-30 0 -44.5 -6t-21.5 -20t-13 -45l-34 -192q-4 -28 -4 -33q0 -22 12 -29t45 -7q4 0 4 -6t-4 -6q-30 0 -47 1l-70 1l-66 -1q-18 -1 -50 -1
q-4 0 -4 6zM175 5.5q-46 19.5 -72 51t-26 66.5q0 30 15.5 49t46.5 19q32 0 40.5 -19.5t9.5 -59.5q1 -34 6 -55t24 -35.5t58 -14.5q69 0 109 48.5t56 144.5l61 344q3 18 3 31q0 23 -14 30.5t-52 7.5q-4 0 -4 6t4 6l55 -1q46 -2 71 -2t65 2l43 1q3 0 3 -6t-3 -6q-26 0 -39 -6
t-19 -20.5t-11 -44.5l-49 -284q-23 -130 -98 -201t-181 -71q-56 0 -102 19.5z" />
    <glyph glyph-name="Iogonek_acutecomb.liga" unicode="&#x12e;&#x301;" horiz-adv-x="336" 
d="M347.5 789.5q30.5 -8.5 54 -20t11.5 -13.5q-62 -15 -113.5 -33.5t-108.5 -43.5l-2 -1q-4 0 -5 4.5t2 6.5q30 22 84 69q39 33 41 35q6 5 36.5 -3.5zM356 619q0 -6 -3 -6q-27 0 -41 -6t-20.5 -20t-11.5 -45l-82 -461q-4 -19 -4 -34q0 -21 12 -28t42 -7q2 0 2 -6t-2 -6
q-25 0 -39 1l-57 1q-20 -41 -31 -73t-14 -67q-2 -16 -2 -24q0 -30 11.5 -48.5t33.5 -18.5q23 0 40 17l1 1q3 0 5.5 -4t0.5 -6q-29 -29 -54 -41.5t-53 -12.5q-34 0 -54 23t-20 59q0 7 2 23q6 42 34.5 81.5t80.5 90.5l-63 -1q-17 -1 -45 -1q-3 0 -3 6t3 6q27 0 40.5 5t20.5 19
t12 45l82 463q4 17 4 33q0 21 -12 28.5t-42 7.5q-3 0 -3 6t3 6l46 -1q40 -2 64 -2q30 0 70 2l43 1q3 0 3 -6z" />
    <glyph glyph-name="J_acutecomb.liga" unicode="J&#x301;" horiz-adv-x="317" 
d="M139 678q-4 0 -5.5 4.5t1.5 6.5q31 22 87 70q13 12 39 34q5 4 35.5 -4.5t54 -19.5t11.5 -13q-118 -30 -222 -78h-1zM-30 -189q-3 5 0 7q45 27 71 81t42 141l89 504q3 20 3 32q0 22 -11.5 29.5t-41.5 7.5q-3 0 -3 6t3 6l45 -1q40 -2 65 -2q29 0 69 2l44 1q3 0 3 -6t-3 -6
q-27 0 -41 -6t-20.5 -20t-12.5 -45l-84 -475q-14 -78 -39.5 -126.5t-66 -78.5t-106.5 -55q-2 -1 -5 4z" />
    <glyph glyph-name="uni01EA0301.liga" unicode="&#x1ea;&#x301;" 
d="M352 678q-4 0 -5 4.5t2 6.5q30 22 84 69q39 33 41 35q6 5 36.5 -3.5t54 -20t11.5 -13.5q-62 -15 -113.5 -33.5t-108.5 -43.5zM535.5 604q52.5 -32 80.5 -88.5t28 -129.5q0 -38 -7 -73q-21 -117 -93 -199t-169 -112q-37 -46 -56.5 -84t-19.5 -82q0 -30 12.5 -49t37.5 -19
t47 20l1 1q3 0 5.5 -4t0.5 -6q-29 -29 -54 -41.5t-53 -12.5q-40 0 -63 23.5t-23 60.5q0 46 34 88.5t101 97.5q-29 -7 -64 -7q-71 0 -122.5 32.5t-78.5 89.5t-27 129q0 30 7 74q16 92 66.5 165.5t125.5 115.5t159 42q72 0 124.5 -32zM531 357q0 111 -42 183t-117 72
q-72 0 -126 -66.5t-73 -179.5q-8 -53 -8 -96q0 -110 41.5 -183t117.5 -73q71 0 125.5 66.5t73.5 179.5q8 44 8 97z" />
    <glyph glyph-name="aogonek_acutecomb.liga" unicode="&#x105;&#x301;" horiz-adv-x="447" 
d="M381 727q28 5 52 5q23 0 19 -5l-165 -254q-1 -3 -6.5 -1t-3.5 4l75 240q1 6 29 11zM418 78q3 0 5 -3.5t0 -5.5q-59 -56 -88 -89.5t-42 -60.5t-18 -63q-1 -6 -1 -18q0 -26 12 -43t36 -17q15 0 25 6t23 18l1 1q3 0 5.5 -4t0.5 -6q-28 -37 -52 -52.5t-54 -15.5
q-40 0 -63 24.5t-23 60.5q0 38 36.5 87t94.5 94h-5q-26 0 -38 14.5t-12 45.5q0 17 3 38l11 63q-39 -78 -91 -121.5t-101 -43.5q-31 0 -49 19t-18 57q0 67 44.5 146.5t110 134.5t123.5 55q21 0 40 -7.5t31 -17.5q18 12 31 33q2 2 4 2q3 0 6 -2t2 -3l-58 -315q-3 -13 -3 -23
q0 -24 14 -24q19 0 54 35q1 1 3 1zM297 283q0 32 -14.5 49.5t-40.5 17.5q-46 0 -81.5 -49.5t-49.5 -128.5q-5 -32 -5 -48q0 -33 11 -48.5t30 -15.5q30 0 61.5 31.5t55 77t30.5 84.5q3 17 3 30z" />
    <glyph glyph-name="eogonek_acutecomb.liga" unicode="&#x119;&#x301;" horiz-adv-x="357" 
d="M303 727q28 5 52 5q23 0 19 -5l-165 -254q-1 -3 -6.5 -1t-3.5 4l75 240q1 6 29 11zM329 386q21 -13 21 -36q0 -45 -66.5 -84.5t-160.5 -57.5q-3 -22 -3 -43q0 -60 25 -96.5t74 -36.5q21 0 45.5 7.5t44.5 23.5h1q3 0 5.5 -3t0.5 -5l-19 -17q-74 -66 -103.5 -113t-29.5 -92
q0 -24 10.5 -39t33.5 -15q28 0 52 22q1 1 3 1t4 -2.5t1 -4.5q-16 -28 -46 -49t-65 -21q-33 0 -57.5 19.5t-24.5 54.5q0 14 2 22q8 36 42.5 75.5t112.5 104.5q-36 -13 -72 -13q-69 0 -103.5 42t-34.5 106q0 22 5 49q10 54 44.5 103t86.5 80t112 31q38 0 59 -13zM250 336
q0 17 -8.5 26.5t-23.5 9.5q-32 0 -56.5 -41t-36.5 -107q115 30 124 100q1 4 1 12z" />
    <glyph glyph-name="ij_acutecomb.liga" unicode="&#x133;&#x301;" horiz-adv-x="450" 
d="M146.5 472q-5.5 2 -3.5 4l75 240q1 6 29 11t52 5q23 0 19 -5l-165 -254q-1 -3 -6.5 -1zM457 727q28 5 52 5q23 0 19 -5l-165 -254q-1 -3 -6.5 -1t-3.5 4l75 240q1 6 29 11zM422.5 392.5q7.5 -1.5 7.5 -4.5q0 -10 -15 -76l-70 -382q-17 -94 -76.5 -152.5t-144.5 -58.5
q-52 0 -85 19t-33 47q0 7 1 10q5 26 19 38.5t32 12.5q21 0 29.5 -12t14.5 -36q7 -28 19 -43t43 -15q30 0 52.5 36t39.5 130l46 258q-34 -85 -79 -131t-96 -46q-69 0 -69 82q0 26 5 50l35 178q3 15 3 24q0 23 -16 23q-10 0 -21.5 -8.5t-30.5 -26.5q-2 -2 -4 -2q-3 0 -5 3.5
t1 6.5q34 40 59.5 59t53.5 19q49 0 49 -57q0 -14 -5 -41l-31 -159q-5 -22 -5 -45q0 -49 32 -49q26 0 54.5 33.5t54.5 97.5t45 152l10 53q1 6 13 10t33 4q27 0 34.5 -1.5z" />
    <glyph glyph-name="iogonek_acutecomb.liga" unicode="&#x12f;&#x301;" horiz-adv-x="251" 
d="M195 725.5q31 5.5 52 5.5q15 0 14 -4l-121 -253q-1 -3 -6 -1.5t-4 3.5l33 240q1 4 32 9.5zM219 79q3 0 5 -3.5t-1 -6.5q-59 -56 -88 -89.5t-42 -60.5t-18 -63q-1 -6 -1 -18q0 -26 12 -43t36 -17q15 0 25 6t23 18l1 1q3 0 5.5 -4t0.5 -6q-28 -37 -52 -52.5t-54 -15.5
q-40 0 -63 24.5t-23 60.5q0 39 36.5 87t94.5 94h-7q-48 0 -48 57q0 20 4 41l39 208q2 9 2 22q0 27 -17 27q-21 0 -57 -40q-1 -1 -3 -1q-4 0 -6 3.5t0 6.5q36 42 65 61t57 19q47 0 47 -53q0 -15 -3 -33l-39 -220q-3 -15 -3 -24q0 -23 16 -23q10 0 21.5 8.5t30.5 26.5q2 2 4 2
z" />
    <glyph glyph-name="j_acutecomb.liga" unicode="j&#x301;" horiz-adv-x="249" 
d="M156.5 472q-5.5 2 -3.5 4l75 240q1 6 29 11t52 5q23 0 19 -5l-165 -254q-1 -3 -6.5 -1zM-86 -260.5q-24 14.5 -24 36.5t13.5 34t32.5 12q24 0 32.5 -12t12.5 -35q3 -16 6.5 -23t13.5 -7t16 14t14.5 57.5t19.5 107.5l5 29l61 344q2 9 2 22q0 27 -17 27q-21 0 -58 -40
q-1 -1 -3 -1q-3 0 -5 3.5t0 6.5q36 42 64.5 61t57.5 19q47 0 47 -53q0 -15 -3 -33l-57 -330q-17 -96 -38 -150.5t-51.5 -79t-76.5 -24.5q-41 0 -65 14.5z" />
    <glyph glyph-name="uni01EB0301.liga" unicode="&#x1eb;&#x301;" horiz-adv-x="408" 
d="M340 727q28 5 52 5q23 0 19 -5l-165 -254q-1 -3 -6.5 -1t-3.5 4l75 240q1 6 29 11zM351.5 358.5q35.5 -40.5 35.5 -108.5q0 -27 -6 -57q-15 -75 -57.5 -125t-98.5 -70q-36 -44 -54.5 -81.5t-18.5 -80.5q0 -30 12.5 -49t37.5 -19t47 20l1 1q3 0 5.5 -4t0.5 -6
q-29 -29 -54 -41.5t-53 -12.5q-40 0 -63 23.5t-23 60.5q0 45 32.5 87.5t95.5 92.5q-16 -3 -33 -3q-66 0 -100.5 42.5t-34.5 110.5q0 30 5 54q11 60 43.5 107t78.5 73t99 26q67 0 102.5 -40.5zM289 228q0 65 -19.5 106t-53.5 41q-30 0 -53.5 -35t-35.5 -104q-7 -39 -7 -79
q0 -65 19 -105.5t53 -40.5q32 0 55.5 37t34.5 101q7 39 7 79z" />
    <glyph glyph-name="fi" unicode="fi" horiz-adv-x="481" 
d="M247 637.5q-33 -67.5 -52 -198.5l-9 -61q78 1 179 6l56 2q8 0 10.5 -2t2.5 -7q0 -1 -4 -25l-8 -43l-40 -220q-2 -9 -2 -23q0 -24 15 -24q10 0 22.5 9t30.5 26q2 2 4 2q3 0 5 -3.5t-1 -6.5q-34 -40 -60 -59t-54 -19q-48 0 -48 57q0 20 4 41l38 205q2 14 2 19
q0 18 -12.5 26.5t-45 12.5t-97.5 5l-56 -378q-14 -97 -34.5 -152t-50.5 -78.5t-77 -23.5q-41 0 -65 14.5t-24 36.5t13.5 34t32.5 12q24 0 32.5 -12t12.5 -35q3 -16 6.5 -23t13.5 -7t16.5 15.5t14 55.5t21.5 137l51 353q2 11 2 26q0 18 -10 22.5t-41 4.5q-3 0 -3 7q0 9 3 9
q33 0 47 9t18 34q29 157 91.5 232.5t161.5 75.5q49 0 79 -18t30 -45q0 -22 -14 -35t-35 -13q-25 0 -36 12.5t-21 37.5q-9 21 -17 30.5t-23 9.5q-42 0 -75 -67.5z" />
    <glyph glyph-name="fl" unicode="fl" horiz-adv-x="513" 
d="M401 89q-3 -15 -3 -24q0 -23 16 -23q10 0 22.5 9t30.5 26q2 2 3 2q3 0 5.5 -3.5t-0.5 -6.5q-34 -40 -60.5 -59t-54.5 -19q-48 0 -48 56q0 15 5 42l98 528q-9 41 -29.5 64.5t-48.5 23.5q-53 0 -87.5 -65t-54.5 -201l-9 -59q42 2 62 4q26 2 33 2q4 0 6 -4t1 -8
q-3 -10 -14 -23t-20 -12q-63 9 -72 10l-55 -370q-14 -97 -34.5 -152t-50.5 -78.5t-77 -23.5q-41 0 -65 14.5t-24 36.5t13.5 34t32.5 12q24 0 32.5 -12t12.5 -35q3 -16 6.5 -23t13.5 -7t16.5 15.5t14 55.5t21.5 137l51 353q2 11 2 26q0 18 -10 22.5t-41 4.5q-3 0 -3 7
q0 9 3 9q33 0 47 9t18 34q27 156 85.5 232t167.5 76q34 0 63 -6.5t45 -17.5q33 17 39 43q1 3 7 2.5t5 -3.5z" />
    <glyph glyph-name="T_T.liga" unicode="TT" horiz-adv-x="1036" 
d="M111 6q0 6 2 6q37 0 55.5 5t27.5 19.5t15 44.5l81 463q4 16 4 30q0 16 -8 22t-27 6h-12q-31 0 -65 -21.5t-61 -57t-39 -77.5q-1 -3 -6.5 -2t-4.5 4q8 29 24 96t23 103q1 3 7 2.5t5 -3.5q-3 -21 39 -21q74 -3 183 -3q108 0 176 3q30 1 43 5.5t18 19.5q0 3 6 3q3 0 6 -1.5
t2 -2.5q-3 -13 14 -18.5t35 -5.5q75 -3 183 -3q51 0 113 2l63 1q30 0 45 5t22 20q1 3 6 2.5t4 -4.5q-9 -32 -24.5 -103.5t-18.5 -96.5q-1 -4 -7 -3.5t-5 4.5q3 17 3 32q0 52 -29 86.5t-74 34.5h-12q-26 0 -34 -11t-15 -49l-81 -461q-4 -24 -4 -31q0 -23 16.5 -30.5
t61.5 -7.5q2 0 2 -6t-2 -6q-35 0 -55 1l-81 1l-78 -1q-20 -1 -57 -1q-2 0 -2 6t2 6q37 0 55.5 5t27.5 19.5t15 44.5l81 463q4 16 4 30q0 16 -8 22t-27 6h-12q-56 0 -86 -12t-47 -44t-32 -98q0 -2 -6 -2q-9 0 -9 3q4 33 4 64q0 37 -9.5 56t-32 26t-63.5 7h-11q-26 0 -34 -11
t-15 -49l-81 -461q-4 -24 -4 -31q0 -23 16.5 -30.5t61.5 -7.5q2 0 2 -6t-2 -6q-35 0 -55 1l-81 1l-78 -1q-20 -1 -57 -1q-2 0 -2 6z" />
    <glyph glyph-name="T_h.liga" unicode="Th" horiz-adv-x="944" 
d="M918 79q3 0 5 -3.5t0 -6.5q-34 -40 -60.5 -59t-54.5 -19q-48 0 -48 56q0 15 5 42l29 159q5 28 5 45q0 49 -32 49q-28 0 -57.5 -36t-56 -105.5t-44.5 -165.5l-4 -23q-5 -20 -56 -20q-33 0 -33 8l4 21q10 47 11 53l94 515l1 6q0 7 -10 7h-176q-26 0 -34 -11t-15 -49
l-81 -461q-4 -24 -4 -31q0 -23 16.5 -30.5t61.5 -7.5q2 0 2 -6t-2 -6q-35 0 -55 1l-81 1l-78 -1q-20 -1 -57 -1q-2 0 -2 6t2 6q37 0 55.5 5t27.5 19.5t15 44.5l81 463q4 16 4 30q0 16 -8 22t-27 6h-12q-31 0 -65 -21.5t-61 -57t-39 -77.5q-1 -3 -6.5 -2t-4.5 4q8 29 24 96
t23 103q1 3 7 2.5t5 -3.5q-3 -21 39 -21q74 -3 183 -3q114 0 164 3q65 1 114.5 23t84.5 79q1 2 6 2q3 0 6 -1.5t2 -2.5l-89 -506q34 86 79.5 133t96.5 47q69 0 69 -83q0 -19 -5 -49l-33 -178q-3 -15 -3 -24q0 -23 16 -23q10 0 22.5 9t30.5 26q2 2 3 2z" />
    <glyph glyph-name="f_b.liga" unicode="fb" horiz-adv-x="724" 
d="M685.5 370q21.5 -29 21.5 -79q0 -19 -3 -40q-14 -81 -61 -141t-106.5 -91.5t-109.5 -31.5q-53 0 -82.5 21.5t-29.5 58.5q0 6 2 20l98 530q-9 41 -29.5 64.5t-48.5 23.5q-53 0 -87.5 -65t-54.5 -201l-9 -59q42 2 62 4q26 2 33 2q4 0 6 -4t1 -8q-3 -10 -14 -23t-20 -12
q-63 9 -72 10l-55 -370q-14 -97 -34.5 -152t-50.5 -78.5t-77 -23.5q-41 0 -65 14.5t-24 36.5t13.5 34t32.5 12q24 0 32.5 -12t12.5 -35q3 -16 6.5 -23t13.5 -7t16.5 15.5t14 55.5t21.5 137l51 353q2 11 2 26q0 18 -10 22.5t-41 4.5q-3 0 -3 7q0 9 3 9q33 0 47 9t18 34
q27 156 85.5 232t167.5 76q34 0 63 -6.5t45 -17.5q33 17 39 43q1 3 7 2.5t5 -3.5l-90 -509q35 74 87.5 119t109.5 45q39 0 60.5 -29zM611 266q0 30 -11 48t-33 18q-53 0 -98 -64t-64 -167l-1 -5q-2 -12 -2 -17q0 -28 17.5 -46t43.5 -18q30 0 59.5 24.5t51.5 71t32 109.5
q5 27 5 46z" />
    <glyph glyph-name="f_f.liga" unicode="ff" horiz-adv-x="536" 
d="M657 711.5q24 -14.5 24 -36.5t-14 -35t-35 -13q-28 0 -37.5 13t-12.5 35q-3 15 -7 22.5t-15 7.5q-32 0 -54.5 -64.5t-42.5 -201.5l-9 -59q40 2 57 4l38 2q4 0 6 -4t1 -8q-3 -10 -13 -22.5t-19 -12.5q-2 0 -24 3.5t-50 6.5l-55 -370q-14 -97 -34.5 -152t-50.5 -78.5
t-77 -23.5q-41 0 -65 14.5t-24 36.5t13.5 34t32.5 12q24 0 32.5 -12t12.5 -35q3 -16 6.5 -23t13.5 -7t16.5 15.5t14 55.5t21.5 137l51 353l1 7q1 18 -7 25.5t-30 10.5q-26 2 -140 4l-55 -374q-14 -97 -34.5 -152t-50.5 -78.5t-77 -23.5q-41 0 -65 14.5t-24 36.5t13.5 34
t32.5 12q24 0 32.5 -12t12.5 -35q3 -16 6.5 -23t13.5 -7t16.5 15.5t14 55.5t21.5 137l51 353q2 11 2 26q0 18 -10 22.5t-41 4.5q-3 0 -3 7q0 9 3 9q33 0 46.5 9t18.5 34q23 116 83.5 184t153.5 68q46 0 100 -17q26 40 61.5 56.5t87.5 16.5q41 0 65 -14.5zM405 564
q-16 45 -37 65t-49 20q-47 0 -77 -51.5t-47 -158.5l-9 -62q98 0 124 1q29 2 42.5 8t18.5 19l3 13q12 79 31 146z" />
    <glyph glyph-name="f_f_b.liga" unicode="ffb" horiz-adv-x="992" 
d="M953.5 370q21.5 -29 21.5 -79q0 -19 -3 -40q-14 -81 -61 -141t-106.5 -91.5t-109.5 -31.5q-53 0 -82.5 21.5t-29.5 58.5q0 6 2 20l98 530q-9 41 -29.5 64.5t-48.5 23.5q-53 0 -87.5 -65t-54.5 -201l-9 -59q42 2 62 4q26 2 33 2q4 0 6 -4t1 -8q-3 -10 -14 -23t-20 -12
q-63 9 -72 10l-55 -370q-14 -97 -34.5 -152t-50.5 -78.5t-77 -23.5q-41 0 -65 14.5t-24 36.5t13.5 34t32.5 12q24 0 32.5 -12t12.5 -35q3 -16 6.5 -23t13.5 -7t16.5 15.5t14 55.5t21.5 137l51 353l1 7q1 18 -7 25.5t-30 10.5q-26 2 -140 4l-55 -374q-14 -97 -34.5 -152
t-50.5 -78.5t-77 -23.5q-41 0 -65 14.5t-24 36.5t13.5 34t32.5 12q24 0 32.5 -12t12.5 -35q3 -16 6.5 -23t13.5 -7t16.5 15.5t14 55.5t21.5 137l51 353q2 11 2 26q0 18 -10 22.5t-41 4.5q-3 0 -3 7q0 9 3 9q33 0 46.5 9t18.5 34q23 116 83.5 184t153.5 68q26 0 57.5 -6.5
t56.5 -16.5q62 79 170 79q34 0 63 -6.5t45 -17.5q33 17 39 43q1 3 7 2.5t5 -3.5l-90 -509q35 74 87.5 119t109.5 45q39 0 60.5 -29zM409 556q-17 49 -39 71t-51 22q-47 0 -77 -51.5t-47 -158.5l-9 -62q98 0 124 1q29 2 42.5 8t18.5 19l3 13q14 83 35 138zM879 266
q0 30 -11 48t-33 18q-53 0 -98 -64t-64 -167l-1 -5q-2 -12 -2 -17q0 -28 17.5 -46t43.5 -18q30 0 59.5 24.5t51.5 71t32 109.5q5 27 5 46z" />
    <glyph glyph-name="f_f_f.liga" unicode="fff" horiz-adv-x="804" 
d="M847 711.5q24 -14.5 24 -36.5t-14 -35t-35 -13q-28 0 -37.5 13t-12.5 35q-3 15 -7 22.5t-15 7.5q-17 0 -32 -20q17 -6 31 -14l-66 -101l-4 12q-15 -61 -26 -143l-6 -40l5 -19q76 6 87 6q4 0 6 -4t1 -8q-3 -10 -13 -22.5t-19 -12.5q-2 0 -17.5 2.5t-49.5 6.5l-11 -21
l-51 -348q-14 -97 -34.5 -152t-50.5 -78.5t-77 -23.5q-40 0 -64 14t-25 35q-19 -26 -43.5 -37.5t-57.5 -11.5q-44 0 -68.5 16.5t-20.5 40.5q2 19 15 29.5t30 10.5q24 0 33 -12.5t13 -34.5q3 -16 6.5 -23t13.5 -7t16.5 15.5t13.5 56t21 136.5l52 353l1 7q1 18 -7 25.5
t-30 10.5q-26 2 -140 4l-55 -374q-14 -97 -34.5 -152t-50.5 -78.5t-77 -23.5q-41 0 -65 14.5t-24 36.5t13.5 34t32.5 12q24 0 32.5 -12t12.5 -35q3 -16 6.5 -23t13.5 -7t16.5 15.5t14 55.5t21.5 137l51 353q2 11 2 26q0 18 -10 22.5t-41 4.5q-3 0 -3 7q0 9 3 9q33 0 46.5 9
t18.5 34q23 116 83.5 184t153.5 68q30 0 65.5 -7.5t61.5 -20.5q60 63 141 63q26 0 63 -7q41 28 108 28q41 0 65 -14.5zM596 567.5q18 58.5 43 93.5q-22 23 -52 23q-47 0 -77 -60t-47 -185l-9 -62h74q17 4 25 13t11 28q14 91 32 149.5zM186 377q98 0 124 1q44 1 57 19
q4 7 7 21q11 67 37 130q-17 54 -39 77.5t-53 23.5q-47 0 -77 -51.5t-47 -158.5zM551 332q0 13 -6 19q-54 2 -95 2l-55 -374q-15 -103 -39 -163q11 6 24 6q24 0 32.5 -12t12.5 -35q3 -16 6.5 -23t13.5 -7t16.5 15.5t14 55.5t21.5 137l51 353q3 17 3 26z" />
    <glyph glyph-name="f_f_h.liga" unicode="ffh" horiz-adv-x="995" 
d="M970 79q3 0 5 -3.5t-1 -6.5q-34 -41 -60 -59.5t-54 -18.5q-25 0 -36.5 13.5t-11.5 41.5q0 16 5 43l29 159q4 23 4 44q0 50 -31 50q-28 0 -58.5 -37t-57.5 -108.5t-45 -171.5l-2 -13q-2 -9 -16 -14.5t-40 -5.5q-33 0 -33 8q1 7 6.5 30t9.5 44l100 543q-9 41 -29.5 64.5
t-48.5 23.5q-53 0 -87.5 -65t-54.5 -201l-9 -59q42 2 62 4q26 2 33 2q4 0 6 -4t1 -8q-3 -10 -14 -23t-20 -12q-63 9 -72 10l-55 -370q-14 -97 -34.5 -152t-50.5 -78.5t-77 -23.5q-41 0 -65 14.5t-24 36.5t13.5 34t32.5 12q24 0 32.5 -12t12.5 -35q3 -16 6.5 -23t13.5 -7
t16.5 15.5t14 55.5t21.5 137l51 353l1 7q1 18 -7 25.5t-30 10.5q-26 2 -140 4l-55 -374q-14 -97 -34.5 -152t-50.5 -78.5t-77 -23.5q-41 0 -65 14.5t-24 36.5t13.5 34t32.5 12q24 0 32.5 -12t12.5 -35q3 -16 6.5 -23t13.5 -7t16.5 15.5t14 55.5t21.5 137l51 353q2 11 2 26
q0 18 -10 22.5t-41 4.5q-3 0 -3 7q0 9 3 9q33 0 46.5 9t18.5 34q23 116 83.5 184t153.5 68q26 0 57.5 -6.5t56.5 -16.5q62 79 170 79q34 0 63 -6.5t45 -17.5q33 17 39 43q1 3 7 2.5t5 -3.5l-93 -525q34 86 79.5 133t96.5 47q69 0 69 -82q0 -26 -5 -50l-32 -178
q-3 -15 -3 -24q0 -23 16 -23q10 0 21.5 8.5t30.5 26.5q2 2 4 2zM409 556q-17 49 -39 71t-51 22q-47 0 -77 -51.5t-47 -158.5l-9 -62q98 0 124 1q29 2 42.5 8t18.5 19l3 13q14 83 35 138z" />
    <glyph glyph-name="f_f_i.liga" unicode="ffi" horiz-adv-x="749" 
d="M515 637.5q-33 -67.5 -52 -198.5l-9 -61q78 1 179 6l56 2q8 0 10.5 -2t2.5 -7q0 -1 -4 -25l-8 -43l-40 -220q-2 -9 -2 -23q0 -24 15 -24q10 0 22.5 9t30.5 26q2 2 4 2q3 0 5 -3.5t-1 -6.5q-34 -40 -60 -59t-54 -19q-48 0 -48 57q0 20 4 41l38 205q2 14 2 19
q0 18 -12.5 26.5t-45 12.5t-97.5 5l-56 -378q-14 -97 -34.5 -152t-50.5 -78.5t-77 -23.5q-41 0 -65 14.5t-24 36.5t13.5 34t32.5 12q24 0 32.5 -12t12.5 -35q3 -16 6.5 -23t13.5 -7t16.5 15.5t14 55.5t21.5 137l51 353l1 7q1 18 -7 25.5t-30 10.5q-26 2 -140 4l-55 -374
q-14 -97 -34.5 -152t-50.5 -78.5t-77 -23.5q-41 0 -65 14.5t-24 36.5t13.5 34t32.5 12q24 0 32.5 -12t12.5 -35q3 -16 6.5 -23t13.5 -7t16.5 15.5t14 55.5t21.5 137l51 353q2 11 2 26q0 18 -10 22.5t-41 4.5q-3 0 -3 7q0 9 3 9q33 0 46.5 9t18.5 34q23 116 83.5 184
t153.5 68q27 0 59.5 -6.5t59.5 -17.5q62 80 165 80q49 0 79 -18t30 -45q0 -22 -14 -35t-35 -13q-25 0 -36 12.5t-21 37.5q-9 21 -17 30.5t-23 9.5q-42 0 -75 -67.5zM410 551q-17 52 -39 75t-52 23q-47 0 -77 -51.5t-47 -158.5l-9 -62q98 0 124 1q29 2 42.5 8t18.5 19l3 13
q13 76 36 133z" />
    <glyph glyph-name="f_f_j.liga" unicode="ffj" horiz-adv-x="760" 
d="M721 706.5q30 -19.5 27 -49.5q-3 -20 -17 -31t-33 -11q-24 0 -35 12.5t-21 37.5q-9 21 -17 30.5t-24 9.5q-46 0 -82.5 -68.5t-55.5 -197.5l-9 -61q90 1 201 6l57 2q8 0 11 -2t3 -8l-4 -24q-6 -29 -8 -43l-60 -330q-17 -96 -38 -150.5t-51.5 -79t-76.5 -24.5
q-41 0 -65 14.5t-24 36.5t13.5 34t32.5 12q24 0 32.5 -12t12.5 -35q3 -16 6.5 -23t13.5 -7q9 0 14.5 11t12 44.5t15.5 83.5l13 69l62 341q3 12 3 20q0 18 -15 27t-52 12t-112 4l-56 -378q-14 -97 -34.5 -152t-50.5 -78.5t-77 -23.5q-41 0 -65 14.5t-24 36.5t13.5 34t32.5 12
q24 0 32.5 -12t12.5 -35q3 -16 6.5 -23t13.5 -7t16.5 15.5t14 55.5t21.5 137l51 353l1 7q1 18 -7 25.5t-30 10.5q-26 2 -140 4l-55 -374q-14 -97 -34.5 -152t-50.5 -78.5t-77 -23.5q-41 0 -65 14.5t-24 36.5t13.5 34t32.5 12q24 0 32.5 -12t12.5 -35q3 -16 6.5 -23t13.5 -7
t16.5 15.5t14 55.5t21.5 137l51 353q2 11 2 26q0 18 -10 22.5t-41 4.5q-3 0 -3 7q0 9 3 9q33 0 46.5 9t18.5 34q23 116 83.5 184t153.5 68q29 0 62.5 -7t59.5 -19q66 82 174 82q52 0 82 -19.5zM411 549q-17 53 -39 76.5t-53 23.5q-47 0 -77 -51.5t-47 -158.5l-9 -62
q98 0 124 1q44 1 57 19q4 7 7 21q15 76 37 131z" />
    <glyph glyph-name="f_f_k.liga" unicode="ffk" horiz-adv-x="952" 
d="M958 76q3 0 5 -3.5t0 -5.5q-67 -76 -106 -76q-26 0 -45.5 14.5t-42.5 52.5l-59 96q-7 12 -12.5 17t-12.5 6l-29 -165q-2 -9 -16 -14.5t-40 -5.5q-33 0 -33 8q1 7 6.5 30t9.5 44l100 543q-9 41 -29.5 64.5t-48.5 23.5q-53 0 -87.5 -65t-54.5 -201l-9 -59q42 2 62 4
q26 2 33 2q4 0 6 -4t1 -8q-3 -10 -14 -23t-20 -12q-63 9 -72 10l-55 -370q-14 -97 -34.5 -152t-50.5 -78.5t-77 -23.5q-41 0 -65 14.5t-24 36.5t13.5 34t32.5 12q24 0 32.5 -12t12.5 -35q3 -16 6.5 -23t13.5 -7t16.5 15.5t14 55.5t21.5 137l51 353l1 7q1 18 -7 25.5
t-30 10.5q-26 2 -140 4l-55 -374q-14 -97 -34.5 -152t-50.5 -78.5t-77 -23.5q-41 0 -65 14.5t-24 36.5t13.5 34t32.5 12q24 0 32.5 -12t12.5 -35q3 -16 6.5 -23t13.5 -7t16.5 15.5t14 55.5t21.5 137l51 353q2 11 2 26q0 18 -10 22.5t-41 4.5q-3 0 -3 7q0 9 3 9q33 0 46.5 9
t18.5 34q23 116 83.5 184t153.5 68q26 0 57.5 -6.5t56.5 -16.5q62 79 170 79q34 0 63 -6.5t45 -17.5q33 17 39 43q1 3 7 2.5t5 -3.5l-74 -416q36 33 78 52t82 19q37 0 52 -14.5t15 -34.5q0 -40 -43 -78.5t-121 -67.5l64 -102q20 -32 33.5 -42.5t28.5 -10.5q21 0 54 26
q1 1 3 1zM409 556q-17 49 -39 71t-51 22q-47 0 -77 -51.5t-47 -158.5l-9 -62q98 0 124 1q29 2 42.5 8t18.5 19l3 13q14 83 35 138zM735.5 310q-32.5 -46 -46.5 -113q73 17 108.5 45t37.5 69q2 21 -5 33t-23 12q-39 0 -71.5 -46z" />
    <glyph glyph-name="f_f_l.liga" unicode="ffl" horiz-adv-x="781" 
d="M669 89q-3 -15 -3 -24q0 -23 16 -23q10 0 22.5 9t30.5 26q2 2 3 2q3 0 5.5 -3.5t-0.5 -6.5q-34 -40 -60.5 -59t-54.5 -19q-48 0 -48 56q0 15 5 42l98 528q-9 41 -29.5 64.5t-48.5 23.5q-53 0 -87.5 -65t-54.5 -201l-9 -59q42 2 62 4q26 2 33 2q4 0 6 -4t1 -8
q-3 -10 -14 -23t-20 -12q-63 9 -72 10l-55 -370q-14 -97 -34.5 -152t-50.5 -78.5t-77 -23.5q-41 0 -65 14.5t-24 36.5t13.5 34t32.5 12q24 0 32.5 -12t12.5 -35q3 -16 6.5 -23t13.5 -7t16.5 15.5t14 55.5t21.5 137l51 353l1 7q1 18 -7 25.5t-30 10.5q-26 2 -140 4l-55 -374
q-14 -97 -34.5 -152t-50.5 -78.5t-77 -23.5q-41 0 -65 14.5t-24 36.5t13.5 34t32.5 12q24 0 32.5 -12t12.5 -35q3 -16 6.5 -23t13.5 -7t16.5 15.5t14 55.5t21.5 137l51 353q2 11 2 26q0 18 -10 22.5t-41 4.5q-3 0 -3 7q0 9 3 9q33 0 46.5 9t18.5 34q23 116 83.5 184
t153.5 68q26 0 57.5 -6.5t56.5 -16.5q62 79 170 79q34 0 63 -6.5t45 -17.5q33 17 39 43q1 3 7 2.5t5 -3.5zM409 556q-17 49 -39 71t-51 22q-47 0 -77 -51.5t-47 -158.5l-9 -62q98 0 124 1q29 2 42.5 8t18.5 19l3 13q14 83 35 138z" />
    <glyph glyph-name="f_f_thorn.liga" unicode="ff&#xfe;" horiz-adv-x="960" 
d="M916.5 365q28.5 -28 28.5 -80q0 -21 -2 -32q-10 -67 -48 -125.5t-92 -93.5t-108 -35q-15 0 -41 2l-32 -179q-3 -18 -3 -29q0 -15 7 -21.5t23 -6.5q5 0 21 2q4 0 5.5 -5t-2.5 -6l-190 -31q-3 -1 -4.5 5t2.5 7q20 5 29 11.5t14 20.5t11 46l89 481q-25 -15 -54 -36
q-1 -1 -3 -1q-4 0 -6 4t2 7q38 31 65 48l55 299q-9 41 -29.5 64.5t-48.5 23.5q-53 0 -87.5 -65t-54.5 -201l-9 -59q42 2 62 4q26 2 33 2q4 0 6 -4t1 -8q-3 -10 -14 -23t-20 -12q-63 9 -72 10l-55 -370q-14 -97 -34.5 -152t-50.5 -78.5t-77 -23.5q-41 0 -65 14.5t-24 36.5
t13.5 34t32.5 12q24 0 32.5 -12t12.5 -35q3 -16 6.5 -23t13.5 -7t16.5 15.5t14 55.5t21.5 137l51 353l1 7q1 18 -7 25.5t-30 10.5q-26 2 -140 4l-55 -374q-14 -97 -34.5 -152t-50.5 -78.5t-77 -23.5q-41 0 -65 14.5t-24 36.5t13.5 34t32.5 12q24 0 32.5 -12t12.5 -35
q3 -16 6.5 -23t13.5 -7t16.5 15.5t14 55.5t21.5 137l51 353q2 11 2 26q0 18 -10 22.5t-41 4.5q-3 0 -3 7q0 9 3 9q33 0 46.5 9t18.5 34q23 116 83.5 184t153.5 68q26 0 57.5 -6.5t56.5 -16.5q62 79 170 79q34 0 63 -6.5t45 -17.5q33 17 39 43q1 3 7 2.5t5 -3.5l-67 -377
q60 26 116 26q53 0 81.5 -28zM409 556q-17 49 -39 71t-51 22q-47 0 -77 -51.5t-47 -158.5l-9 -62q98 0 124 1q29 2 42.5 8t18.5 19l3 13q14 83 35 138zM854 242q0 45 -21.5 73.5t-66.5 28.5q-28 0 -52 -7l-53 -294q35 -14 71 -14q49 0 80 52.5t41 138.5q1 7 1 22z" />
    <glyph glyph-name="f_f_t.liga" unicode="fft" horiz-adv-x="825" 
d="M830 382q2 -4 1 -8q-3 -11 -14 -24.5t-20 -12.5q-59 10 -99 12l-42 -238q-2 -16 -2 -22q0 -24 12.5 -35t38.5 -11q38 0 85 37h1q3 0 6 -3t1 -6q-46 -44 -82 -63.5t-70 -19.5q-82 0 -82 74q0 14 3 32l39 212q1 3 1 9q0 18 -16 27.5t-42 10.5q-23 1 -99 1l-55 -375
q-14 -97 -34.5 -152t-50.5 -78.5t-77 -23.5q-41 0 -65 14.5t-24 36.5t13.5 34t32.5 12q24 0 32.5 -12t12.5 -35q3 -16 6.5 -23t13.5 -7t16.5 15.5t14 55.5t21.5 137l51 353l1 7q1 18 -7 25.5t-30 10.5q-26 2 -140 4l-55 -374q-14 -97 -34.5 -152t-50.5 -78.5t-77 -23.5
q-41 0 -65 14.5t-24 36.5t13.5 34t32.5 12q24 0 32.5 -12t12.5 -35q3 -16 6.5 -23t13.5 -7t16.5 15.5t14 55.5t21.5 137l51 353q2 11 2 26q0 18 -10 22.5t-41 4.5q-3 0 -3 7q0 9 3 9q33 0 46.5 9t18.5 34q23 116 83.5 184t153.5 68q46 0 100 -17q26 40 61.5 56.5t87.5 16.5
q41 0 65 -14.5t24 -36.5t-14 -35t-35 -13q-28 0 -37.5 13t-12.5 35q-3 15 -7 22.5t-15 7.5q-32 0 -54.5 -64.5t-42.5 -201.5l-9 -64q68 0 113 3q53 2 85 23t48 62q2 3 6 3q5 0 9 -2t3 -4l-14 -82q35 2 120 8q4 0 6 -4zM186 377q98 0 124 1q29 2 42.5 8t18.5 19l3 13
q12 79 31 146q-16 45 -37 65t-49 20q-47 0 -77 -51.5t-47 -158.5z" />
    <glyph glyph-name="f_h.liga" unicode="fh" horiz-adv-x="727" 
d="M702 79q3 0 5 -3.5t-1 -6.5q-34 -41 -60 -59.5t-54 -18.5q-25 0 -36.5 13.5t-11.5 41.5q0 16 5 43l29 159q4 23 4 44q0 50 -31 50q-28 0 -58.5 -37t-57.5 -108.5t-45 -171.5l-2 -13q-2 -9 -16 -14.5t-40 -5.5q-33 0 -33 8q1 7 6.5 30t9.5 44l100 543q-9 41 -29.5 64.5
t-48.5 23.5q-53 0 -87.5 -65t-54.5 -201l-9 -59q42 2 62 4q26 2 33 2q4 0 6 -4t1 -8q-3 -10 -14 -23t-20 -12q-63 9 -72 10l-55 -370q-14 -97 -34.5 -152t-50.5 -78.5t-77 -23.5q-41 0 -65 14.5t-24 36.5t13.5 34t32.5 12q24 0 32.5 -12t12.5 -35q3 -16 6.5 -23t13.5 -7
t16.5 15.5t14 55.5t21.5 137l51 353q2 11 2 26q0 18 -10 22.5t-41 4.5q-3 0 -3 7q0 9 3 9q33 0 47 9t18 34q27 156 85.5 232t167.5 76q34 0 63 -6.5t45 -17.5q33 17 39 43q1 3 7 2.5t5 -3.5l-93 -525q34 86 79.5 133t96.5 47q69 0 69 -82q0 -26 -5 -50l-32 -178
q-3 -15 -3 -24q0 -23 16 -23q10 0 21.5 8.5t30.5 26.5q2 2 4 2z" />
    <glyph glyph-name="f_j.liga" unicode="fj" horiz-adv-x="492" 
d="M453 706.5q30 -19.5 27 -49.5q-3 -20 -17 -31t-33 -11q-24 0 -35 12.5t-21 37.5q-9 21 -17 30.5t-24 9.5q-46 0 -82.5 -68.5t-55.5 -197.5l-9 -61q90 1 201 6l57 2q8 0 11 -2t3 -8l-4 -24q-6 -29 -8 -43l-60 -330q-17 -96 -38 -150.5t-51.5 -79t-76.5 -24.5
q-41 0 -65 14.5t-24 36.5t13.5 34t32.5 12q24 0 32.5 -12t12.5 -35q3 -16 6.5 -23t13.5 -7q9 0 14.5 11t12 44.5t15.5 83.5l13 69l62 341q3 12 3 20q0 18 -15 27t-52 12t-112 4l-56 -378q-14 -97 -34.5 -152t-50.5 -78.5t-77 -23.5q-41 0 -65 14.5t-24 36.5t13.5 34t32.5 12
q24 0 32.5 -12t12.5 -35q3 -16 6.5 -23t13.5 -7t16.5 15.5t14 55.5t21.5 137l51 353q2 11 2 26q0 18 -10 22.5t-41 4.5q-3 0 -3 7q0 9 3 9q33 0 46.5 9t18.5 34q31 157 96.5 232.5t168.5 75.5q52 0 82 -19.5z" />
    <glyph glyph-name="f_k.liga" unicode="fk" horiz-adv-x="684" 
d="M690 76q3 0 5 -3.5t0 -5.5q-67 -76 -106 -76q-26 0 -45.5 14.5t-42.5 52.5l-59 96q-7 12 -12.5 17t-12.5 6l-29 -165q-2 -9 -16 -14.5t-40 -5.5q-33 0 -33 8q1 7 6.5 30t9.5 44l100 543q-9 41 -29.5 64.5t-48.5 23.5q-53 0 -87.5 -65t-54.5 -201l-9 -59q42 2 62 4
q26 2 33 2q4 0 6 -4t1 -8q-3 -10 -14 -23t-20 -12q-63 9 -72 10l-55 -370q-14 -97 -34.5 -152t-50.5 -78.5t-77 -23.5q-41 0 -65 14.5t-24 36.5t13.5 34t32.5 12q24 0 32.5 -12t12.5 -35q3 -16 6.5 -23t13.5 -7t16.5 15.5t14 55.5t21.5 137l51 353q2 11 2 26q0 18 -10 22.5
t-41 4.5q-3 0 -3 7q0 9 3 9q33 0 47 9t18 34q27 156 85.5 232t167.5 76q34 0 63 -6.5t45 -17.5q33 17 39 43q1 3 7 2.5t5 -3.5l-74 -416q36 33 78 52t82 19q37 0 52 -14.5t15 -34.5q0 -40 -43 -78.5t-121 -67.5l64 -102q20 -32 33.5 -42.5t28.5 -10.5q21 0 54 26q1 1 3 1z
M467.5 310q-32.5 -46 -46.5 -113q73 17 108.5 45t37.5 69q2 21 -5 33t-23 12q-39 0 -71.5 -46z" />
    <glyph glyph-name="f_thorn.liga" unicode="f&#xfe;" horiz-adv-x="692" 
d="M648.5 365q28.5 -28 28.5 -80q0 -21 -2 -32q-10 -67 -48 -125.5t-92 -93.5t-108 -35q-15 0 -41 2l-32 -179q-3 -18 -3 -29q0 -15 7 -21.5t23 -6.5q5 0 21 2q4 0 5.5 -5t-2.5 -6l-190 -31q-3 -1 -4.5 5t2.5 7q20 5 29 11.5t14 20.5t11 46l89 481q-25 -15 -54 -36
q-1 -1 -3 -1q-4 0 -6 4t2 7q38 31 65 48l55 299q-9 41 -29.5 64.5t-48.5 23.5q-53 0 -87.5 -65t-54.5 -201l-9 -59q42 2 62 4q26 2 33 2q4 0 6 -4t1 -8q-3 -10 -14 -23t-20 -12q-63 9 -72 10l-55 -370q-14 -97 -34.5 -152t-50.5 -78.5t-77 -23.5q-41 0 -65 14.5t-24 36.5
t13.5 34t32.5 12q24 0 32.5 -12t12.5 -35q3 -16 6.5 -23t13.5 -7t16.5 15.5t14 55.5t21.5 137l51 353q2 11 2 26q0 18 -10 22.5t-41 4.5q-3 0 -3 7q0 9 3 9q33 0 47 9t18 34q27 156 85.5 232t167.5 76q34 0 63 -6.5t45 -17.5q33 17 39 43q1 3 7 2.5t5 -3.5l-67 -377
q60 26 116 26q53 0 81.5 -28zM586 242q0 45 -21.5 73.5t-66.5 28.5q-28 0 -52 -7l-53 -294q35 -14 71 -14q49 0 80 52.5t41 138.5q1 7 1 22z" />
    <glyph glyph-name="f_t.liga" unicode="ft" horiz-adv-x="557" 
d="M562 382q2 -4 1 -8q-3 -11 -14 -24.5t-20 -12.5q-59 10 -99 12l-42 -238q-2 -16 -2 -22q0 -24 12.5 -35t38.5 -11q38 0 85 37h1q3 0 6 -3t1 -6q-46 -44 -82 -63.5t-70 -19.5q-82 0 -82 74q0 14 3 32l39 212q1 3 1 9q0 18 -16 27.5t-42 10.5q-23 1 -99 1l-55 -375
q-14 -97 -34.5 -152t-50.5 -78.5t-77 -23.5q-41 0 -65 14.5t-24 36.5t13.5 34t32.5 12q24 0 32.5 -12t12.5 -35q3 -16 6.5 -23t13.5 -7t16.5 15.5t14 55.5t21.5 137l51 353q2 11 2 26q0 18 -10 22.5t-41 4.5q-3 0 -3 7q0 9 3 9q33 0 47 9t18 34q20 123 46.5 188.5t66.5 92.5
t105 27q41 0 65 -14.5t24 -36.5t-14 -35t-35 -13q-28 0 -37.5 13t-12.5 35q-3 15 -7 22.5t-15 7.5q-32 0 -54.5 -64.5t-42.5 -201.5l-9 -64q68 0 113 3q53 2 85 23t48 62q2 3 6 3q5 0 9 -2t3 -4l-14 -82q35 2 120 8q4 0 6 -4z" />
    <glyph glyph-name="g_g.liga" unicode="gg" horiz-adv-x="777" 
d="M364.5 348q-25.5 7 -52.5 7q23 -31 23 -73q0 -20 -4 -36q-14 -67 -65 -107.5t-112 -40.5q-13 0 -19 1q-6 -12 -6 -19q-3 -25 16 -41.5t63 -39.5q37 -19 59 -33.5t38 -37t16 -54.5q0 -46 -29 -81.5t-77.5 -54.5t-104.5 -19q-73 0 -115 28.5t-42 71.5q0 40 34.5 73.5
t99.5 70.5q-35 23 -35 52q0 7 1 10q4 18 20.5 37t44.5 41q-35 10 -54 39.5t-19 68.5q0 11 4 35q12 63 62 104.5t114 41.5q45 0 72 -22q67 26 121 26q5 0 5 -15q0 -17 -5 -35.5t-9 -15.5q-19 11 -44.5 18zM787 380q0 -17 -4.5 -35t-8.5 -15q-30 22 -73 24q22 -28 22 -71
q0 -20 -4 -37q-9 -44 -35.5 -78t-64 -52t-76.5 -18q-13 0 -19 1q-7 -10 -7 -19q-3 -25 17.5 -42t67.5 -39q38 -19 61.5 -33.5t40.5 -37t17 -54.5q0 -46 -31 -81.5t-82 -54.5t-110 -19q-67 0 -106 28.5t-39 72.5q0 40 32 73t92 69q-37 25 -37 52q0 22 16.5 42.5t49.5 46.5
q-35 10 -54 39.5t-19 68.5q0 11 4 35q13 63 63 104.5t113 41.5q42 0 71 -21q24 12 50.5 18.5t47.5 6.5q5 0 5 -16zM246 269q0 42 -11 72t-34 30q-22 0 -41 -34t-24 -84q-2 -24 -2 -34q0 -44 13 -71.5t33 -27.5q22 0 40.5 32.5t23.5 84.5q2 20 2 32zM635 267q0 42 -11.5 73
t-34.5 31q-22 0 -41 -34t-24 -84q-2 -22 -2 -32q0 -45 13 -73t33 -28q23 0 41.5 32.5t23.5 84.5q2 20 2 30zM213.5 -114.5q-26.5 22.5 -77.5 49.5l-35 19q-58 -46 -58 -105q0 -43 34 -71t84 -28q41 0 60 22.5t19 53.5q0 37 -26.5 59.5zM611.5 -113.5q-28.5 23.5 -82.5 48.5
l-36 18q-50 -46 -50 -103q0 -44 31 -72t76 -28q46 0 68 22.5t22 53.5q0 37 -28.5 60.5z" />
    <glyph glyph-name="g_y.liga" unicode="gy" horiz-adv-x="805" 
d="M758 378q14 -18 14 -52q0 -76 -62 -225t-145.5 -265.5t-146.5 -116.5q-59 0 -59 47q0 28 15.5 43.5t43.5 15.5q13 0 37 -6t35 -6q24 0 40 21q14 19 40 57q-22 140 -53.5 243t-67.5 158t-72 55q-21 0 -49 -21q7 -18 7 -44q0 -20 -4 -36q-14 -67 -65 -107.5t-112 -40.5
q-13 0 -19 1q-6 -12 -6 -19q-3 -25 17.5 -41.5t66.5 -39.5q39 -19 62.5 -33.5t40.5 -37.5t17 -55q0 -46 -31 -81t-82 -54t-110 -19q-73 0 -115 28.5t-42 71.5q0 40 35 74.5t100 69.5q-36 24 -36 51q0 21 17 42t49 47q-35 10 -54 39.5t-19 68.5q0 11 4 35q12 63 62 104.5
t114 41.5q35 0 59.5 -13.5t36.5 -37.5q28 26 57.5 40t55.5 14q68 0 121.5 -109t82.5 -279q54 103 71 184q5 23 5 35q0 23 -8 38.5t-22 31.5q-12 14 -17.5 24t-5.5 25q0 23 16 37t42 14q25 0 39 -18zM246 269q0 42 -11 72t-34 30q-22 0 -41 -34t-24 -84q-2 -24 -2 -34
q0 -44 13 -71.5t33 -27.5q22 0 40.5 32.5t23.5 84.5q2 20 2 32zM223 -114q-28 23 -81 49q-22 9 -40 20q-59 -47 -59 -106q0 -43 34 -71t84 -28q46 0 68 22.5t22 53.5q0 37 -28 60z" />
    <glyph glyph-name="g_yacute.liga" unicode="g&#xfd;" horiz-adv-x="805" 
d="M573.5 472q-5.5 2 -3.5 4l75 240q1 6 29 11t52 5q23 0 19 -5l-165 -254q-1 -3 -6.5 -1zM758 378q14 -18 14 -52q0 -76 -62 -225t-145.5 -265.5t-146.5 -116.5q-59 0 -59 47q0 28 15.5 43.5t43.5 15.5q13 0 37 -6t35 -6q24 0 40 21q14 19 40 57q-22 140 -53.5 243
t-67.5 158t-72 55q-21 0 -49 -21q7 -18 7 -44q0 -20 -4 -36q-14 -67 -65 -107.5t-112 -40.5q-13 0 -19 1q-6 -12 -6 -19q-3 -25 17.5 -41.5t66.5 -39.5q39 -19 62.5 -33.5t40.5 -37.5t17 -55q0 -46 -31 -81t-82 -54t-110 -19q-73 0 -115 28.5t-42 71.5q0 40 35 74.5
t100 69.5q-36 24 -36 51q0 21 17 42t49 47q-35 10 -54 39.5t-19 68.5q0 11 4 35q12 63 62 104.5t114 41.5q35 0 59.5 -13.5t36.5 -37.5q28 26 57.5 40t55.5 14q68 0 121.5 -109t82.5 -279q54 103 71 184q5 23 5 35q0 23 -8 38.5t-22 31.5q-12 14 -17.5 24t-5.5 25
q0 23 16 37t42 14q25 0 39 -18zM246 269q0 42 -11 72t-34 30q-22 0 -41 -34t-24 -84q-2 -24 -2 -34q0 -44 13 -71.5t33 -27.5q22 0 40.5 32.5t23.5 84.5q2 20 2 32zM223 -114q-28 23 -81 49q-22 9 -40 20q-59 -47 -59 -106q0 -43 34 -71t84 -28q46 0 68 22.5t22 53.5
q0 37 -28 60z" />
    <glyph glyph-name="g_ycircumflex.liga" unicode="g&#x177;" horiz-adv-x="805" 
d="M514 473q-3 0 -5.5 1.5t-1.5 3.5l119 249q3 5 11 5t8 -5l32 -249q0 -3 -5.5 -3.5t-6.5 2.5l-53 107l-94 -110q-1 -1 -4 -1zM758 378q14 -18 14 -52q0 -76 -62 -225t-145.5 -265.5t-146.5 -116.5q-59 0 -59 47q0 28 15.5 43.5t43.5 15.5q13 0 37 -6t35 -6q24 0 40 21
q14 19 40 57q-22 140 -53.5 243t-67.5 158t-72 55q-21 0 -49 -21q7 -18 7 -44q0 -20 -4 -36q-14 -67 -65 -107.5t-112 -40.5q-13 0 -19 1q-6 -12 -6 -19q-3 -25 17.5 -41.5t66.5 -39.5q39 -19 62.5 -33.5t40.5 -37.5t17 -55q0 -46 -31 -81t-82 -54t-110 -19q-73 0 -115 28.5
t-42 71.5q0 40 35 74.5t100 69.5q-36 24 -36 51q0 21 17 42t49 47q-35 10 -54 39.5t-19 68.5q0 11 4 35q12 63 62 104.5t114 41.5q35 0 59.5 -13.5t36.5 -37.5q28 26 57.5 40t55.5 14q68 0 121.5 -109t82.5 -279q54 103 71 184q5 23 5 35q0 23 -8 38.5t-22 31.5
q-12 14 -17.5 24t-5.5 25q0 23 16 37t42 14q25 0 39 -18zM246 269q0 42 -11 72t-34 30q-22 0 -41 -34t-24 -84q-2 -24 -2 -34q0 -44 13 -71.5t33 -27.5q22 0 40.5 32.5t23.5 84.5q2 20 2 32zM223 -114q-28 23 -81 49q-22 9 -40 20q-59 -47 -59 -106q0 -43 34 -71t84 -28
q46 0 68 22.5t22 53.5q0 37 -28 60z" />
    <glyph glyph-name="g_ydieresis.liga" unicode="g&#xff;" horiz-adv-x="805" 
d="M477 478.5q-14 14.5 -14 40.5q0 24 14.5 37.5t39.5 13.5q24 0 37.5 -13.5t13.5 -37.5q0 -26 -13.5 -40.5t-37.5 -14.5q-26 0 -40 14.5zM636 478.5q-14 14.5 -14 40.5q0 24 14.5 37.5t39.5 13.5q24 0 37.5 -13.5t13.5 -37.5q0 -26 -13.5 -40.5t-37.5 -14.5q-26 0 -40 14.5
zM758 378q14 -18 14 -52q0 -76 -62 -225t-145.5 -265.5t-146.5 -116.5q-59 0 -59 47q0 28 15.5 43.5t43.5 15.5q13 0 37 -6t35 -6q24 0 40 21q14 19 40 57q-22 140 -53.5 243t-67.5 158t-72 55q-21 0 -49 -21q7 -18 7 -44q0 -20 -4 -36q-14 -67 -65 -107.5t-112 -40.5
q-13 0 -19 1q-6 -12 -6 -19q-3 -25 17.5 -41.5t66.5 -39.5q39 -19 62.5 -33.5t40.5 -37.5t17 -55q0 -46 -31 -81t-82 -54t-110 -19q-73 0 -115 28.5t-42 71.5q0 40 35 74.5t100 69.5q-36 24 -36 51q0 21 17 42t49 47q-35 10 -54 39.5t-19 68.5q0 11 4 35q12 63 62 104.5
t114 41.5q35 0 59.5 -13.5t36.5 -37.5q28 26 57.5 40t55.5 14q68 0 121.5 -109t82.5 -279q54 103 71 184q5 23 5 35q0 23 -8 38.5t-22 31.5q-12 14 -17.5 24t-5.5 25q0 23 16 37t42 14q25 0 39 -18zM246 269q0 42 -11 72t-34 30q-22 0 -41 -34t-24 -84q-2 -24 -2 -34
q0 -44 13 -71.5t33 -27.5q22 0 40.5 32.5t23.5 84.5q2 20 2 32zM223 -114q-28 23 -81 49q-22 9 -40 20q-59 -47 -59 -106q0 -43 34 -71t84 -28q46 0 68 22.5t22 53.5q0 37 -28 60z" />
    <glyph glyph-name="g_ygrave.liga" unicode="g&#x1ef3;" horiz-adv-x="805" 
d="M530 727q-1 7 22 7q22 0 47.5 -6t24.5 -12l-24 -240q0 -2 -4.5 -3t-4.5 2zM758 378q14 -18 14 -52q0 -76 -62 -225t-145.5 -265.5t-146.5 -116.5q-59 0 -59 47q0 28 15.5 43.5t43.5 15.5q13 0 37 -6t35 -6q24 0 40 21q14 19 40 57q-22 140 -53.5 243t-67.5 158t-72 55
q-21 0 -49 -21q7 -18 7 -44q0 -20 -4 -36q-14 -67 -65 -107.5t-112 -40.5q-13 0 -19 1q-6 -12 -6 -19q-3 -25 17.5 -41.5t66.5 -39.5q39 -19 62.5 -33.5t40.5 -37.5t17 -55q0 -46 -31 -81t-82 -54t-110 -19q-73 0 -115 28.5t-42 71.5q0 40 35 74.5t100 69.5q-36 24 -36 51
q0 21 17 42t49 47q-35 10 -54 39.5t-19 68.5q0 11 4 35q12 63 62 104.5t114 41.5q35 0 59.5 -13.5t36.5 -37.5q28 26 57.5 40t55.5 14q68 0 121.5 -109t82.5 -279q54 103 71 184q5 23 5 35q0 23 -8 38.5t-22 31.5q-12 14 -17.5 24t-5.5 25q0 23 16 37t42 14q25 0 39 -18z
M246 269q0 42 -11 72t-34 30q-22 0 -41 -34t-24 -84q-2 -24 -2 -34q0 -44 13 -71.5t33 -27.5q22 0 40.5 32.5t23.5 84.5q2 20 2 32zM223 -114q-28 23 -81 49q-22 9 -40 20q-59 -47 -59 -106q0 -43 34 -71t84 -28q46 0 68 22.5t22 53.5q0 37 -28 60z" />
    <glyph glyph-name="uni00670233.liga" unicode="g&#x233;" horiz-adv-x="805" 
d="M476 479q-3 6 -3 14t3 14t7 6h228q5 0 8 -6t3 -14t-3 -14t-8 -6h-228q-4 0 -7 6zM758 378q14 -18 14 -52q0 -76 -62 -225t-145.5 -265.5t-146.5 -116.5q-59 0 -59 47q0 28 15.5 43.5t43.5 15.5q13 0 37 -6t35 -6q24 0 40 21q14 19 40 57q-22 140 -53.5 243t-67.5 158
t-72 55q-21 0 -49 -21q7 -18 7 -44q0 -20 -4 -36q-14 -67 -65 -107.5t-112 -40.5q-13 0 -19 1q-6 -12 -6 -19q-3 -25 17.5 -41.5t66.5 -39.5q39 -19 62.5 -33.5t40.5 -37.5t17 -55q0 -46 -31 -81t-82 -54t-110 -19q-73 0 -115 28.5t-42 71.5q0 40 35 74.5t100 69.5
q-36 24 -36 51q0 21 17 42t49 47q-35 10 -54 39.5t-19 68.5q0 11 4 35q12 63 62 104.5t114 41.5q35 0 59.5 -13.5t36.5 -37.5q28 26 57.5 40t55.5 14q68 0 121.5 -109t82.5 -279q54 103 71 184q5 23 5 35q0 23 -8 38.5t-22 31.5q-12 14 -17.5 24t-5.5 25q0 23 16 37t42 14
q25 0 39 -18zM246 269q0 42 -11 72t-34 30q-22 0 -41 -34t-24 -84q-2 -24 -2 -34q0 -44 13 -71.5t33 -27.5q22 0 40.5 32.5t23.5 84.5q2 20 2 32zM223 -114q-28 23 -81 49q-22 9 -40 20q-59 -47 -59 -106q0 -43 34 -71t84 -28q46 0 68 22.5t22 53.5q0 37 -28 60z" />
    <glyph glyph-name="uni00671EF9.liga" unicode="g&#x1ef9;" horiz-adv-x="805" 
d="M456 470q-2 0 -4.5 2.5t-1.5 4.5q22 34 46 57.5t53 23.5q11 0 47 -10q18 -6 38 -10.5t36 -4.5q21 0 34.5 6t28.5 21q0 1 2 1t4 -3t1 -5q-30 -48 -49.5 -64t-45.5 -16q-19 0 -56 11q-17 5 -35 9t-34 4q-24 0 -34 -5t-29 -22h-1zM758 378q14 -18 14 -52q0 -76 -62 -225
t-145.5 -265.5t-146.5 -116.5q-59 0 -59 47q0 28 15.5 43.5t43.5 15.5q13 0 37 -6t35 -6q24 0 40 21q14 19 40 57q-22 140 -53.5 243t-67.5 158t-72 55q-21 0 -49 -21q7 -18 7 -44q0 -20 -4 -36q-14 -67 -65 -107.5t-112 -40.5q-13 0 -19 1q-6 -12 -6 -19q-3 -25 17.5 -41.5
t66.5 -39.5q39 -19 62.5 -33.5t40.5 -37.5t17 -55q0 -46 -31 -81t-82 -54t-110 -19q-73 0 -115 28.5t-42 71.5q0 40 35 74.5t100 69.5q-36 24 -36 51q0 21 17 42t49 47q-35 10 -54 39.5t-19 68.5q0 11 4 35q12 63 62 104.5t114 41.5q35 0 59.5 -13.5t36.5 -37.5
q28 26 57.5 40t55.5 14q68 0 121.5 -109t82.5 -279q54 103 71 184q5 23 5 35q0 23 -8 38.5t-22 31.5q-12 14 -17.5 24t-5.5 25q0 23 16 37t42 14q25 0 39 -18zM246 269q0 42 -11 72t-34 30q-22 0 -41 -34t-24 -84q-2 -24 -2 -34q0 -44 13 -71.5t33 -27.5q22 0 40.5 32.5
t23.5 84.5q2 20 2 32zM223 -114q-28 23 -81 49q-22 9 -40 20q-59 -47 -59 -106q0 -43 34 -71t84 -28q46 0 68 22.5t22 53.5q0 37 -28 60z" />
    <glyph glyph-name="longs_b.liga" unicode="&#x17f;b" horiz-adv-x="738" 
d="M699.5 370q21.5 -29 21.5 -79q0 -19 -3 -40q-14 -81 -61 -141t-106.5 -91.5t-109.5 -31.5q-53 0 -82.5 21.5t-29.5 58.5q0 6 2 20l98 530q-9 41 -29.5 64.5t-48.5 23.5q-53 0 -87.5 -65t-54.5 -201l-67 -460q-15 -97 -35.5 -152t-51 -78.5t-76.5 -23.5q-41 0 -65 14.5
t-24 36.5t13.5 34t32.5 12q24 0 32.5 -12t12.5 -35q3 -16 6.5 -23t13.5 -7t16.5 15.5t14 55.5t21.5 137l67 465q23 155 83 231.5t170 76.5q34 0 63 -6.5t45 -17.5q33 17 39 43q1 3 7 2.5t5 -3.5l-90 -509q35 74 87.5 119t109.5 45q39 0 60.5 -29zM625 266q0 30 -11 48
t-33 18q-53 0 -98 -64t-64 -167l-1 -5q-2 -12 -2 -17q0 -28 17.5 -46t43.5 -18q30 0 59.5 24.5t51.5 71t32 109.5q5 27 5 46z" />
    <glyph glyph-name="longs_h.liga" unicode="&#x17f;h" horiz-adv-x="742" 
d="M716 79q3 0 5 -3.5t-1 -6.5q-34 -41 -60 -59.5t-54 -18.5q-25 0 -36.5 13.5t-11.5 41.5q0 16 5 43l29 159q5 28 5 45q0 49 -32 49q-28 0 -58.5 -37t-57.5 -108.5t-45 -171.5l-2 -13q-2 -9 -16 -14.5t-40 -5.5q-33 0 -33 8q1 7 6.5 30t9.5 44l100 543q-9 41 -29.5 64.5
t-48.5 23.5q-53 0 -87.5 -65t-54.5 -201l-67 -460q-15 -97 -35.5 -152t-51 -78.5t-76.5 -23.5q-41 0 -65 14.5t-24 36.5t13.5 34t32.5 12q24 0 32.5 -12t12.5 -35q3 -16 6.5 -23t13.5 -7t16.5 15.5t14 55.5t21.5 137l67 465q23 155 83 231.5t170 76.5q34 0 63 -6.5t45 -17.5
q33 17 39 43q1 3 7 2.5t5 -3.5l-93 -525q34 86 79.5 133t96.5 47q70 0 70 -84q0 -18 -5 -48l-33 -178q-3 -15 -3 -24q0 -23 16 -23q10 0 21.5 8.5t30.5 26.5q2 2 4 2z" />
    <glyph glyph-name="longs_i.liga" unicode="&#x17f;i" horiz-adv-x="502" 
d="M-86 -260.5q-24 14.5 -24 36.5t13.5 34t32.5 12q24 0 32.5 -12t12.5 -35q3 -16 6.5 -23t13.5 -7t16.5 15.5t14 55.5t21.5 137l67 465q23 152 88.5 230t164.5 78q49 0 79 -18t30 -45q0 -22 -14 -35t-35 -13q-25 0 -36 12.5t-21 37.5q-9 21 -17 30.5t-23 9.5
q-42 0 -75 -67.5t-52 -198.5l-67 -460q-15 -97 -35.5 -152t-51 -78.5t-76.5 -23.5q-41 0 -65 14.5zM276 47q0 15 5 42l41 208q3 14 3 23q0 13 -5 19.5t-13 6.5q-21 0 -57 -40q-1 -1 -3 -1q-4 0 -6 3.5t0 6.5q36 42 65 61t57 19q48 0 48 -52q0 -17 -4 -34l-42 -220
q-2 -9 -2 -23q0 -24 15 -24q10 0 22.5 9t30.5 26q2 2 4 2q3 0 5 -3.5t-1 -6.5q-34 -40 -60.5 -59t-54.5 -19q-48 0 -48 56z" />
    <glyph glyph-name="longs_j.liga" unicode="&#x17f;j" horiz-adv-x="509" 
d="M-86 -260.5q-24 14.5 -24 36.5t13.5 34t32.5 12q24 0 32.5 -12t12.5 -35q3 -16 6.5 -23t13.5 -7t16.5 15.5t14 55.5t21.5 137l67 465q24 152 92.5 230t172.5 78q52 0 82 -19.5t27 -49.5q-3 -20 -17 -31t-33 -11q-24 0 -35 12.5t-21 37.5q-9 21 -17 30.5t-24 9.5
q-45 0 -81 -68t-57 -198l-67 -460q-15 -97 -35.5 -152t-51 -78.5t-76.5 -23.5q-41 0 -65 14.5zM136 -260.5q-24 14.5 -24 36.5t13.5 34t32.5 12q24 0 32.5 -12t12.5 -35q3 -16 6.5 -23t13.5 -7t16 14t14.5 57.5t19.5 107.5l5 29l61 344q2 9 2 22q0 27 -17 27q-21 0 -58 -40
q-1 -1 -3 -1q-3 0 -5 3.5t0 6.5q36 42 64.5 61t57.5 19q47 0 47 -53q0 -15 -3 -33l-57 -330q-17 -96 -38 -150.5t-51.5 -79t-76.5 -24.5q-41 0 -65 14.5z" />
    <glyph glyph-name="longs_k.liga" unicode="&#x17f;k" horiz-adv-x="698" 
d="M704 76q3 0 5 -3.5t0 -5.5q-67 -76 -105 -76q-27 0 -46.5 14.5t-42.5 52.5l-59 96q-7 12 -12.5 17t-12.5 6l-29 -165q-2 -9 -16 -14.5t-40 -5.5q-33 0 -33 8q1 7 6.5 30t9.5 44l100 543q-9 41 -29.5 64.5t-48.5 23.5q-53 0 -87.5 -65t-54.5 -201l-67 -460
q-15 -97 -35.5 -152t-51 -78.5t-76.5 -23.5q-41 0 -65 14.5t-24 36.5t13.5 34t32.5 12q24 0 32.5 -12t12.5 -35q3 -16 6.5 -23t13.5 -7t16.5 15.5t14 55.5t21.5 137l67 465q23 155 83 231.5t170 76.5q34 0 63 -6.5t45 -17.5q33 17 39 43q1 3 7 2.5t5 -3.5l-74 -416
q36 33 78 52t82 19q37 0 52 -14.5t15 -34.5q0 -40 -43 -78.5t-121 -67.5l64 -102q20 -32 33.5 -42.5t28.5 -10.5q21 0 54 26q1 1 3 1zM481.5 310q-32.5 -46 -46.5 -113q73 17 108.5 45t37.5 69q2 21 -5 33t-23 12q-39 0 -71.5 -46z" />
    <glyph glyph-name="longs_l.liga" unicode="&#x17f;l" horiz-adv-x="527" 
d="M415 89q-3 -15 -3 -24q0 -23 16 -23q10 0 22.5 9t30.5 26q2 2 3 2q3 0 5.5 -3.5t-0.5 -6.5q-34 -40 -60.5 -59t-54.5 -19q-48 0 -48 56q0 15 5 42l98 528q-9 41 -29.5 64.5t-48.5 23.5q-53 0 -87.5 -65t-54.5 -201l-67 -460q-15 -97 -35.5 -152t-51 -78.5t-76.5 -23.5
q-41 0 -65 14.5t-24 36.5t13.5 34t32.5 12q24 0 32.5 -12t12.5 -35q3 -16 6.5 -23t13.5 -7t16.5 15.5t14 55.5t21.5 137l67 465q23 155 83 231.5t170 76.5q34 0 63 -6.5t45 -17.5q33 17 39 43q1 3 7 2.5t5 -3.5z" />
    <glyph glyph-name="longs_thorn.liga" unicode="&#x17f;&#xfe;" horiz-adv-x="706" 
d="M662.5 365q28.5 -28 28.5 -80q0 -21 -2 -32q-10 -67 -48 -125.5t-92 -93.5t-108 -35q-15 0 -41 2l-32 -179q-3 -18 -3 -29q0 -15 7 -21.5t23 -6.5q5 0 21 2q4 0 5.5 -5t-2.5 -6l-190 -31q-3 -1 -4.5 5t2.5 7q20 5 29 11.5t14 20.5t11 46l89 481q-25 -15 -54 -36
q-1 -1 -3 -1q-4 0 -6 4t2 7q38 31 65 48l55 299q-9 41 -29.5 64.5t-48.5 23.5q-53 0 -87.5 -65t-54.5 -201l-67 -460q-15 -97 -35.5 -152t-51 -78.5t-76.5 -23.5q-41 0 -65 14.5t-24 36.5t13.5 34t32.5 12q24 0 32.5 -12t12.5 -35q3 -16 6.5 -23t13.5 -7t16.5 15.5t14 55.5
t21.5 137l67 465q23 155 83 231.5t170 76.5q34 0 63 -6.5t45 -17.5q33 17 39 43q1 3 7 2.5t5 -3.5l-67 -377q60 26 116 26q53 0 81.5 -28zM600 242q0 45 -21.5 73.5t-66.5 28.5q-28 0 -52 -7l-53 -294q35 -14 71 -14q49 0 80 52.5t41 138.5q1 7 1 22z" />
    <glyph glyph-name="longs_longs.liga" unicode="&#x17f;&#x17f;" horiz-adv-x="520" 
d="M665 710.5q19 -15.5 17 -39.5q-3 -19 -16.5 -30.5t-30.5 -11.5q-24 0 -32 12.5t-11 34.5q-2 15 -5.5 22.5t-13.5 7.5q-31 0 -53 -65t-41 -202l-68 -460q-14 -97 -34 -152t-50 -78.5t-76 -23.5q-39 0 -62 16.5t-20 44.5q3 17 16 26.5t30 9.5q23 0 31.5 -12.5t13.5 -35.5
q3 -15 6.5 -22t12.5 -7q8 0 12.5 11t10.5 45.5t13 85.5l10 66l68 465q12 87 28 141q-16 48 -37.5 69t-50.5 21q-47 0 -77 -51.5t-47 -158.5l-67 -460q-15 -97 -35.5 -152t-51 -78.5t-76.5 -23.5q-41 0 -65 14.5t-24 36.5t13.5 34t32.5 12q24 0 32.5 -12t12.5 -35
q3 -16 6.5 -23t13.5 -7t16.5 15.5t14 55.5t21.5 137l67 465q17 112 80 182t157 70q49 0 103 -18q26 40 61.5 57t88.5 17q36 0 55 -15.5z" />
    <glyph glyph-name="longs_longs_b.liga" unicode="&#x17f;&#x17f;b" horiz-adv-x="1005" 
d="M963.5 370q21.5 -29 21.5 -79q0 -19 -3 -40q-14 -81 -61 -141t-106.5 -91.5t-109.5 -31.5q-53 0 -82.5 21.5t-29.5 58.5q0 6 2 20l98 530q-9 41 -29.5 64.5t-48.5 23.5q-53 0 -87.5 -65t-54.5 -201l-67 -460q-15 -97 -35.5 -152t-51 -78.5t-76.5 -23.5q-41 0 -65 14.5
t-24 36.5t13.5 34t32.5 12q24 0 32.5 -12t12.5 -35q3 -16 6.5 -23t13.5 -7t16.5 15.5t14 55.5t21.5 137l67 465q12 85 36 146q-17 45 -38 65t-49 20q-47 0 -77 -51.5t-47 -158.5l-67 -460q-15 -97 -35.5 -152t-51 -78.5t-76.5 -23.5q-41 0 -65 14.5t-24 36.5t13.5 34
t32.5 12q24 0 32.5 -12t12.5 -35q3 -16 6.5 -23t13.5 -7t16.5 15.5t14 55.5t21.5 137l67 465q17 112 80 182t157 70q26 0 55.5 -5.5t54.5 -15.5q62 77 170 77q34 0 63 -6.5t45 -17.5q33 17 39 43q1 3 7 2.5t5 -3.5l-90 -509q35 74 87.5 119t109.5 45q39 0 60.5 -29zM889 266
q0 30 -11 48t-33 18q-53 0 -98 -64t-64 -167l-1 -5q-2 -12 -2 -17q0 -28 17.5 -46t43.5 -18q30 0 59.5 24.5t51.5 71t32 109.5q5 27 5 46z" />
    <glyph glyph-name="longs_longs_h.liga" unicode="&#x17f;&#x17f;h" horiz-adv-x="1009" 
d="M984 79q3 0 5 -3.5t-1 -6.5q-34 -41 -60 -59.5t-54 -18.5q-25 0 -36.5 13.5t-11.5 41.5q0 16 5 43l29 159q5 28 5 45q0 49 -32 49q-28 0 -58.5 -37t-57.5 -108.5t-45 -171.5l-2 -13q-2 -9 -16 -14.5t-40 -5.5q-33 0 -33 8q1 7 6.5 30t9.5 44l100 543q-9 41 -29.5 64.5
t-48.5 23.5q-53 0 -87.5 -65t-54.5 -201l-67 -460q-15 -97 -35.5 -152t-51 -78.5t-76.5 -23.5q-41 0 -65 14.5t-24 36.5t13.5 34t32.5 12q24 0 32.5 -12t12.5 -35q3 -16 6.5 -23t13.5 -7t16.5 15.5t14 55.5t21.5 137l67 465q12 83 34 140q-17 48 -38.5 69.5t-50.5 21.5
q-47 0 -77 -51.5t-47 -158.5l-67 -460q-15 -97 -35.5 -152t-51 -78.5t-76.5 -23.5q-41 0 -65 14.5t-24 36.5t13.5 34t32.5 12q24 0 32.5 -12t12.5 -35q3 -16 6.5 -23t13.5 -7t16.5 15.5t14 55.5t21.5 137l67 465q17 112 80 182t157 70q26 0 56.5 -6t56.5 -16q63 78 171 78
q34 0 63 -6.5t45 -17.5q33 17 39 43q1 3 7 2.5t5 -3.5l-93 -525q34 86 79.5 133t96.5 47q70 0 70 -84q0 -18 -5 -48l-33 -178q-3 -15 -3 -24q0 -23 16 -23q10 0 21.5 8.5t30.5 26.5q2 2 4 2z" />
    <glyph glyph-name="longs_longs_i.liga" unicode="&#x17f;&#x17f;i" horiz-adv-x="764" 
d="M714 708q30 -18 30 -45q0 -22 -14 -35t-35 -13q-25 0 -36 12.5t-21 37.5q-9 21 -17 30.5t-23 9.5q-42 0 -75 -67.5t-52 -198.5l-67 -460q-15 -97 -35.5 -152t-51 -78.5t-76.5 -23.5q-41 0 -65 14.5t-24 36.5t13.5 34t32.5 12q24 0 32.5 -12t12.5 -35q3 -16 6.5 -23
t13.5 -7t16.5 15.5t14 55.5t21.5 137l67 465q12 82 38 144q-16 46 -37 66.5t-50 20.5q-47 0 -77 -51.5t-47 -158.5l-67 -460q-15 -97 -35.5 -152t-51 -78.5t-76.5 -23.5q-41 0 -65 14.5t-24 36.5t13.5 34t32.5 12q24 0 32.5 -12t12.5 -35q3 -16 6.5 -23t13.5 -7t16.5 15.5
t14 55.5t21.5 137l67 465q17 112 80 182t157 70q26 0 56.5 -6t56.5 -16q65 78 165 78q49 0 79 -18zM697 79q3 0 5 -3.5t-1 -6.5q-34 -40 -60.5 -59t-54.5 -19q-48 0 -48 56q0 15 5 42l41 208q3 14 3 23q0 13 -5 19.5t-13 6.5q-21 0 -57 -40q-1 -1 -3 -1q-4 0 -6 3.5t0 6.5
q36 42 65 61t57 19q48 0 48 -52q0 -17 -4 -34l-42 -220q-2 -9 -2 -23q0 -24 15 -24q10 0 22.5 9t30.5 26q2 2 4 2z" />
    <glyph glyph-name="longs_longs_j.liga" unicode="&#x17f;&#x17f;j" horiz-adv-x="771" 
d="M729 706.5q30 -19.5 27 -49.5q-3 -20 -17 -31t-33 -11q-24 0 -35 12.5t-21 37.5q-9 21 -17 30.5t-24 9.5q-45 0 -81 -68t-57 -198l-67 -460q-15 -97 -35.5 -152t-51 -78.5t-76.5 -23.5q-41 0 -65 14.5t-24 36.5t13.5 34t32.5 12q24 0 32.5 -12t12.5 -35q3 -16 6.5 -23
t13.5 -7t16.5 15.5t14 55.5t21.5 137l67 465q13 82 39 142q-17 47 -38.5 68t-49.5 21q-47 0 -77 -51.5t-47 -158.5l-67 -460q-15 -97 -35.5 -152t-51 -78.5t-76.5 -23.5q-41 0 -65 14.5t-24 36.5t13.5 34t32.5 12q24 0 32.5 -12t12.5 -35q3 -16 6.5 -23t13.5 -7t16.5 15.5
t14 55.5t21.5 137l67 465q17 112 80 182t157 70q27 0 59 -6.5t57 -16.5q69 79 174 79q52 0 82 -19.5zM689 342q0 -15 -3 -33l-57 -330q-17 -96 -38 -150.5t-51.5 -79t-76.5 -24.5q-41 0 -65 14.5t-24 36.5t13.5 34t32.5 12q24 0 32.5 -12t12.5 -35q3 -16 6.5 -23t13.5 -7
t16 14t14.5 57.5t19.5 107.5l5 29l61 344q2 9 2 22q0 27 -17 27q-21 0 -58 -40q-1 -1 -3 -1q-3 0 -5 3.5t0 6.5q36 42 64.5 61t57.5 19q47 0 47 -53z" />
    <glyph glyph-name="longs_longs_k.liga" unicode="&#x17f;&#x17f;k" horiz-adv-x="966" 
d="M972 76q3 0 5 -3.5t0 -5.5q-67 -76 -105 -76q-27 0 -46.5 14.5t-42.5 52.5l-59 96q-7 12 -12.5 17t-12.5 6l-29 -165q-2 -9 -16 -14.5t-40 -5.5q-33 0 -33 8q1 7 6.5 30t9.5 44l100 543q-9 41 -29.5 64.5t-48.5 23.5q-53 0 -87.5 -65t-54.5 -201l-67 -460
q-15 -97 -35.5 -152t-51 -78.5t-76.5 -23.5q-41 0 -65 14.5t-24 36.5t13.5 34t32.5 12q24 0 32.5 -12t12.5 -35q3 -16 6.5 -23t13.5 -7t16.5 15.5t14 55.5t21.5 137l67 465q12 83 34 140q-17 48 -38.5 69.5t-50.5 21.5q-47 0 -77 -51.5t-47 -158.5l-67 -460
q-15 -97 -35.5 -152t-51 -78.5t-76.5 -23.5q-41 0 -65 14.5t-24 36.5t13.5 34t32.5 12q24 0 32.5 -12t12.5 -35q3 -16 6.5 -23t13.5 -7t16.5 15.5t14 55.5t21.5 137l67 465q17 112 80 182t157 70q26 0 56.5 -6t56.5 -16q63 78 171 78q34 0 63 -6.5t45 -17.5q33 17 39 43
q1 3 7 2.5t5 -3.5l-74 -416q36 33 78 52t82 19q37 0 52 -14.5t15 -34.5q0 -40 -43 -78.5t-121 -67.5l64 -102q20 -32 33.5 -42.5t28.5 -10.5q21 0 54 26q1 1 3 1zM749.5 310q-32.5 -46 -46.5 -113q73 17 108.5 45t37.5 69q2 21 -5 33t-23 12q-39 0 -71.5 -46z" />
    <glyph glyph-name="longs_longs_l.liga" unicode="&#x17f;&#x17f;l" horiz-adv-x="795" 
d="M683 89q-3 -15 -3 -24q0 -23 16 -23q10 0 22.5 9t30.5 26q2 2 3 2q3 0 5.5 -3.5t-0.5 -6.5q-34 -40 -60.5 -59t-54.5 -19q-48 0 -48 56q0 15 5 42l98 528q-9 41 -29.5 64.5t-48.5 23.5q-53 0 -87.5 -65t-54.5 -201l-67 -460q-15 -97 -35.5 -152t-51 -78.5t-76.5 -23.5
q-41 0 -65 14.5t-24 36.5t13.5 34t32.5 12q24 0 32.5 -12t12.5 -35q3 -16 6.5 -23t13.5 -7t16.5 15.5t14 55.5t21.5 137l67 465q12 83 34 140q-17 48 -38.5 69.5t-50.5 21.5q-47 0 -77 -51.5t-47 -158.5l-67 -460q-15 -97 -35.5 -152t-51 -78.5t-76.5 -23.5q-41 0 -65 14.5
t-24 36.5t13.5 34t32.5 12q24 0 32.5 -12t12.5 -35q3 -16 6.5 -23t13.5 -7t16.5 15.5t14 55.5t21.5 137l67 465q17 112 80 182t157 70q26 0 56.5 -6t56.5 -16q63 78 171 78q34 0 63 -6.5t45 -17.5q33 17 39 43q1 3 7 2.5t5 -3.5z" />
    <glyph glyph-name="longs_longs_thorn.liga" unicode="&#x17f;&#x17f;&#xfe;" horiz-adv-x="974" 
d="M930.5 365q28.5 -28 28.5 -80q0 -21 -2 -32q-10 -67 -48 -125.5t-92 -93.5t-108 -35q-15 0 -41 2l-32 -179q-3 -18 -3 -29q0 -15 7 -21.5t23 -6.5q5 0 21 2q4 0 5.5 -5t-2.5 -6l-190 -31q-3 -1 -4.5 5t2.5 7q20 5 29 11.5t14 20.5t11 46l89 481q-26 -15 -54 -36
q-1 -1 -3 -1q-4 0 -6 4t2 7q38 31 65 48l55 299q-9 41 -29.5 64.5t-48.5 23.5q-53 0 -87.5 -65t-54.5 -201l-67 -460q-15 -97 -35.5 -152t-51 -78.5t-76.5 -23.5q-41 0 -65 14.5t-24 36.5t13.5 34t32.5 12q24 0 32.5 -12t12.5 -35q3 -16 6.5 -23t13.5 -7t16.5 15.5t14 55.5
t21.5 137l67 465q12 83 34 140q-17 48 -38.5 69.5t-50.5 21.5q-47 0 -77 -51.5t-47 -158.5l-67 -460q-15 -97 -35.5 -152t-51 -78.5t-76.5 -23.5q-41 0 -65 14.5t-24 36.5t13.5 34t32.5 12q24 0 32.5 -12t12.5 -35q3 -16 6.5 -23t13.5 -7t16.5 15.5t14 55.5t21.5 137l67 465
q17 112 80 182t157 70q26 0 56.5 -6t56.5 -16q63 78 171 78q34 0 63 -6.5t45 -17.5q33 17 39 43q1 3 7 2.5t5 -3.5l-67 -377q60 26 116 26q53 0 81.5 -28zM868 242q0 45 -21.5 73.5t-66.5 28.5q-28 0 -52 -7l-53 -294q35 -14 71 -14q49 0 80 52.5t41 138.5q1 7 1 22z" />
    <glyph glyph-name=".notdef" horiz-adv-x="450" 
d="M1 -275l177 1000h285l-176 -1000h-286zM214 556h150l6 32h-60l6 38h61l5 32h-148l-6 -32h57l-5 -38h-60zM192 426h150l5 34h-60l12 69h-90zM227 460l6 35h30l-7 -35h-29zM168 295h90l12 70h60l6 33h-149l-6 -33h59l-6 -36h-60zM159 239h149l17 99h-29l-12 -65h-119z
M135 103h149l20 113h-90l-10 -56h30l5 24h30l-8 -48h-91l14 80h-30zM104 -70h150l20 113h-150zM139 -37l8 48h92l-9 -48h-91zM81 -206h148l6 33h-91l70 47h29l6 34h-148l-6 -34h63l-71 -47z" />
    <glyph glyph-name="NULL" horiz-adv-x="0" 
 />
    <glyph glyph-name="NULL" horiz-adv-x="0" 
 />
    <glyph glyph-name="nonmarkingreturn" unicode="&#xd;" horiz-adv-x="234" 
 />
    <glyph glyph-name="space" unicode=" " horiz-adv-x="234" 
 />
    <glyph glyph-name="A" unicode="A" horiz-adv-x="605" 
d="M577 6q0 -6 -4 -6q-16 0 -50 2q-38 2 -61 2q-22 0 -58 -2q-32 -2 -48 -2q-4 0 -4 6t4 6q30 0 43 9t13 31q0 16 -4 32l-29 145h-194l-55 -100q-26 -47 -26 -73q0 -23 19 -33.5t58 -10.5q4 0 3.5 -6t-4.5 -6q-13 0 -51 2q-46 2 -71 2q-21 0 -49 -2t-43 -2q-4 0 -4 6t4 6
q28 0 66 32t71 92l279 498q2 3 8 3q3 0 6 -1t4 -3l109 -549q6 -33 10.5 -46t16.5 -19.5t37 -6.5q4 0 4 -6zM200 257h173l-46 230z" />
    <glyph glyph-name="Aacute" unicode="&#xc1;" horiz-adv-x="605" 
d="M288 678q-4 0 -5.5 4.5t1.5 6.5q31 22 87 70q13 12 39 34q5 4 35.5 -4.5t54 -19.5t11.5 -13q-118 -30 -222 -78h-1zM577 6q0 -6 -4 -6q-16 0 -50 2q-38 2 -61 2q-22 0 -58 -2q-32 -2 -48 -2q-4 0 -4 6t4 6q30 0 43 9t13 31q0 16 -4 32l-29 145h-194l-55 -100
q-26 -47 -26 -73q0 -23 19 -33.5t58 -10.5q4 0 3.5 -6t-4.5 -6q-13 0 -51 2q-46 2 -71 2q-21 0 -49 -2t-43 -2q-4 0 -4 6t4 6q28 0 66 32t71 92l279 498q2 3 8 3q3 0 6 -1t4 -3l109 -549q6 -33 10.5 -46t16.5 -19.5t37 -6.5q4 0 4 -6zM200 257h173l-46 230z" />
    <glyph glyph-name="Abreve" unicode="&#x102;" horiz-adv-x="605" 
d="M325 690q-28 25 -28 72q0 6 24 11t44 5q15 0 15 -3q3 -25 21 -38.5t42 -13.5q19 0 37.5 12t30.5 36q3 3 6 3q4 0 8 -2t3 -4q-22 -49 -59 -76t-74 -27q-42 0 -70 25zM577 6q0 -6 -4 -6q-16 0 -50 2q-38 2 -61 2q-22 0 -58 -2q-32 -2 -48 -2q-4 0 -4 6t4 6q30 0 43 9t13 31
q0 16 -4 32l-29 145h-194l-55 -100q-26 -47 -26 -73q0 -23 19 -33.5t58 -10.5q4 0 3.5 -6t-4.5 -6q-13 0 -51 2q-46 2 -71 2q-21 0 -49 -2t-43 -2q-4 0 -4 6t4 6q28 0 66 32t71 92l279 498q2 3 8 3q3 0 6 -1t4 -3l109 -549q6 -33 10.5 -46t16.5 -19.5t37 -6.5q4 0 4 -6z
M200 257h173l-46 230z" />
    <glyph glyph-name="uni1EAE" unicode="&#x1eae;" horiz-adv-x="605" 
d="M505 883q14 0 40 -8.5t42 -18t6 -13.5q-85 -29 -166 -78l-2 -1q-3 0 -4.5 4.5t0.5 7.5q49 62 76 104q2 3 8 3zM318 690q-28 25 -28 72q0 6 24 11t44 5q15 0 15 -3q3 -25 21 -38.5t42 -13.5q19 0 37.5 12t30.5 36q3 3 6 3q4 0 8 -2t3 -4q-22 -49 -59 -76t-74 -27
q-42 0 -70 25zM577 6q0 -6 -4 -6q-16 0 -50 2q-38 2 -61 2q-22 0 -58 -2q-32 -2 -48 -2q-4 0 -4 6t4 6q30 0 43 9t13 31q0 16 -4 32l-29 145h-194l-55 -100q-26 -47 -26 -73q0 -23 19 -33.5t58 -10.5q4 0 3.5 -6t-4.5 -6q-13 0 -51 2q-46 2 -71 2q-21 0 -49 -2t-43 -2
q-4 0 -4 6t4 6q28 0 66 32t71 92l279 498q2 3 8 3q3 0 6 -1t4 -3l109 -549q6 -33 10.5 -46t16.5 -19.5t37 -6.5q4 0 4 -6zM200 257h173l-46 230z" />
    <glyph glyph-name="uni1EB6" unicode="&#x1eb6;" horiz-adv-x="605" 
d="M325 690q-28 25 -28 72q0 6 24 11t44 5q15 0 15 -3q3 -25 21 -38.5t42 -13.5q19 0 37.5 12t30.5 36q3 3 6 3q4 0 8 -2t3 -4q-22 -49 -59 -76t-74 -27q-42 0 -70 25zM577 6q0 -6 -4 -6q-16 0 -50 2q-38 2 -61 2q-22 0 -58 -2q-32 -2 -48 -2q-4 0 -4 6t4 6q30 0 43 9t13 31
q0 16 -4 32l-29 145h-194l-55 -100q-26 -47 -26 -73q0 -23 19 -33.5t58 -10.5q4 0 3.5 -6t-4.5 -6q-13 0 -51 2q-46 2 -71 2q-21 0 -49 -2t-43 -2q-4 0 -4 6t4 6q28 0 66 32t71 92l279 498q2 3 8 3q3 0 6 -1t4 -3l109 -549q6 -33 10.5 -46t16.5 -19.5t37 -6.5q4 0 4 -6z
M200 257h173l-46 230zM289.5 -106q14.5 -15 14.5 -39q0 -28 -14.5 -43t-40.5 -15t-41.5 15t-15.5 43q0 24 15.5 39t41.5 15t40.5 -15z" />
    <glyph glyph-name="uni1EB0" unicode="&#x1eb0;" horiz-adv-x="605" 
d="M342 856.5q19 9.5 47.5 18t42.5 8.5q7 0 8 -3q14 -53 37 -104v-1q0 -4 -3 -7.5t-7 -2.5q-62 47 -135 78q-9 4 10 13.5zM328 690q-28 25 -28 72q0 6 24 11t44 5q15 0 15 -3q3 -25 21 -38.5t42 -13.5q19 0 37.5 12t30.5 36q3 3 6 3q4 0 8 -2t3 -4q-22 -49 -59 -76t-74 -27
q-42 0 -70 25zM577 6q0 -6 -4 -6q-16 0 -50 2q-38 2 -61 2q-22 0 -58 -2q-32 -2 -48 -2q-4 0 -4 6t4 6q30 0 43 9t13 31q0 16 -4 32l-29 145h-194l-55 -100q-26 -47 -26 -73q0 -23 19 -33.5t58 -10.5q4 0 3.5 -6t-4.5 -6q-13 0 -51 2q-46 2 -71 2q-21 0 -49 -2t-43 -2
q-4 0 -4 6t4 6q28 0 66 32t71 92l279 498q2 3 8 3q3 0 6 -1t4 -3l109 -549q6 -33 10.5 -46t16.5 -19.5t37 -6.5q4 0 4 -6zM200 257h173l-46 230z" />
    <glyph glyph-name="uni1EB2" unicode="&#x1eb2;" horiz-adv-x="605" 
d="M418 872q-3 0 -4.5 3.5t0.5 5.5q33 18 65 18q22 0 35.5 -10.5t13.5 -26.5t-12 -29t-34 -30q-19 -14 -29 -24t-11 -21q-1 -2 -6 -2.5t-5 2.5q-1 13 3 23.5t14 28.5q6 10 11 21t5 21q0 12 -7.5 18t-18.5 6q-10 0 -18 -3zM318 690q-28 25 -28 72q0 6 24 11t44 5q15 0 15 -3
q3 -25 21 -38.5t42 -13.5q19 0 37.5 12t30.5 36q3 3 6 3q4 0 8 -2t3 -4q-22 -49 -59 -76t-74 -27q-42 0 -70 25zM577 6q0 -6 -4 -6q-16 0 -50 2q-38 2 -61 2q-22 0 -58 -2q-32 -2 -48 -2q-4 0 -4 6t4 6q30 0 43 9t13 31q0 16 -4 32l-29 145h-194l-55 -100q-26 -47 -26 -73
q0 -23 19 -33.5t58 -10.5q4 0 3.5 -6t-4.5 -6q-13 0 -51 2q-46 2 -71 2q-21 0 -49 -2t-43 -2q-4 0 -4 6t4 6q28 0 66 32t71 92l279 498q2 3 8 3q3 0 6 -1t4 -3l109 -549q6 -33 10.5 -46t16.5 -19.5t37 -6.5q4 0 4 -6zM200 257h173l-46 230z" />
    <glyph glyph-name="uni1EB4" unicode="&#x1eb4;" horiz-adv-x="605" 
d="M283 804q-2 0 -4 3t-1 5q22 34 46 57.5t54 23.5q10 0 26 -4.5t21 -5.5q49 -15 73 -15q22 0 35.5 6t28.5 21h1q3 0 5 -2.5t1 -4.5q-30 -49 -49.5 -65t-45.5 -16q-16 0 -56 12q-4 1 -26.5 7t-42.5 6q-23 0 -33.5 -4.5t-19 -12t-11.5 -10.5q0 -1 -2 -1zM507 774q4 0 8 -2
t3 -4q-22 -49 -59 -76t-74 -27q-42 0 -70 25t-28 72q0 6 24 11t44 5q15 0 15 -3q3 -25 21 -38.5t42 -13.5q19 0 37.5 12t30.5 36q3 3 6 3zM577 6q0 -6 -4 -6q-16 0 -50 2q-38 2 -61 2q-22 0 -58 -2q-32 -2 -48 -2q-4 0 -4 6t4 6q30 0 43 9t13 31q0 16 -4 32l-29 145h-194
l-55 -100q-26 -47 -26 -73q0 -23 19 -33.5t58 -10.5q4 0 3.5 -6t-4.5 -6q-13 0 -51 2q-46 2 -71 2q-21 0 -49 -2t-43 -2q-4 0 -4 6t4 6q28 0 66 32t71 92l279 498q2 3 8 3q3 0 6 -1t4 -3l109 -549q6 -33 10.5 -46t16.5 -19.5t37 -6.5q4 0 4 -6zM200 257h173l-46 230z" />
    <glyph glyph-name="uni01CD" unicode="&#x1cd;" horiz-adv-x="605" 
d="M301 791v1q0 2 3 4.5t5 1.5l94 -39l110 39q2 1 5.5 -2.5t0.5 -4.5l-116 -116q-4 -4 -10 -4q-5 0 -8 4zM577 6q0 -6 -4 -6q-16 0 -50 2q-38 2 -61 2q-22 0 -58 -2q-32 -2 -48 -2q-4 0 -4 6t4 6q30 0 43 9t13 31q0 16 -4 32l-29 145h-194l-55 -100q-26 -47 -26 -73
q0 -23 19 -33.5t58 -10.5q4 0 3.5 -6t-4.5 -6q-13 0 -51 2q-46 2 -71 2q-21 0 -49 -2t-43 -2q-4 0 -4 6t4 6q28 0 66 32t71 92l279 498q2 3 8 3q3 0 6 -1t4 -3l109 -549q6 -33 10.5 -46t16.5 -19.5t37 -6.5q4 0 4 -6zM200 257h173l-46 230z" />
    <glyph glyph-name="Acircumflex" unicode="&#xc2;" horiz-adv-x="605" 
d="M291 660q-3 0 -5 2.5t0 4.5l116 115q5 5 9 5q6 0 9 -5l83 -115l1 -2q0 -2 -3 -4t-5 -1l-94 38l-110 -38h-1zM577 6q0 -6 -4 -6q-16 0 -50 2q-38 2 -61 2q-22 0 -58 -2q-32 -2 -48 -2q-4 0 -4 6t4 6q30 0 43 9t13 31q0 16 -4 32l-29 145h-194l-55 -100q-26 -47 -26 -73
q0 -23 19 -33.5t58 -10.5q4 0 3.5 -6t-4.5 -6q-13 0 -51 2q-46 2 -71 2q-21 0 -49 -2t-43 -2q-4 0 -4 6t4 6q28 0 66 32t71 92l279 498q2 3 8 3q3 0 6 -1t4 -3l109 -549q6 -33 10.5 -46t16.5 -19.5t37 -6.5q4 0 4 -6zM200 257h173l-46 230z" />
    <glyph glyph-name="uni1EA4" unicode="&#x1ea4;" horiz-adv-x="605" 
d="M554 842q14 0 40 -8.5t42 -18t6 -13.5q-85 -29 -166 -78l-2 -1q-3 0 -4.5 4.5t0.5 7.5q49 62 76 104q2 3 8 3zM290 660q-3 0 -5 2.5t0 4.5l116 115q5 5 9 5q6 0 9 -5l83 -115l1 -2q0 -2 -3 -4t-5 -1l-94 38l-110 -38h-1zM577 6q0 -6 -4 -6q-16 0 -50 2q-38 2 -61 2
q-22 0 -58 -2q-32 -2 -48 -2q-4 0 -4 6t4 6q30 0 43 9t13 31q0 16 -4 32l-29 145h-194l-55 -100q-26 -47 -26 -73q0 -23 19 -33.5t58 -10.5q4 0 3.5 -6t-4.5 -6q-13 0 -51 2q-46 2 -71 2q-21 0 -49 -2t-43 -2q-4 0 -4 6t4 6q28 0 66 32t71 92l279 498q2 3 8 3q3 0 6 -1t4 -3
l109 -549q6 -33 10.5 -46t16.5 -19.5t37 -6.5q4 0 4 -6zM200 257h173l-46 230z" />
    <glyph glyph-name="uni1EAC" unicode="&#x1eac;" horiz-adv-x="605" 
d="M291 660q-3 0 -5 2.5t0 4.5l116 115q5 5 9 5q6 0 9 -5l83 -115l1 -2q0 -2 -3 -4t-5 -1l-94 38l-110 -38h-1zM577 6q0 -6 -4 -6q-16 0 -50 2q-38 2 -61 2q-22 0 -58 -2q-32 -2 -48 -2q-4 0 -4 6t4 6q30 0 43 9t13 31q0 16 -4 32l-29 145h-194l-55 -100q-26 -47 -26 -73
q0 -23 19 -33.5t58 -10.5q4 0 3.5 -6t-4.5 -6q-13 0 -51 2q-46 2 -71 2q-21 0 -49 -2t-43 -2q-4 0 -4 6t4 6q28 0 66 32t71 92l279 498q2 3 8 3q3 0 6 -1t4 -3l109 -549q6 -33 10.5 -46t16.5 -19.5t37 -6.5q4 0 4 -6zM200 257h173l-46 230zM289.5 -106q14.5 -15 14.5 -39
q0 -28 -14.5 -43t-40.5 -15t-41.5 15t-15.5 43q0 24 15.5 39t41.5 15t40.5 -15z" />
    <glyph glyph-name="uni1EA6" unicode="&#x1ea6;" horiz-adv-x="605" 
d="M441 806.5q19 9.5 47.5 18t42.5 8.5q7 0 8 -3q14 -53 37 -104v-1q0 -4 -3 -7.5t-7 -2.5q-61 47 -135 78q-9 4 10 13.5zM289 660q-3 0 -5 2.5t0 4.5l116 115q5 5 9 5q6 0 9 -5l83 -115l1 -2q0 -2 -3 -4t-5 -1l-94 38l-110 -38h-1zM577 6q0 -6 -4 -6q-16 0 -50 2
q-38 2 -61 2q-22 0 -58 -2q-32 -2 -48 -2q-4 0 -4 6t4 6q30 0 43 9t13 31q0 16 -4 32l-29 145h-194l-55 -100q-26 -47 -26 -73q0 -23 19 -33.5t58 -10.5q4 0 3.5 -6t-4.5 -6q-13 0 -51 2q-46 2 -71 2q-21 0 -49 -2t-43 -2q-4 0 -4 6t4 6q28 0 66 32t71 92l279 498q2 3 8 3
q3 0 6 -1t4 -3l109 -549q6 -33 10.5 -46t16.5 -19.5t37 -6.5q4 0 4 -6zM200 257h173l-46 230z" />
    <glyph glyph-name="uni1EA8" unicode="&#x1ea8;" horiz-adv-x="605" 
d="M465 831q-3 0 -4.5 3.5t0.5 5.5q33 18 65 18q22 0 35.5 -10.5t13.5 -26.5t-12 -29t-34 -30q-19 -14 -29 -24t-11 -21q-1 -2 -6 -2.5t-5 2.5q-1 13 3 23.5t14 28.5q6 10 11 21t5 21q0 12 -7.5 18t-18.5 6t-18 -3zM288 660q-3 0 -5 2.5t0 4.5l116 115q5 5 9 5q6 0 9 -5
l83 -115l1 -2q0 -2 -3 -4t-5 -1l-94 38l-110 -38h-1zM577 6q0 -6 -4 -6q-16 0 -50 2q-38 2 -61 2q-22 0 -58 -2q-32 -2 -48 -2q-4 0 -4 6t4 6q30 0 43 9t13 31q0 16 -4 32l-29 145h-194l-55 -100q-26 -47 -26 -73q0 -23 19 -33.5t58 -10.5q4 0 3.5 -6t-4.5 -6q-13 0 -51 2
q-46 2 -71 2q-21 0 -49 -2t-43 -2q-4 0 -4 6t4 6q28 0 66 32t71 92l279 498q2 3 8 3q3 0 6 -1t4 -3l109 -549q6 -33 10.5 -46t16.5 -19.5t37 -6.5q4 0 4 -6zM200 257h173l-46 230z" />
    <glyph glyph-name="uni1EAA" unicode="&#x1eaa;" horiz-adv-x="605" 
d="M282 795q-2 0 -4.5 2.5t-1.5 4.5q22 34 46 57.5t53 23.5q11 0 47 -10q18 -6 38 -10.5t36 -4.5q21 0 34.5 6t28.5 21q0 1 2 1t4 -3t1 -5q-30 -48 -49.5 -64t-45.5 -16q-19 0 -56 11q-17 5 -35 9t-34 4q-24 0 -34 -5t-29 -22h-1zM403 787q6 0 9 -5l83 -115l1 -2q0 -2 -3 -4
t-5 -1l-94 38l-110 -38h-1q-3 0 -5 2.5t0 4.5l116 115q5 5 9 5zM577 6q0 -6 -4 -6q-16 0 -50 2q-38 2 -61 2q-22 0 -58 -2q-32 -2 -48 -2q-4 0 -4 6t4 6q30 0 43 9t13 31q0 16 -4 32l-29 145h-194l-55 -100q-26 -47 -26 -73q0 -23 19 -33.5t58 -10.5q4 0 3.5 -6t-4.5 -6
q-13 0 -51 2q-46 2 -71 2q-21 0 -49 -2t-43 -2q-4 0 -4 6t4 6q28 0 66 32t71 92l279 498q2 3 8 3q3 0 6 -1t4 -3l109 -549q6 -33 10.5 -46t16.5 -19.5t37 -6.5q4 0 4 -6zM200 257h173l-46 230z" />
    <glyph glyph-name="Adieresis" unicode="&#xc4;" horiz-adv-x="605" 
d="M283.5 717.5q-14.5 14.5 -14.5 40.5q0 24 15 38t40 14t38.5 -14t13.5 -38q0 -26 -13.5 -40.5t-38.5 -14.5q-26 0 -40.5 14.5zM458 717.5q-14 14.5 -14 40.5q0 24 14.5 37.5t39.5 13.5t38.5 -13.5t13.5 -37.5q0 -26 -13.5 -40.5t-38.5 -14.5q-26 0 -40 14.5zM577 6
q0 -6 -4 -6q-16 0 -50 2q-38 2 -61 2q-22 0 -58 -2q-32 -2 -48 -2q-4 0 -4 6t4 6q30 0 43 9t13 31q0 16 -4 32l-29 145h-194l-55 -100q-26 -47 -26 -73q0 -23 19 -33.5t58 -10.5q4 0 3.5 -6t-4.5 -6q-13 0 -51 2q-46 2 -71 2q-21 0 -49 -2t-43 -2q-4 0 -4 6t4 6q28 0 66 32
t71 92l279 498q2 3 8 3q3 0 6 -1t4 -3l109 -549q6 -33 10.5 -46t16.5 -19.5t37 -6.5q4 0 4 -6zM200 257h173l-46 230z" />
    <glyph glyph-name="uni1EA0" unicode="&#x1ea0;" horiz-adv-x="605" 
d="M577 6q0 -6 -4 -6q-16 0 -50 2q-38 2 -61 2q-22 0 -58 -2q-32 -2 -48 -2q-4 0 -4 6t4 6q30 0 43 9t13 31q0 16 -4 32l-29 145h-194l-55 -100q-26 -47 -26 -73q0 -23 19 -33.5t58 -10.5q4 0 3.5 -6t-4.5 -6q-13 0 -51 2q-46 2 -71 2q-21 0 -49 -2t-43 -2q-4 0 -4 6t4 6
q28 0 66 32t71 92l279 498q2 3 8 3q3 0 6 -1t4 -3l109 -549q6 -33 10.5 -46t16.5 -19.5t37 -6.5q4 0 4 -6zM200 257h173l-46 230zM289.5 -106q14.5 -15 14.5 -39q0 -28 -14.5 -43t-40.5 -15t-41.5 15t-15.5 43q0 24 15.5 39t41.5 15t40.5 -15z" />
    <glyph glyph-name="Agrave" unicode="&#xc0;" horiz-adv-x="605" 
d="M275.5 769.5q23.5 11.5 54 20t35.5 3.5l47 -40q44 -38 78 -64q3 -1 3 -4t-2 -5t-5 -1q-112 50 -222 77q-12 2 11.5 13.5zM577 6q0 -6 -4 -6q-16 0 -50 2q-38 2 -61 2q-22 0 -58 -2q-32 -2 -48 -2q-4 0 -4 6t4 6q30 0 43 9t13 31q0 16 -4 32l-29 145h-194l-55 -100
q-26 -47 -26 -73q0 -23 19 -33.5t58 -10.5q4 0 3.5 -6t-4.5 -6q-13 0 -51 2q-46 2 -71 2q-21 0 -49 -2t-43 -2q-4 0 -4 6t4 6q28 0 66 32t71 92l279 498q2 3 8 3q3 0 6 -1t4 -3l109 -549q6 -33 10.5 -46t16.5 -19.5t37 -6.5q4 0 4 -6zM200 257h173l-46 230z" />
    <glyph glyph-name="uni1EA2" unicode="&#x1ea2;" horiz-adv-x="605" 
d="M343 816q-3 0 -5.5 3t0.5 6q36 28 82 28q32 0 51 -14t19 -39q0 -21 -13 -38.5t-39 -43.5q-22 -22 -32.5 -36t-10.5 -29q0 -2 -5.5 -2.5t-6.5 2.5q-2 16 -2 22q0 16 3.5 28.5t10.5 32.5q7 17 10.5 29t3.5 26q0 35 -28 35q-14 0 -36 -10h-2zM577 6q0 -6 -4 -6q-16 0 -50 2
q-38 2 -61 2q-22 0 -58 -2q-32 -2 -48 -2q-4 0 -4 6t4 6q30 0 43 9t13 31q0 16 -4 32l-29 145h-194l-55 -100q-26 -47 -26 -73q0 -23 19 -33.5t58 -10.5q4 0 3.5 -6t-4.5 -6q-13 0 -51 2q-46 2 -71 2q-21 0 -49 -2t-43 -2q-4 0 -4 6t4 6q28 0 66 32t71 92l279 498q2 3 8 3
q3 0 6 -1t4 -3l109 -549q6 -33 10.5 -46t16.5 -19.5t37 -6.5q4 0 4 -6zM200 257h173l-46 230z" />
    <glyph glyph-name="Amacron" unicode="&#x100;" horiz-adv-x="605" 
d="M253 718.5q-3 5.5 -3 13.5q0 7 3 12.5t7 5.5h251q5 0 8 -5.5t3 -12.5q0 -8 -3 -13.5t-8 -5.5h-251q-4 0 -7 5.5zM577 6q0 -6 -4 -6q-16 0 -50 2q-38 2 -61 2q-22 0 -58 -2q-32 -2 -48 -2q-4 0 -4 6t4 6q30 0 43 9t13 31q0 16 -4 32l-29 145h-194l-55 -100
q-26 -47 -26 -73q0 -23 19 -33.5t58 -10.5q4 0 3.5 -6t-4.5 -6q-13 0 -51 2q-46 2 -71 2q-21 0 -49 -2t-43 -2q-4 0 -4 6t4 6q28 0 66 32t71 92l279 498q2 3 8 3q3 0 6 -1t4 -3l109 -549q6 -33 10.5 -46t16.5 -19.5t37 -6.5q4 0 4 -6zM200 257h173l-46 230z" />
    <glyph glyph-name="Aogonek" unicode="&#x104;" horiz-adv-x="605" 
d="M577 6q0 -6 -4 -6l-95 1q-30 0 -56.5 -21t-42.5 -56t-16 -75q0 -37 18 -57.5t53 -20.5q16 0 25.5 4.5t20.5 13.5l2 1q2 0 3 -3.5t-1 -5.5q-29 -29 -54.5 -42.5t-54.5 -13.5q-40 0 -69 21t-29 64q0 37 17.5 65t50.5 62q34 36 50 61t16 59q0 12 -3 27l-29 145h-194
l-55 -100q-26 -47 -26 -73q0 -23 19 -33.5t58 -10.5q4 0 3.5 -6t-4.5 -6q-13 0 -51 2q-46 2 -71 2q-21 0 -49 -2t-43 -2q-4 0 -4 6t4 6q28 0 66 32t71 92l279 498q2 3 8 3q3 0 6 -1t4 -3l109 -549q8 -43 21.5 -57.5t42.5 -14.5q4 0 4 -6zM200 257h173l-46 230z" />
    <glyph glyph-name="Aring" unicode="&#xc5;" horiz-adv-x="605" 
d="M314 683.5q-29 23.5 -29 56.5q0 36 36 56.5t80 20.5t75.5 -23t31.5 -57q0 -35 -35.5 -56t-80.5 -21q-49 0 -78 23.5zM358 759q0 -32 13.5 -58.5t35.5 -26.5q14 0 20.5 11t6.5 35q0 33 -15.5 58t-37.5 25q-23 0 -23 -44zM577 6q0 -6 -4 -6q-16 0 -50 2q-38 2 -61 2
q-22 0 -58 -2q-32 -2 -48 -2q-4 0 -4 6t4 6q30 0 43 9t13 31q0 16 -4 32l-29 145h-194l-55 -100q-26 -47 -26 -73q0 -23 19 -33.5t58 -10.5q4 0 3.5 -6t-4.5 -6q-13 0 -51 2q-46 2 -71 2q-21 0 -49 -2t-43 -2q-4 0 -4 6t4 6q28 0 66 32t71 92l279 498q2 3 8 3q3 0 6 -1t4 -3
l109 -549q6 -33 10.5 -46t16.5 -19.5t37 -6.5q4 0 4 -6zM200 257h173l-46 230z" />
    <glyph glyph-name="Aringacute" unicode="&#x1fa;" horiz-adv-x="605" 
d="M340 823q-4 0 -5.5 4.5t2.5 5.5l131 69q5 3 27 -9t40 -26t11 -14q-87 -10 -204 -30h-2zM334 695q-26 20 -26 48q0 30 32 48t72 18q43 0 74.5 -20t31.5 -48q0 -30 -35 -48t-81 -18q-42 0 -68 20zM375.5 786.5q-7.5 -8.5 -7.5 -23.5q0 -28 13.5 -51t36.5 -23q26 0 26 34
q0 30 -13.5 51t-35.5 21q-12 0 -19.5 -8.5zM577 6q0 -6 -4 -6q-16 0 -50 2q-38 2 -61 2q-22 0 -58 -2q-32 -2 -48 -2q-4 0 -4 6t4 6q30 0 43 9t13 31q0 16 -4 32l-29 145h-194l-55 -100q-26 -47 -26 -73q0 -23 19 -33.5t58 -10.5q4 0 3.5 -6t-4.5 -6q-13 0 -51 2
q-46 2 -71 2q-21 0 -49 -2t-43 -2q-4 0 -4 6t4 6q28 0 66 32t71 92l279 498q2 3 8 3q3 0 6 -1t4 -3l109 -549q6 -33 10.5 -46t16.5 -19.5t37 -6.5q4 0 4 -6zM200 257h173l-46 230z" />
    <glyph glyph-name="Atilde" unicode="&#xc3;" horiz-adv-x="605" 
d="M269 709q-2 0 -4.5 2.5t-1.5 4.5q22 34 46 57.5t53 23.5q11 0 47 -10q18 -6 38 -10.5t36 -4.5q21 0 34.5 6t28.5 21q0 1 2 1t4 -3t1 -5q-30 -48 -49.5 -64t-45.5 -16q-19 0 -56 11q-17 5 -35 9t-34 4q-24 0 -34 -5t-29 -22h-1zM577 6q0 -6 -4 -6q-16 0 -50 2q-38 2 -61 2
q-22 0 -58 -2q-32 -2 -48 -2q-4 0 -4 6t4 6q30 0 43 9t13 31q0 16 -4 32l-29 145h-194l-55 -100q-26 -47 -26 -73q0 -23 19 -33.5t58 -10.5q4 0 3.5 -6t-4.5 -6q-13 0 -51 2q-46 2 -71 2q-21 0 -49 -2t-43 -2q-4 0 -4 6t4 6q28 0 66 32t71 92l279 498q2 3 8 3q3 0 6 -1t4 -3
l109 -549q6 -33 10.5 -46t16.5 -19.5t37 -6.5q4 0 4 -6zM200 257h173l-46 230z" />
    <glyph glyph-name="AE" unicode="&#xc6;" horiz-adv-x="772" 
d="M766 616l-21 -134q0 -3 -4 -3q-3 0 -5.5 1.5t-2.5 2.5q-5 59 -39.5 93.5t-89.5 34.5h-18q-25 0 -38.5 -16.5t-18.5 -51.5l-26 -204h89q45 0 70 17.5t34 58.5q1 5 7 4.5t5 -5.5q-8 -47 -17 -89q-4 -18 -6 -31.5t-3 -22.5l-7 -49q-1 -4 -7 -3.5t-5 4.5q2 14 2 20
q0 33 -21 50.5t-59 17.5h-85l-29 -226q-2 -12 -2 -30q0 -22 10.5 -29.5t39.5 -7.5h13q52 0 101 38t82 103q1 3 6.5 1.5t4.5 -3.5q-14 -42 -34 -142q-2 -9 -5 -12t-11 -3h-373q-4 0 -4 6t4 6q26 0 38.5 5.5t19 19.5t10.5 44l30 230h-135l-130 -188q-20 -29 -20 -55
q0 -25 20 -40.5t56 -15.5q4 0 3.5 -6t-3.5 -6l-68 2q-58 2 -84 2q-23 0 -53 -2q-26 -2 -43 -2q-5 0 -5 6t5 6q41 0 79.5 26t86.5 97l301 442q13 20 13 25q0 8 -14.5 9.5t-57.5 1.5q-4 0 -4 6t4 6h408q8 0 6 -9zM285 339h119l28 212z" />
    <glyph glyph-name="AEacute" unicode="&#x1fc;" horiz-adv-x="772" 
d="M509 678q-4 0 -5 4.5t2 6.5q30 22 84 69q39 33 41 35q6 5 36.5 -3.5t54 -20t11.5 -13.5q-62 -15 -113.5 -33.5t-108.5 -43.5zM766 616l-21 -134q0 -3 -4 -3q-3 0 -5.5 1.5t-2.5 2.5q-5 59 -39.5 93.5t-89.5 34.5h-18q-25 0 -38.5 -16.5t-18.5 -51.5l-26 -204h89
q45 0 70 17.5t34 58.5q1 5 7 4.5t5 -5.5q-8 -47 -17 -89q-4 -18 -6 -31.5t-3 -22.5l-7 -49q-1 -4 -7 -3.5t-5 4.5q2 14 2 20q0 33 -21 50.5t-59 17.5h-85l-29 -226q-2 -12 -2 -30q0 -22 10.5 -29.5t39.5 -7.5h13q52 0 101 38t82 103q1 3 6.5 1.5t4.5 -3.5q-14 -42 -34 -142
q-2 -9 -5 -12t-11 -3h-373q-4 0 -4 6t4 6q26 0 38.5 5.5t19 19.5t10.5 44l30 230h-135l-130 -188q-20 -29 -20 -55q0 -25 20 -40.5t56 -15.5q4 0 3.5 -6t-3.5 -6l-68 2q-58 2 -84 2q-23 0 -53 -2q-26 -2 -43 -2q-5 0 -5 6t5 6q41 0 79.5 26t86.5 97l301 442q13 20 13 25
q0 8 -14.5 9.5t-57.5 1.5q-4 0 -4 6t4 6h408q8 0 6 -9zM285 339h119l28 212z" />
    <glyph glyph-name="uni01E2" unicode="&#x1e2;" horiz-adv-x="772" 
d="M464 718q-3 6 -3 14t3 14t7 6h228q5 0 8 -6t3 -14t-3 -14t-8 -6h-228q-4 0 -7 6zM766 616l-21 -134q0 -3 -4 -3q-3 0 -5.5 1.5t-2.5 2.5q-5 59 -39.5 93.5t-89.5 34.5h-18q-25 0 -38.5 -16.5t-18.5 -51.5l-26 -204h89q45 0 70 17.5t34 58.5q1 5 7 4.5t5 -5.5
q-8 -47 -17 -89q-4 -18 -6 -31.5t-3 -22.5l-7 -49q-1 -4 -7 -3.5t-5 4.5q2 14 2 20q0 33 -21 50.5t-59 17.5h-85l-29 -226q-2 -12 -2 -30q0 -22 10.5 -29.5t39.5 -7.5h13q52 0 101 38t82 103q1 3 6.5 1.5t4.5 -3.5q-14 -42 -34 -142q-2 -9 -5 -12t-11 -3h-373q-4 0 -4 6t4 6
q26 0 38.5 5.5t19 19.5t10.5 44l30 230h-135l-130 -188q-20 -29 -20 -55q0 -25 20 -40.5t56 -15.5q4 0 3.5 -6t-3.5 -6l-68 2q-58 2 -84 2q-23 0 -53 -2q-26 -2 -43 -2q-5 0 -5 6t5 6q41 0 79.5 26t86.5 97l301 442q13 20 13 25q0 8 -14.5 9.5t-57.5 1.5q-4 0 -4 6t4 6h408
q8 0 6 -9zM285 339h119l28 212z" />
    <glyph glyph-name="B" unicode="B" horiz-adv-x="561" 
d="M483.5 301.5q39.5 -38.5 39.5 -94.5q0 -15 -3 -32q-10 -50 -47.5 -91t-93.5 -64.5t-119 -23.5q-27 0 -60 3q-13 1 -30.5 2t-38.5 1l-68 -1q-18 -1 -48 -1q-2 0 -2 6t2 6q39 0 55.5 14.5t24.5 57.5l82 463q3 18 3 29q0 23 -12 30t-43 7q-3 0 -3 4q0 3 1 5t2 3l48 -1
q40 -2 64 -2q27 0 54 3q9 1 27 2t32 1q84 0 129.5 -28t45.5 -80q0 -12 -3 -26q-10 -46 -48 -83.5t-101 -60.5q71 -10 110.5 -48.5zM294.5 592q-13.5 -16 -19.5 -54l-33 -186l35 -1q56 0 95.5 41t52.5 104q4 17 4 34q0 39 -24 58.5t-70 19.5q-27 0 -40.5 -16zM419 211
q0 54 -33 83.5t-101 29.5q-28 0 -49 -2l-43 -245q-3 -15 -3 -26q0 -18 11.5 -25.5t42.5 -7.5q72 0 113 37t56 108q6 26 6 48z" />
    <glyph glyph-name="C" unicode="C" horiz-adv-x="588" 
d="M117 60.5q-64 72.5 -64 180.5q0 32 7 72q18 99 75 172.5t136.5 112t164.5 38.5q40 0 82.5 -8.5t66.5 -20.5q6 -4 7.5 -8t0.5 -15l-16 -134q0 -3 -5 -3t-6 3q-17 75 -61.5 117t-109.5 42q-87 0 -146.5 -70t-76.5 -193q-6 -42 -6 -82q0 -73 19 -131t55.5 -91.5t85.5 -33.5
q50 0 102 37t110 115q1 2 4 2t5.5 -1.5t1.5 -3.5l-27 -115q-3 -12 -6 -16.5t-12 -6.5q-90 -31 -184 -31q-139 0 -203 72.5z" />
    <glyph glyph-name="Cacute" unicode="&#x106;" horiz-adv-x="588" 
d="M369 678q-4 0 -5 4.5t2 6.5q30 22 84 69q39 33 41 35q6 5 36.5 -3.5t54 -20t11.5 -13.5q-62 -15 -113.5 -33.5t-108.5 -43.5zM117 60.5q-64 72.5 -64 180.5q0 32 7 72q18 99 75 172.5t136.5 112t164.5 38.5q40 0 82.5 -8.5t66.5 -20.5q6 -4 7.5 -8t0.5 -15l-16 -134
q0 -3 -5 -3t-6 3q-17 75 -61.5 117t-109.5 42q-87 0 -146.5 -70t-76.5 -193q-6 -42 -6 -82q0 -73 19 -131t55.5 -91.5t85.5 -33.5q50 0 102 37t110 115q1 2 4 2t5.5 -1.5t1.5 -3.5l-27 -115q-3 -12 -6 -16.5t-12 -6.5q-90 -31 -184 -31q-139 0 -203 72.5z" />
    <glyph glyph-name="Ccaron" unicode="&#x10c;" horiz-adv-x="588" 
d="M336 791v1q0 2 3 4.5t5 1.5l94 -39l110 39q2 1 5.5 -2.5t0.5 -4.5l-116 -116q-4 -4 -10 -4q-5 0 -8 4zM117 60.5q-64 72.5 -64 180.5q0 32 7 72q18 99 75 172.5t136.5 112t164.5 38.5q40 0 82.5 -8.5t66.5 -20.5q6 -4 7.5 -8t0.5 -15l-16 -134q0 -3 -5 -3t-6 3
q-17 75 -61.5 117t-109.5 42q-87 0 -146.5 -70t-76.5 -193q-6 -42 -6 -82q0 -73 19 -131t55.5 -91.5t85.5 -33.5q50 0 102 37t110 115q1 2 4 2t5.5 -1.5t1.5 -3.5l-27 -115q-3 -12 -6 -16.5t-12 -6.5q-90 -31 -184 -31q-139 0 -203 72.5z" />
    <glyph glyph-name="Ccedilla" unicode="&#xc7;" horiz-adv-x="588" 
d="M592.5 599q1.5 -4 0.5 -15l-16 -134q0 -3 -5 -3t-6 3q-17 75 -61.5 117t-109.5 42q-87 0 -146.5 -70t-76.5 -193q-6 -42 -6 -82q0 -73 19 -131t55.5 -91.5t85.5 -33.5q50 0 102 37t110 115q1 2 4 2t5.5 -1.5t1.5 -3.5l-27 -115q-3 -12 -6 -16.5t-12 -6.5
q-89 -31 -182 -31q-4 -11 -4 -23q0 -17 7 -30t16 -24t12 -15q34 -43 34 -71q0 -19 -13.5 -42.5t-40.5 -40.5t-67 -17q-34 0 -57 13t-23 34q0 20 12.5 30t29.5 10q18 0 25.5 -9.5t13.5 -27.5q6 -16 11.5 -23.5t17.5 -7.5q11 0 17.5 6.5t8.5 17.5q1 17 -12.5 39.5t-38.5 54.5
q-8 9 -8 24q0 11 4.5 23t14.5 31l23 48q-131 4 -191 76t-60 178q0 37 6 71q18 99 75 172.5t136.5 112t164.5 38.5q40 0 82.5 -8.5t66.5 -20.5q6 -4 7.5 -8z" />
    <glyph glyph-name="Ccircumflex" unicode="&#x108;" horiz-adv-x="588" 
d="M326 660q-3 0 -5 2.5t0 4.5l116 115q5 5 9 5q6 0 9 -5l83 -115l1 -2q0 -2 -3 -4t-5 -1l-94 38l-110 -38h-1zM117 60.5q-64 72.5 -64 180.5q0 32 7 72q18 99 75 172.5t136.5 112t164.5 38.5q40 0 82.5 -8.5t66.5 -20.5q6 -4 7.5 -8t0.5 -15l-16 -134q0 -3 -5 -3t-6 3
q-17 75 -61.5 117t-109.5 42q-87 0 -146.5 -70t-76.5 -193q-6 -42 -6 -82q0 -73 19 -131t55.5 -91.5t85.5 -33.5q50 0 102 37t110 115q1 2 4 2t5.5 -1.5t1.5 -3.5l-27 -115q-3 -12 -6 -16.5t-12 -6.5q-90 -31 -184 -31q-139 0 -203 72.5z" />
    <glyph glyph-name="Cdotaccent" unicode="&#x10a;" horiz-adv-x="588" 
d="M404.5 728.5q-15.5 15.5 -15.5 42.5q0 25 15.5 39.5t41.5 14.5t40.5 -14.5t14.5 -39.5q0 -27 -14.5 -42.5t-40.5 -15.5t-41.5 15.5zM117 60.5q-64 72.5 -64 180.5q0 32 7 72q18 99 75 172.5t136.5 112t164.5 38.5q40 0 82.5 -8.5t66.5 -20.5q6 -4 7.5 -8t0.5 -15
l-16 -134q0 -3 -5 -3t-6 3q-17 75 -61.5 117t-109.5 42q-87 0 -146.5 -70t-76.5 -193q-6 -42 -6 -82q0 -73 19 -131t55.5 -91.5t85.5 -33.5q50 0 102 37t110 115q1 2 4 2t5.5 -1.5t1.5 -3.5l-27 -115q-3 -12 -6 -16.5t-12 -6.5q-90 -31 -184 -31q-139 0 -203 72.5z" />
    <glyph glyph-name="D" unicode="D" horiz-adv-x="636" 
d="M195 -1q-12 1 -30 2t-41 1l-66 -1q-16 -1 -45 -1q-3 0 -3 6t3 6q28 0 41.5 5t20.5 19t13 45l82 463q4 26 4 33q0 21 -12 28.5t-42 7.5q-2 0 -2 6t2 6l47 -1q40 -2 66 -2q28 0 58 3q40 2 58 2q84 0 147 -30.5t96.5 -86t33.5 -128.5q0 -33 -5 -59q-17 -96 -73.5 -170.5
t-135.5 -115.5t-161 -41q-24 0 -56 3zM413.5 91.5q70.5 75.5 94.5 209.5q7 39 7 84q0 97 -42 159.5t-133 62.5q-36 0 -51 -14.5t-21 -50.5l-80 -450q-3 -16 -3 -28q0 -25 14 -36.5t48 -11.5q96 0 166.5 75.5z" />
    <glyph glyph-name="Eth" unicode="&#xd0;" horiz-adv-x="636" 
d="M496 596.5q63 -30.5 96.5 -86t33.5 -128.5q0 -33 -5 -59q-17 -96 -73.5 -170.5t-135.5 -115.5t-161 -41q-24 0 -56 3q-12 1 -30 2t-41 1l-66 -1q-16 -1 -45 -1q-3 0 -3 6t3 6q28 0 41.5 5t20.5 19t13 45l38 216h-57q-4 0 -4 14t4 14h62l39 219q4 26 4 33q0 21 -12 28.5
t-42 7.5q-2 0 -2 6t2 6l47 -1q40 -2 66 -2q28 0 58 3q40 2 58 2q84 0 147 -30.5zM515 385q0 97 -42 159.5t-133 62.5q-36 0 -51 -14.5t-21 -50.5l-39 -217h102q2 0 3.5 -4.5t1.5 -9.5t-1.5 -9.5t-3.5 -4.5h-107l-36 -205q-3 -16 -3 -28q0 -25 14 -36.5t48 -11.5
q96 0 166.5 75.5t94.5 209.5q7 39 7 84z" />
    <glyph glyph-name="Dcaron" unicode="&#x10e;" horiz-adv-x="636" 
d="M254 791v1q0 2 3 4.5t5 1.5l94 -39l110 39q2 1 5.5 -2.5t0.5 -4.5l-116 -116q-4 -4 -10 -4q-5 0 -8 4zM195 -1q-12 1 -30 2t-41 1l-66 -1q-16 -1 -45 -1q-3 0 -3 6t3 6q28 0 41.5 5t20.5 19t13 45l82 463q4 26 4 33q0 21 -12 28.5t-42 7.5q-2 0 -2 6t2 6l47 -1
q40 -2 66 -2q28 0 58 3q40 2 58 2q84 0 147 -30.5t96.5 -86t33.5 -128.5q0 -33 -5 -59q-17 -96 -73.5 -170.5t-135.5 -115.5t-161 -41q-24 0 -56 3zM413.5 91.5q70.5 75.5 94.5 209.5q7 39 7 84q0 97 -42 159.5t-133 62.5q-36 0 -51 -14.5t-21 -50.5l-80 -450q-3 -16 -3 -28
q0 -25 14 -36.5t48 -11.5q96 0 166.5 75.5z" />
    <glyph glyph-name="Dcroat" unicode="&#x110;" horiz-adv-x="636" 
d="M496 596.5q63 -30.5 96.5 -86t33.5 -128.5q0 -33 -5 -59q-17 -96 -73.5 -170.5t-135.5 -115.5t-161 -41q-24 0 -56 3q-12 1 -30 2t-41 1l-66 -1q-16 -1 -45 -1q-3 0 -3 6t3 6q28 0 41.5 5t20.5 19t13 45l38 216h-57q-4 0 -4 14t4 14h62l39 219q4 26 4 33q0 21 -12 28.5
t-42 7.5q-2 0 -2 6t2 6l47 -1q40 -2 66 -2q28 0 58 3q40 2 58 2q84 0 147 -30.5zM515 385q0 97 -42 159.5t-133 62.5q-36 0 -51 -14.5t-21 -50.5l-39 -217h102q2 0 3.5 -4.5t1.5 -9.5t-1.5 -9.5t-3.5 -4.5h-107l-36 -205q-3 -16 -3 -28q0 -25 14 -36.5t48 -11.5
q96 0 166.5 75.5t94.5 209.5q7 39 7 84z" />
    <glyph glyph-name="uni1E0C" unicode="&#x1e0c;" horiz-adv-x="636" 
d="M195 -1q-12 1 -30 2t-41 1l-66 -1q-16 -1 -45 -1q-3 0 -3 6t3 6q28 0 41.5 5t20.5 19t13 45l82 463q4 26 4 33q0 21 -12 28.5t-42 7.5q-2 0 -2 6t2 6l47 -1q40 -2 66 -2q28 0 58 3q40 2 58 2q84 0 147 -30.5t96.5 -86t33.5 -128.5q0 -33 -5 -59q-17 -96 -73.5 -170.5
t-135.5 -115.5t-161 -41q-24 0 -56 3zM413.5 91.5q70.5 75.5 94.5 209.5q7 39 7 84q0 97 -42 159.5t-133 62.5q-36 0 -51 -14.5t-21 -50.5l-80 -450q-3 -16 -3 -28q0 -25 14 -36.5t48 -11.5q96 0 166.5 75.5zM220.5 -188q-15.5 15 -15.5 43q0 24 15.5 39t41.5 15t40.5 -15
t14.5 -39q0 -28 -14.5 -43t-40.5 -15t-41.5 15z" />
    <glyph glyph-name="uni1E0E" unicode="&#x1e0e;" horiz-adv-x="636" 
d="M195 -1q-12 1 -30 2t-41 1l-66 -1q-16 -1 -45 -1q-3 0 -3 6t3 6q28 0 41.5 5t20.5 19t13 45l82 463q4 26 4 33q0 21 -12 28.5t-42 7.5q-2 0 -2 6t2 6l47 -1q40 -2 66 -2q28 0 58 3q40 2 58 2q84 0 147 -30.5t96.5 -86t33.5 -128.5q0 -33 -5 -59q-17 -96 -73.5 -170.5
t-135.5 -115.5t-161 -41q-24 0 -56 3zM413.5 91.5q70.5 75.5 94.5 209.5q7 39 7 84q0 97 -42 159.5t-133 62.5q-36 0 -51 -14.5t-21 -50.5l-80 -450q-3 -16 -3 -28q0 -25 14 -36.5t48 -11.5q96 0 166.5 75.5zM157 -117q-3 6 -3 14t3 14t7 6h228q5 0 8 -6t3 -14t-3 -14t-8 -6
h-228q-4 0 -7 6z" />
    <glyph glyph-name="E" unicode="E" horiz-adv-x="531" 
d="M525 616l-21 -134q0 -3 -4 -3q-3 0 -5.5 1.5t-2.5 2.5q-4 55 -39 88t-90 33h-18q-29 0 -42 -4.5t-18.5 -16.5t-10.5 -40l-36 -204h113q46 0 70.5 17.5t33.5 58.5q1 5 7 4.5t5 -5.5q-4 -28 -12 -62q0 -4 -5 -27q-3 -18 -7 -47q-2 -11 -4 -25t-5 -31q-1 -4 -7 -3.5t-5 4.5
q2 14 2 20q0 33 -21 50.5t-59 17.5h-111l-40 -226q-3 -18 -3 -30q0 -20 11 -27t40 -7h26q58 0 114 37.5t93 100.5q1 3 7 1.5t4 -3.5q-16 -52 -34 -142q-2 -9 -5 -12t-11 -3h-415q-3 0 -3 6t3 6q28 0 41.5 5t20 19t12.5 45l81 463q4 19 4 34q0 21 -11.5 28t-41.5 7q-2 0 -2 6
t2 6h393q8 0 6 -9z" />
    <glyph glyph-name="Eacute" unicode="&#xc9;" horiz-adv-x="531" 
d="M298 678q-4 0 -5 4.5t2 6.5q30 22 84 69q39 33 41 35q6 5 36.5 -3.5t54 -20t11.5 -13.5q-62 -15 -113.5 -33.5t-108.5 -43.5zM525 616l-21 -134q0 -3 -4 -3q-3 0 -5.5 1.5t-2.5 2.5q-4 55 -39 88t-90 33h-18q-29 0 -42 -4.5t-18.5 -16.5t-10.5 -40l-36 -204h113
q46 0 70.5 17.5t33.5 58.5q1 5 7 4.5t5 -5.5q-4 -28 -12 -62q0 -4 -5 -27q-3 -18 -7 -47q-2 -11 -4 -25t-5 -31q-1 -4 -7 -3.5t-5 4.5q2 14 2 20q0 33 -21 50.5t-59 17.5h-111l-40 -226q-3 -18 -3 -30q0 -20 11 -27t40 -7h26q58 0 114 37.5t93 100.5q1 3 7 1.5t4 -3.5
q-16 -52 -34 -142q-2 -9 -5 -12t-11 -3h-415q-3 0 -3 6t3 6q28 0 41.5 5t20 19t12.5 45l81 463q4 19 4 34q0 21 -11.5 28t-41.5 7q-2 0 -2 6t2 6h393q8 0 6 -9z" />
    <glyph glyph-name="Ebreve" unicode="&#x114;" horiz-adv-x="531" 
d="M289 690q-28 25 -28 72q0 6 24 11t44 5q15 0 15 -3q3 -25 21 -38.5t42 -13.5q19 0 37.5 12t30.5 36q3 3 6 3q4 0 8 -2t3 -4q-22 -49 -59 -76t-74 -27q-42 0 -70 25zM525 616l-21 -134q0 -3 -4 -3q-3 0 -5.5 1.5t-2.5 2.5q-4 55 -39 88t-90 33h-18q-29 0 -42 -4.5
t-18.5 -16.5t-10.5 -40l-36 -204h113q46 0 70.5 17.5t33.5 58.5q1 5 7 4.5t5 -5.5q-4 -28 -12 -62q0 -4 -5 -27q-3 -18 -7 -47q-2 -11 -4 -25t-5 -31q-1 -4 -7 -3.5t-5 4.5q2 14 2 20q0 33 -21 50.5t-59 17.5h-111l-40 -226q-3 -18 -3 -30q0 -20 11 -27t40 -7h26
q58 0 114 37.5t93 100.5q1 3 7 1.5t4 -3.5q-16 -52 -34 -142q-2 -9 -5 -12t-11 -3h-415q-3 0 -3 6t3 6q28 0 41.5 5t20 19t12.5 45l81 463q4 19 4 34q0 21 -11.5 28t-41.5 7q-2 0 -2 6t2 6h393q8 0 6 -9z" />
    <glyph glyph-name="Ecaron" unicode="&#x11a;" horiz-adv-x="531" 
d="M265 791v1q0 2 3 4.5t5 1.5l94 -39l110 39q2 1 5.5 -2.5t0.5 -4.5l-116 -116q-4 -4 -10 -4q-5 0 -8 4zM525 616l-21 -134q0 -3 -4 -3q-3 0 -5.5 1.5t-2.5 2.5q-4 55 -39 88t-90 33h-18q-29 0 -42 -4.5t-18.5 -16.5t-10.5 -40l-36 -204h113q46 0 70.5 17.5t33.5 58.5
q1 5 7 4.5t5 -5.5q-4 -28 -12 -62q0 -4 -5 -27q-3 -18 -7 -47q-2 -11 -4 -25t-5 -31q-1 -4 -7 -3.5t-5 4.5q2 14 2 20q0 33 -21 50.5t-59 17.5h-111l-40 -226q-3 -18 -3 -30q0 -20 11 -27t40 -7h26q58 0 114 37.5t93 100.5q1 3 7 1.5t4 -3.5q-16 -52 -34 -142q-2 -9 -5 -12
t-11 -3h-415q-3 0 -3 6t3 6q28 0 41.5 5t20 19t12.5 45l81 463q4 19 4 34q0 21 -11.5 28t-41.5 7q-2 0 -2 6t2 6h393q8 0 6 -9z" />
    <glyph glyph-name="Ecircumflex" unicode="&#xca;" horiz-adv-x="531" 
d="M255 660q-3 0 -5 2.5t0 4.5l116 115q5 5 9 5q6 0 9 -5l83 -115l1 -2q0 -2 -3 -4t-5 -1l-94 38l-110 -38h-1zM525 616l-21 -134q0 -3 -4 -3q-3 0 -5.5 1.5t-2.5 2.5q-4 55 -39 88t-90 33h-18q-29 0 -42 -4.5t-18.5 -16.5t-10.5 -40l-36 -204h113q46 0 70.5 17.5t33.5 58.5
q1 5 7 4.5t5 -5.5q-4 -28 -12 -62q0 -4 -5 -27q-3 -18 -7 -47q-2 -11 -4 -25t-5 -31q-1 -4 -7 -3.5t-5 4.5q2 14 2 20q0 33 -21 50.5t-59 17.5h-111l-40 -226q-3 -18 -3 -30q0 -20 11 -27t40 -7h26q58 0 114 37.5t93 100.5q1 3 7 1.5t4 -3.5q-16 -52 -34 -142q-2 -9 -5 -12
t-11 -3h-415q-3 0 -3 6t3 6q28 0 41.5 5t20 19t12.5 45l81 463q4 19 4 34q0 21 -11.5 28t-41.5 7q-2 0 -2 6t2 6h393q8 0 6 -9z" />
    <glyph glyph-name="uni1EBE" unicode="&#x1ebe;" horiz-adv-x="531" 
d="M518 842q14 0 40 -8.5t42 -18t6 -13.5q-85 -29 -166 -78l-2 -1q-3 0 -4.5 4.5t0.5 7.5q49 62 76 104q2 3 8 3zM254 660q-3 0 -5 2.5t0 4.5l116 115q5 5 9 5q6 0 9 -5l83 -115l1 -2q0 -2 -3 -4t-5 -1l-94 38l-110 -38h-1zM525 616l-21 -134q0 -3 -4 -3q-3 0 -5.5 1.5
t-2.5 2.5q-4 55 -39 88t-90 33h-18q-29 0 -42 -4.5t-18.5 -16.5t-10.5 -40l-36 -204h113q46 0 70.5 17.5t33.5 58.5q1 5 7 4.5t5 -5.5q-4 -28 -12 -62q0 -4 -5 -27q-3 -18 -7 -47q-2 -11 -4 -25t-5 -31q-1 -4 -7 -3.5t-5 4.5q2 14 2 20q0 33 -21 50.5t-59 17.5h-111
l-40 -226q-3 -18 -3 -30q0 -20 11 -27t40 -7h26q58 0 114 37.5t93 100.5q1 3 7 1.5t4 -3.5q-16 -52 -34 -142q-2 -9 -5 -12t-11 -3h-415q-3 0 -3 6t3 6q28 0 41.5 5t20 19t12.5 45l81 463q4 19 4 34q0 21 -11.5 28t-41.5 7q-2 0 -2 6t2 6h393q8 0 6 -9z" />
    <glyph glyph-name="uni1EC6" unicode="&#x1ec6;" horiz-adv-x="531" 
d="M255 660q-3 0 -5 2.5t0 4.5l116 115q5 5 9 5q6 0 9 -5l83 -115l1 -2q0 -2 -3 -4t-5 -1l-94 38l-110 -38h-1zM525 616l-21 -134q0 -3 -4 -3q-3 0 -5.5 1.5t-2.5 2.5q-4 55 -39 88t-90 33h-18q-29 0 -42 -4.5t-18.5 -16.5t-10.5 -40l-36 -204h113q46 0 70.5 17.5t33.5 58.5
q1 5 7 4.5t5 -5.5q-4 -28 -12 -62q0 -4 -5 -27q-3 -18 -7 -47q-2 -11 -4 -25t-5 -31q-1 -4 -7 -3.5t-5 4.5q2 14 2 20q0 33 -21 50.5t-59 17.5h-111l-40 -226q-3 -18 -3 -30q0 -20 11 -27t40 -7h26q58 0 114 37.5t93 100.5q1 3 7 1.5t4 -3.5q-16 -52 -34 -142q-2 -9 -5 -12
t-11 -3h-415q-3 0 -3 6t3 6q28 0 41.5 5t20 19t12.5 45l81 463q4 19 4 34q0 21 -11.5 28t-41.5 7q-2 0 -2 6t2 6h393q8 0 6 -9zM316.5 -106q14.5 -15 14.5 -39q0 -28 -14.5 -43t-40.5 -15t-41.5 15t-15.5 43q0 24 15.5 39t41.5 15t40.5 -15z" />
    <glyph glyph-name="uni1EC0" unicode="&#x1ec0;" horiz-adv-x="531" 
d="M540 725q0 -4 -3 -7.5t-7 -2.5q-61 46 -135 78q-9 4 10 13.5t47.5 18t42.5 8.5q7 0 8 -3q14 -53 37 -104v-1zM253 660q-3 0 -5 2.5t0 4.5l116 115q5 5 9 5q6 0 9 -5l83 -115l1 -2q0 -2 -3 -4t-5 -1l-94 38l-110 -38h-1zM525 616l-21 -134q0 -3 -4 -3q-3 0 -5.5 1.5
t-2.5 2.5q-4 55 -39 88t-90 33h-18q-29 0 -42 -4.5t-18.5 -16.5t-10.5 -40l-36 -204h113q46 0 70.5 17.5t33.5 58.5q1 5 7 4.5t5 -5.5q-4 -28 -12 -62q0 -4 -5 -27q-3 -18 -7 -47q-2 -11 -4 -25t-5 -31q-1 -4 -7 -3.5t-5 4.5q2 14 2 20q0 33 -21 50.5t-59 17.5h-111
l-40 -226q-3 -18 -3 -30q0 -20 11 -27t40 -7h26q58 0 114 37.5t93 100.5q1 3 7 1.5t4 -3.5q-16 -52 -34 -142q-2 -9 -5 -12t-11 -3h-415q-3 0 -3 6t3 6q28 0 41.5 5t20 19t12.5 45l81 463q4 19 4 34q0 21 -11.5 28t-41.5 7q-2 0 -2 6t2 6h393q8 0 6 -9z" />
    <glyph glyph-name="uni1EC2" unicode="&#x1ec2;" horiz-adv-x="531" 
d="M525.5 847.5q13.5 -10.5 13.5 -26.5t-12 -29t-34 -30q-19 -14 -29 -24t-11 -21q-1 -2 -6 -2.5t-5 2.5q-1 13 3 23.5t14 28.5q6 10 11 21t5 21q0 12 -7.5 18t-18.5 6t-18 -3l-2 -1q-3 0 -4.5 3.5t0.5 5.5q33 18 65 18q22 0 35.5 -10.5zM252 660q-3 0 -5 2.5t0 4.5l116 115
q5 5 9 5q6 0 9 -5l83 -115l1 -2q0 -2 -3 -4t-5 -1l-94 38l-110 -38h-1zM525 616l-21 -134q0 -3 -4 -3q-3 0 -5.5 1.5t-2.5 2.5q-4 55 -39 88t-90 33h-18q-29 0 -42 -4.5t-18.5 -16.5t-10.5 -40l-36 -204h113q46 0 70.5 17.5t33.5 58.5q1 5 7 4.5t5 -5.5q-4 -28 -12 -62
q0 -4 -5 -27q-3 -18 -7 -47q-2 -11 -4 -25t-5 -31q-1 -4 -7 -3.5t-5 4.5q2 14 2 20q0 33 -21 50.5t-59 17.5h-111l-40 -226q-3 -18 -3 -30q0 -20 11 -27t40 -7h26q58 0 114 37.5t93 100.5q1 3 7 1.5t4 -3.5q-16 -52 -34 -142q-2 -9 -5 -12t-11 -3h-415q-3 0 -3 6t3 6
q28 0 41.5 5t20 19t12.5 45l81 463q4 19 4 34q0 21 -11.5 28t-41.5 7q-2 0 -2 6t2 6h393q8 0 6 -9z" />
    <glyph glyph-name="uni1EC4" unicode="&#x1ec4;" horiz-adv-x="531" 
d="M525 886q2 0 4 -3t1 -5q-30 -48 -49.5 -64t-45.5 -16q-19 0 -56 11q-17 5 -35 9t-34 4q-24 0 -34.5 -5t-28.5 -22h-1q-2 0 -4.5 2.5t-1.5 4.5q22 34 46 57.5t53 23.5q11 0 47 -10q18 -6 38 -10.5t36 -4.5q21 0 34.5 6t28.5 21q0 1 2 1zM247 660q-3 0 -5 2.5t0 4.5
l116 115q5 5 9 5q6 0 9 -5l83 -115l1 -2q0 -2 -3 -4t-5 -1l-94 38l-110 -38h-1zM525 616l-21 -134q0 -3 -4 -3q-3 0 -5.5 1.5t-2.5 2.5q-4 55 -39 88t-90 33h-18q-29 0 -42 -4.5t-18.5 -16.5t-10.5 -40l-36 -204h113q46 0 70.5 17.5t33.5 58.5q1 5 7 4.5t5 -5.5
q-4 -28 -12 -62q0 -4 -5 -27q-3 -18 -7 -47q-2 -11 -4 -25t-5 -31q-1 -4 -7 -3.5t-5 4.5q2 14 2 20q0 33 -21 50.5t-59 17.5h-111l-40 -226q-3 -18 -3 -30q0 -20 11 -27t40 -7h26q58 0 114 37.5t93 100.5q1 3 7 1.5t4 -3.5q-16 -52 -34 -142q-2 -9 -5 -12t-11 -3h-415
q-3 0 -3 6t3 6q28 0 41.5 5t20 19t12.5 45l81 463q4 19 4 34q0 21 -11.5 28t-41.5 7q-2 0 -2 6t2 6h393q8 0 6 -9z" />
    <glyph glyph-name="Edieresis" unicode="&#xcb;" horiz-adv-x="531" 
d="M254 717.5q-14 14.5 -14 40.5q0 24 14.5 37.5t39.5 13.5q24 0 37.5 -13.5t13.5 -37.5q0 -26 -13.5 -40.5t-37.5 -14.5q-26 0 -40 14.5zM413 717.5q-14 14.5 -14 40.5q0 24 14.5 37.5t39.5 13.5q24 0 37.5 -13.5t13.5 -37.5q0 -26 -13.5 -40.5t-37.5 -14.5q-26 0 -40 14.5
zM525 616l-21 -134q0 -3 -4 -3q-3 0 -5.5 1.5t-2.5 2.5q-4 55 -39 88t-90 33h-18q-29 0 -42 -4.5t-18.5 -16.5t-10.5 -40l-36 -204h113q46 0 70.5 17.5t33.5 58.5q1 5 7 4.5t5 -5.5q-4 -28 -12 -62q0 -4 -5 -27q-3 -18 -7 -47q-2 -11 -4 -25t-5 -31q-1 -4 -7 -3.5t-5 4.5
q2 14 2 20q0 33 -21 50.5t-59 17.5h-111l-40 -226q-3 -18 -3 -30q0 -20 11 -27t40 -7h26q58 0 114 37.5t93 100.5q1 3 7 1.5t4 -3.5q-16 -52 -34 -142q-2 -9 -5 -12t-11 -3h-415q-3 0 -3 6t3 6q28 0 41.5 5t20 19t12.5 45l81 463q4 19 4 34q0 21 -11.5 28t-41.5 7q-2 0 -2 6
t2 6h393q8 0 6 -9z" />
    <glyph glyph-name="Edotaccent" unicode="&#x116;" horiz-adv-x="531" 
d="M333.5 728.5q-15.5 15.5 -15.5 42.5q0 25 15.5 39.5t41.5 14.5t40.5 -14.5t14.5 -39.5q0 -27 -14.5 -42.5t-40.5 -15.5t-41.5 15.5zM525 616l-21 -134q0 -3 -4 -3q-3 0 -5.5 1.5t-2.5 2.5q-4 55 -39 88t-90 33h-18q-29 0 -42 -4.5t-18.5 -16.5t-10.5 -40l-36 -204h113
q46 0 70.5 17.5t33.5 58.5q1 5 7 4.5t5 -5.5q-4 -28 -12 -62q0 -4 -5 -27q-3 -18 -7 -47q-2 -11 -4 -25t-5 -31q-1 -4 -7 -3.5t-5 4.5q2 14 2 20q0 33 -21 50.5t-59 17.5h-111l-40 -226q-3 -18 -3 -30q0 -20 11 -27t40 -7h26q58 0 114 37.5t93 100.5q1 3 7 1.5t4 -3.5
q-16 -52 -34 -142q-2 -9 -5 -12t-11 -3h-415q-3 0 -3 6t3 6q28 0 41.5 5t20 19t12.5 45l81 463q4 19 4 34q0 21 -11.5 28t-41.5 7q-2 0 -2 6t2 6h393q8 0 6 -9z" />
    <glyph glyph-name="uni1EB8" unicode="&#x1eb8;" horiz-adv-x="531" 
d="M525 616l-21 -134q0 -3 -4 -3q-3 0 -5.5 1.5t-2.5 2.5q-4 55 -39 88t-90 33h-18q-29 0 -42 -4.5t-18.5 -16.5t-10.5 -40l-36 -204h113q46 0 70.5 17.5t33.5 58.5q1 5 7 4.5t5 -5.5q-4 -28 -12 -62q0 -4 -5 -27q-3 -18 -7 -47q-2 -11 -4 -25t-5 -31q-1 -4 -7 -3.5t-5 4.5
q2 14 2 20q0 33 -21 50.5t-59 17.5h-111l-40 -226q-3 -18 -3 -30q0 -20 11 -27t40 -7h26q58 0 114 37.5t93 100.5q1 3 7 1.5t4 -3.5q-16 -52 -34 -142q-2 -9 -5 -12t-11 -3h-415q-3 0 -3 6t3 6q28 0 41.5 5t20 19t12.5 45l81 463q4 19 4 34q0 21 -11.5 28t-41.5 7q-2 0 -2 6
t2 6h393q8 0 6 -9zM316.5 -106q14.5 -15 14.5 -39q0 -28 -14.5 -43t-40.5 -15t-41.5 15t-15.5 43q0 24 15.5 39t41.5 15t40.5 -15z" />
    <glyph glyph-name="Egrave" unicode="&#xc8;" horiz-adv-x="531" 
d="M256 768.5q19 9.5 49.5 17.5t45.5 8q7 0 9 -2q25 -28 54 -55l37 -36q1 -1 1 -3q0 -3 -3.5 -5t-7.5 -1q-51 20 -89.5 32.5t-102.5 31.5q-12 3 7 12.5zM525 616l-21 -134q0 -3 -4 -3q-3 0 -5.5 1.5t-2.5 2.5q-4 55 -39 88t-90 33h-18q-29 0 -42 -4.5t-18.5 -16.5t-10.5 -40
l-36 -204h113q46 0 70.5 17.5t33.5 58.5q1 5 7 4.5t5 -5.5q-4 -28 -12 -62q0 -4 -5 -27q-3 -18 -7 -47q-2 -11 -4 -25t-5 -31q-1 -4 -7 -3.5t-5 4.5q2 14 2 20q0 33 -21 50.5t-59 17.5h-111l-40 -226q-3 -18 -3 -30q0 -20 11 -27t40 -7h26q58 0 114 37.5t93 100.5q1 3 7 1.5
t4 -3.5q-16 -52 -34 -142q-2 -9 -5 -12t-11 -3h-415q-3 0 -3 6t3 6q28 0 41.5 5t20 19t12.5 45l81 463q4 19 4 34q0 21 -11.5 28t-41.5 7q-2 0 -2 6t2 6h393q8 0 6 -9z" />
    <glyph glyph-name="uni1EBA" unicode="&#x1eba;" horiz-adv-x="531" 
d="M307 816q-3 0 -5.5 3t0.5 6q36 28 82 28q32 0 51 -14t19 -39q0 -21 -13 -38.5t-39 -43.5q-22 -22 -32.5 -36t-10.5 -29q0 -2 -5.5 -2.5t-6.5 2.5q-2 16 -2 22q0 16 3.5 28.5t10.5 32.5q7 17 10.5 29t3.5 26q0 35 -28 35q-14 0 -36 -10h-2zM525 616l-21 -134q0 -3 -4 -3
q-3 0 -5.5 1.5t-2.5 2.5q-4 55 -39 88t-90 33h-18q-29 0 -42 -4.5t-18.5 -16.5t-10.5 -40l-36 -204h113q46 0 70.5 17.5t33.5 58.5q1 5 7 4.5t5 -5.5q-4 -28 -12 -62q0 -4 -5 -27q-3 -18 -7 -47q-2 -11 -4 -25t-5 -31q-1 -4 -7 -3.5t-5 4.5q2 14 2 20q0 33 -21 50.5
t-59 17.5h-111l-40 -226q-3 -18 -3 -30q0 -20 11 -27t40 -7h26q58 0 114 37.5t93 100.5q1 3 7 1.5t4 -3.5q-16 -52 -34 -142q-2 -9 -5 -12t-11 -3h-415q-3 0 -3 6t3 6q28 0 41.5 5t20 19t12.5 45l81 463q4 19 4 34q0 21 -11.5 28t-41.5 7q-2 0 -2 6t2 6h393q8 0 6 -9z" />
    <glyph glyph-name="Emacron" unicode="&#x112;" horiz-adv-x="531" 
d="M253 718q-3 6 -3 14t3 14t7 6h228q5 0 8 -6t3 -14t-3 -14t-8 -6h-228q-4 0 -7 6zM525 616l-21 -134q0 -3 -4 -3q-3 0 -5.5 1.5t-2.5 2.5q-4 55 -39 88t-90 33h-18q-29 0 -42 -4.5t-18.5 -16.5t-10.5 -40l-36 -204h113q46 0 70.5 17.5t33.5 58.5q1 5 7 4.5t5 -5.5
q-4 -28 -12 -62q0 -4 -5 -27q-3 -18 -7 -47q-2 -11 -4 -25t-5 -31q-1 -4 -7 -3.5t-5 4.5q2 14 2 20q0 33 -21 50.5t-59 17.5h-111l-40 -226q-3 -18 -3 -30q0 -20 11 -27t40 -7h26q58 0 114 37.5t93 100.5q1 3 7 1.5t4 -3.5q-16 -52 -34 -142q-2 -9 -5 -12t-11 -3h-415
q-3 0 -3 6t3 6q28 0 41.5 5t20 19t12.5 45l81 463q4 19 4 34q0 21 -11.5 28t-41.5 7q-2 0 -2 6t2 6h393q8 0 6 -9z" />
    <glyph glyph-name="Eogonek" unicode="&#x118;" horiz-adv-x="531" 
d="M525 616l-21 -134q0 -3 -4 -3q-3 0 -5.5 1.5t-2.5 2.5q-4 55 -39 88t-90 33h-18q-29 0 -42 -4.5t-18.5 -16.5t-10.5 -40l-36 -204h113q46 0 70.5 17.5t33.5 58.5q1 5 7 4.5t5 -5.5q-4 -28 -12 -62q0 -4 -5 -27q-3 -18 -7 -47q-2 -11 -4 -25t-5 -31q-1 -4 -7 -3.5t-5 4.5
q2 14 2 20q0 33 -21 50.5t-59 17.5h-111l-40 -226q-3 -18 -3 -30q0 -20 11 -27t40 -7h26q58 0 114 37.5t93 100.5q1 3 7 1.5t4 -3.5q-16 -52 -34 -142q-2 -9 -5 -12t-11 -3h-40q-36 -45 -55 -83t-19 -81q0 -30 12.5 -49t37.5 -19t47 20l1 1q3 0 5.5 -4t0.5 -6
q-29 -29 -54 -41.5t-53 -12.5q-40 0 -63 23.5t-23 60.5q0 48 36 92t106 99h-354q-3 0 -3 6t3 6q28 0 41.5 5t20 19t12.5 45l81 463q4 19 4 34q0 21 -11.5 28t-41.5 7q-2 0 -2 6t2 6h393q8 0 6 -9z" />
    <glyph glyph-name="uni1EBC" unicode="&#x1ebc;" horiz-adv-x="531" 
d="M236 685q-2 0 -4 3t-1 5q22 34 46 57.5t54 23.5q10 0 26 -4.5t21 -5.5q49 -15 73 -15q22 0 35.5 6t28.5 21h1q3 0 5 -2.5t1 -4.5q-30 -49 -49.5 -65t-45.5 -16q-16 0 -56 12q-4 1 -26.5 7t-42.5 6q-23 0 -33.5 -4.5t-19 -12t-11.5 -10.5q0 -1 -2 -1zM525 616l-21 -134
q0 -3 -4 -3q-3 0 -5.5 1.5t-2.5 2.5q-4 55 -39 88t-90 33h-18q-29 0 -42 -4.5t-18.5 -16.5t-10.5 -40l-36 -204h113q46 0 70.5 17.5t33.5 58.5q1 5 7 4.5t5 -5.5q-4 -28 -12 -62q0 -4 -5 -27q-3 -18 -7 -47q-2 -11 -4 -25t-5 -31q-1 -4 -7 -3.5t-5 4.5q2 14 2 20
q0 33 -21 50.5t-59 17.5h-111l-40 -226q-3 -18 -3 -30q0 -20 11 -27t40 -7h26q58 0 114 37.5t93 100.5q1 3 7 1.5t4 -3.5q-16 -52 -34 -142q-2 -9 -5 -12t-11 -3h-415q-3 0 -3 6t3 6q28 0 41.5 5t20 19t12.5 45l81 463q4 19 4 34q0 21 -11.5 28t-41.5 7q-2 0 -2 6t2 6h393
q8 0 6 -9z" />
    <glyph glyph-name="F" unicode="F" horiz-adv-x="485" 
d="M522 616l-8 -51l-13 -83q-1 -3 -5 -3q-2 0 -4.5 1.5t-2.5 2.5q-5 56 -40 88.5t-90 32.5h-17q-29 0 -42 -4.5t-18.5 -16.5t-11.5 -40l-38 -216h92q45 0 70 18t34 59q0 3 6 3q2 0 4.5 -1.5t1.5 -3.5q-4 -28 -12 -62q0 -4 -5 -27l-4 -26q-4 -29 -12 -76q-1 -4 -7 -3.5
t-5 4.5q2 14 2 20q0 33 -21 50t-59 17h-90l-38 -214q-3 -16 -3 -27q0 -27 18.5 -36.5t68.5 -9.5q2 0 2 -6t-2 -6q-21 0 -36 1l-113 1l-64 -1q-16 -1 -45 -1q-2 0 -2 6t2 6q28 0 42 5t21 19.5t12 44.5l82 463q4 26 4 33q0 21 -12 28.5t-41 7.5q-3 0 -3 6t3 6h393q8 0 6 -9z
" />
    <glyph glyph-name="G" unicode="G" horiz-adv-x="633" 
d="M180 21q-62 33 -94 91.5t-32 134.5q0 37 7 72q17 92 73 164t138.5 112.5t174.5 40.5q43 0 85.5 -8.5t66.5 -20.5q6 -4 7.5 -8t0.5 -15l-16 -134q-1 -3 -5.5 -3t-5.5 3q-18 76 -62.5 118.5t-112.5 42.5q-90 0 -151.5 -68.5t-79.5 -186.5q-7 -43 -7 -89q0 -120 52 -189
t144 -69q49 0 71 25t30 92q5 37 5 53q0 24 -8.5 35t-27 15t-56.5 4q-2 0 -3.5 2.5t-1.5 5.5t1.5 5.5t3.5 2.5q75 -5 123 -5q47 0 98 3q3 0 3.5 -7t-3.5 -7q-13 1 -19 -6.5t-11 -36.5t-11 -74q-6 -39 -7 -60t-3 -28q-1 -6 -3 -8t-8 -4q-119 -28 -206 -28q-88 0 -150 33z" />
    <glyph glyph-name="G_tildecomb" horiz-adv-x="633" 
d="M312 709q-2 0 -4.5 2.5t-1.5 4.5q22 34 46 57.5t53 23.5q11 0 47 -10q18 -6 38 -10.5t36 -4.5q21 0 34.5 6t28.5 21q0 1 2 1t4 -3t1 -5q-30 -48 -49.5 -64t-45.5 -16q-19 0 -56 11q-17 5 -35 9t-34 4q-24 0 -34.5 -5t-28.5 -22h-1zM180 21q-62 33 -94 91.5t-32 134.5
q0 37 7 72q17 92 73 164t138.5 112.5t174.5 40.5q43 0 85.5 -8.5t66.5 -20.5q6 -4 7.5 -8t0.5 -15l-16 -134q-1 -3 -5.5 -3t-5.5 3q-18 76 -62.5 118.5t-112.5 42.5q-90 0 -151.5 -68.5t-79.5 -186.5q-7 -43 -7 -89q0 -120 52 -189t144 -69q49 0 71 25t30 92q5 37 5 53
q0 24 -8.5 35t-27 15t-56.5 4q-2 0 -3.5 2.5t-1.5 5.5t1.5 5.5t3.5 2.5q75 -5 123 -5q47 0 98 3q3 0 3.5 -7t-3.5 -7q-13 1 -19 -6.5t-11 -36.5t-11 -74q-6 -39 -7 -60t-3 -28q-1 -6 -3 -8t-8 -4q-119 -28 -206 -28q-88 0 -150 33z" />
    <glyph glyph-name="Gbreve" unicode="&#x11e;" horiz-adv-x="633" 
d="M363 690q-28 25 -28 72q0 6 24 11t44 5q15 0 15 -3q3 -25 21 -38.5t42 -13.5q19 0 37.5 12t30.5 36q3 3 6 3q4 0 8 -2t3 -4q-22 -49 -59 -76t-74 -27q-42 0 -70 25zM180 21q-62 33 -94 91.5t-32 134.5q0 37 7 72q17 92 73 164t138.5 112.5t174.5 40.5q43 0 85.5 -8.5
t66.5 -20.5q6 -4 7.5 -8t0.5 -15l-16 -134q-1 -3 -5.5 -3t-5.5 3q-18 76 -62.5 118.5t-112.5 42.5q-90 0 -151.5 -68.5t-79.5 -186.5q-7 -43 -7 -89q0 -120 52 -189t144 -69q49 0 71 25t30 92q5 37 5 53q0 24 -8.5 35t-27 15t-56.5 4q-2 0 -3.5 2.5t-1.5 5.5t1.5 5.5
t3.5 2.5q75 -5 123 -5q47 0 98 3q3 0 3.5 -7t-3.5 -7q-13 1 -19 -6.5t-11 -36.5t-11 -74q-6 -39 -7 -60t-3 -28q-1 -6 -3 -8t-8 -4q-119 -28 -206 -28q-88 0 -150 33z" />
    <glyph glyph-name="Gcaron" unicode="&#x1e6;" horiz-adv-x="633" 
d="M344 791v1q0 2 3 4.5t5 1.5l94 -39l110 39q2 1 5.5 -2.5t0.5 -4.5l-116 -116q-4 -4 -10 -4q-5 0 -8 4zM180 21q-62 33 -94 91.5t-32 134.5q0 37 7 72q17 92 73 164t138.5 112.5t174.5 40.5q43 0 85.5 -8.5t66.5 -20.5q6 -4 7.5 -8t0.5 -15l-16 -134q-1 -3 -5.5 -3t-5.5 3
q-18 76 -62.5 118.5t-112.5 42.5q-90 0 -151.5 -68.5t-79.5 -186.5q-7 -43 -7 -89q0 -120 52 -189t144 -69q49 0 71 25t30 92q5 37 5 53q0 24 -8.5 35t-27 15t-56.5 4q-2 0 -3.5 2.5t-1.5 5.5t1.5 5.5t3.5 2.5q75 -5 123 -5q47 0 98 3q3 0 3.5 -7t-3.5 -7q-13 1 -19 -6.5
t-11 -36.5t-11 -74q-6 -39 -7 -60t-3 -28q-1 -6 -3 -8t-8 -4q-119 -28 -206 -28q-88 0 -150 33z" />
    <glyph glyph-name="Gcircumflex" unicode="&#x11c;" horiz-adv-x="633" 
d="M334 660q-3 0 -5 2.5t0 4.5l116 115q5 5 9 5q6 0 9 -5l83 -115l1 -2q0 -2 -3 -4t-5 -1l-94 38l-110 -38h-1zM180 21q-62 33 -94 91.5t-32 134.5q0 37 7 72q17 92 73 164t138.5 112.5t174.5 40.5q43 0 85.5 -8.5t66.5 -20.5q6 -4 7.5 -8t0.5 -15l-16 -134q-1 -3 -5.5 -3
t-5.5 3q-18 76 -62.5 118.5t-112.5 42.5q-90 0 -151.5 -68.5t-79.5 -186.5q-7 -43 -7 -89q0 -120 52 -189t144 -69q49 0 71 25t30 92q5 37 5 53q0 24 -8.5 35t-27 15t-56.5 4q-2 0 -3.5 2.5t-1.5 5.5t1.5 5.5t3.5 2.5q75 -5 123 -5q47 0 98 3q3 0 3.5 -7t-3.5 -7
q-13 1 -19 -6.5t-11 -36.5t-11 -74q-6 -39 -7 -60t-3 -28q-1 -6 -3 -8t-8 -4q-119 -28 -206 -28q-88 0 -150 33z" />
    <glyph glyph-name="Gcommaaccent" unicode="&#x122;" horiz-adv-x="633" 
d="M253.5 542.5q-61.5 -68.5 -79.5 -186.5q-7 -43 -7 -89q0 -120 52 -189t144 -69q49 0 71 25t30 92q5 37 5 53q0 24 -8.5 35t-27 15t-56.5 4q-2 0 -3.5 2.5t-1.5 5.5t1.5 5.5t3.5 2.5q75 -5 123 -5q47 0 98 3q3 0 3.5 -7t-3.5 -7q-13 1 -19 -6.5t-11 -36.5t-11 -74
q-6 -39 -7 -60t-3 -28q-1 -6 -3 -8t-8 -4q-119 -28 -206 -28q-88 0 -150 33t-94 91.5t-32 134.5q0 37 7 72q17 92 73 164t138.5 112.5t174.5 40.5q43 0 85.5 -8.5t66.5 -20.5q6 -4 7.5 -8t0.5 -15l-16 -134q-1 -3 -5.5 -3t-5.5 3q-18 76 -62.5 118.5t-112.5 42.5
q-90 0 -151.5 -68.5zM365.5 -86q14.5 -17 14.5 -45q0 -44 -28 -81.5t-73 -62.5l-2 -1q-4 0 -6 4.5t1 6.5q52 31 59 67q2 8 2 20q-7 -3 -19 -3q-26 0 -39.5 16.5t-13.5 38.5q0 24 16 40.5t45 16.5t43.5 -17z" />
    <glyph glyph-name="Gdotaccent" unicode="&#x120;" horiz-adv-x="633" 
d="M412.5 728.5q-15.5 15.5 -15.5 42.5q0 25 15.5 39.5t41.5 14.5t40.5 -14.5t14.5 -39.5q0 -27 -14.5 -42.5t-40.5 -15.5t-41.5 15.5zM180 21q-62 33 -94 91.5t-32 134.5q0 37 7 72q17 92 73 164t138.5 112.5t174.5 40.5q43 0 85.5 -8.5t66.5 -20.5q6 -4 7.5 -8t0.5 -15
l-16 -134q-1 -3 -5.5 -3t-5.5 3q-18 76 -62.5 118.5t-112.5 42.5q-90 0 -151.5 -68.5t-79.5 -186.5q-7 -43 -7 -89q0 -120 52 -189t144 -69q49 0 71 25t30 92q5 37 5 53q0 24 -8.5 35t-27 15t-56.5 4q-2 0 -3.5 2.5t-1.5 5.5t1.5 5.5t3.5 2.5q75 -5 123 -5q47 0 98 3
q3 0 3.5 -7t-3.5 -7q-13 1 -19 -6.5t-11 -36.5t-11 -74q-6 -39 -7 -60t-3 -28q-1 -6 -3 -8t-8 -4q-119 -28 -206 -28q-88 0 -150 33z" />
    <glyph glyph-name="uni1E20" unicode="&#x1e20;" horiz-adv-x="633" 
d="M296 718.5q-3 5.5 -3 13.5q0 7 3 12.5t7 5.5h251q5 0 8 -5.5t3 -12.5q0 -8 -3 -13.5t-8 -5.5h-251q-4 0 -7 5.5zM180 21q-62 33 -94 91.5t-32 134.5q0 37 7 72q17 92 73 164t138.5 112.5t174.5 40.5q43 0 85.5 -8.5t66.5 -20.5q6 -4 7.5 -8t0.5 -15l-16 -134
q-1 -3 -5.5 -3t-5.5 3q-18 76 -62.5 118.5t-112.5 42.5q-90 0 -151.5 -68.5t-79.5 -186.5q-7 -43 -7 -89q0 -120 52 -189t144 -69q49 0 71 25t30 92q5 37 5 53q0 24 -8.5 35t-27 15t-56.5 4q-2 0 -3.5 2.5t-1.5 5.5t1.5 5.5t3.5 2.5q75 -5 123 -5q47 0 98 3q3 0 3.5 -7
t-3.5 -7q-13 1 -19 -6.5t-11 -36.5t-11 -74q-6 -39 -7 -60t-3 -28q-1 -6 -3 -8t-8 -4q-119 -28 -206 -28q-88 0 -150 33z" />
    <glyph glyph-name="H" unicode="H" horiz-adv-x="675" 
d="M704 619q0 -6 -2 -6q-27 0 -40.5 -5.5t-20.5 -19.5t-13 -44l-82 -463q-3 -19 -3 -32q0 -22 11.5 -29.5t41.5 -7.5q3 0 3 -6t-3 -6q-25 0 -41 1l-68 1l-66 -1q-17 -1 -47 -1q-2 0 -2 6t2 6q28 0 41.5 5t20 19t12.5 45l40 230h-261l-41 -230q-4 -19 -4 -34q0 -21 11.5 -28
t41.5 -7q3 0 3 -6t-3 -6q-29 0 -46 1l-67 1l-64 -1q-16 -1 -45 -1q-3 0 -3 6t3 6q28 0 41.5 5t20.5 19t13 45l82 463q4 26 4 32q0 21 -12 29t-42 8q-2 0 -2 6t2 6l45 -1q40 -2 64 -2t66 2l47 1q2 0 2 -6t-2 -6q-27 0 -41 -6t-21 -20.5t-12 -44.5l-36 -203h261l36 203
q3 20 3 33q0 22 -11 30t-40 8q-3 0 -3 6t3 6l45 -1q40 -2 65 -2t65 2l46 1q2 0 2 -6z" />
    <glyph glyph-name="Hbar" unicode="&#x126;" horiz-adv-x="675" 
d="M704 619q0 -6 -2 -6q-27 0 -40.5 -5.5t-20.5 -19.5t-13 -44l-82 -463q-3 -19 -3 -32q0 -22 11.5 -29.5t41.5 -7.5q3 0 3 -6t-3 -6q-25 0 -41 1l-68 1l-66 -1q-17 -1 -47 -1q-2 0 -2 6t2 6q28 0 41.5 5t20 19t12.5 45l24 137h-262l-24 -137q-4 -19 -4 -34q0 -21 11.5 -28
t41.5 -7q3 0 3 -6t-3 -6q-29 0 -46 1l-67 1l-64 -1q-16 -1 -45 -1q-3 0 -3 6t3 6q28 0 41.5 5t20.5 19t13 45l82 463q4 26 4 32q0 21 -12 29t-42 8q-2 0 -2 6t2 6l45 -1q40 -2 64 -2t66 2l47 1q2 0 2 -6t-2 -6q-27 0 -41 -6t-21 -20.5t-12 -44.5l-19 -109h261l19 109
q3 20 3 33q0 22 -11 30t-40 8q-3 0 -3 6t3 6l45 -1q40 -2 65 -2t65 2l46 1q2 0 2 -6zM215 246h262l28 159h-261z" />
    <glyph glyph-name="uni1E2A" unicode="&#x1e2a;" horiz-adv-x="675" 
d="M704 619q0 -6 -2 -6q-27 0 -40.5 -5.5t-20.5 -19.5t-13 -44l-82 -463q-3 -19 -3 -32q0 -22 11.5 -29.5t41.5 -7.5q3 0 3 -6t-3 -6q-25 0 -41 1l-68 1l-66 -1q-17 -1 -47 -1q-2 0 -2 6t2 6q28 0 41.5 5t20 19t12.5 45l40 230h-261l-41 -230q-4 -19 -4 -34q0 -21 11.5 -28
t41.5 -7q3 0 3 -6t-3 -6q-29 0 -46 1l-67 1l-64 -1q-16 -1 -45 -1q-3 0 -3 6t3 6q28 0 41.5 5t20.5 19t13 45l82 463q4 26 4 32q0 21 -12 29t-42 8q-2 0 -2 6t2 6l45 -1q40 -2 64 -2t66 2l47 1q2 0 2 -6t-2 -6q-27 0 -41 -6t-21 -20.5t-12 -44.5l-36 -203h261l36 203
q3 20 3 33q0 22 -11 30t-40 8q-3 0 -3 6t3 6l45 -1q40 -2 65 -2t65 2l46 1q2 0 2 -6zM398 -88q4 0 8 -2t3 -4q-22 -49 -59 -76t-74 -27q-42 0 -70 25t-28 72q0 6 24 11t44 5q15 0 15 -3q3 -25 21 -38.5t42 -13.5q19 0 37.5 12t30.5 36q3 3 6 3z" />
    <glyph glyph-name="Hcircumflex" unicode="&#x124;" horiz-adv-x="675" 
d="M319 660q-3 0 -5 2.5t0 4.5l116 115q5 5 9 5q6 0 9 -5l83 -115l1 -2q0 -2 -3 -4t-5 -1l-94 38l-110 -38h-1zM704 619q0 -6 -2 -6q-27 0 -40.5 -5.5t-20.5 -19.5t-13 -44l-82 -463q-3 -19 -3 -32q0 -22 11.5 -29.5t41.5 -7.5q3 0 3 -6t-3 -6q-25 0 -41 1l-68 1l-66 -1
q-17 -1 -47 -1q-2 0 -2 6t2 6q28 0 41.5 5t20 19t12.5 45l40 230h-261l-41 -230q-4 -19 -4 -34q0 -21 11.5 -28t41.5 -7q3 0 3 -6t-3 -6q-29 0 -46 1l-67 1l-64 -1q-16 -1 -45 -1q-3 0 -3 6t3 6q28 0 41.5 5t20.5 19t13 45l82 463q4 26 4 32q0 21 -12 29t-42 8q-2 0 -2 6
t2 6l45 -1q40 -2 64 -2t66 2l47 1q2 0 2 -6t-2 -6q-27 0 -41 -6t-21 -20.5t-12 -44.5l-36 -203h261l36 203q3 20 3 33q0 22 -11 30t-40 8q-3 0 -3 6t3 6l45 -1q40 -2 65 -2t65 2l46 1q2 0 2 -6z" />
    <glyph glyph-name="uni1E24" unicode="&#x1e24;" horiz-adv-x="675" 
d="M704 619q0 -6 -2 -6q-27 0 -40.5 -5.5t-20.5 -19.5t-13 -44l-82 -463q-3 -19 -3 -32q0 -22 11.5 -29.5t41.5 -7.5q3 0 3 -6t-3 -6q-25 0 -41 1l-68 1l-66 -1q-17 -1 -47 -1q-2 0 -2 6t2 6q28 0 41.5 5t20 19t12.5 45l40 230h-261l-41 -230q-4 -19 -4 -34q0 -21 11.5 -28
t41.5 -7q3 0 3 -6t-3 -6q-29 0 -46 1l-67 1l-64 -1q-16 -1 -45 -1q-3 0 -3 6t3 6q28 0 41.5 5t20.5 19t13 45l82 463q4 26 4 32q0 21 -12 29t-42 8q-2 0 -2 6t2 6l45 -1q40 -2 64 -2t66 2l47 1q2 0 2 -6t-2 -6q-27 0 -41 -6t-21 -20.5t-12 -44.5l-36 -203h261l36 203
q3 20 3 33q0 22 -11 30t-40 8q-3 0 -3 6t3 6l45 -1q40 -2 65 -2t65 2l46 1q2 0 2 -6zM333.5 -106q14.5 -15 14.5 -39q0 -28 -14.5 -43t-40.5 -15t-41.5 15t-15.5 43q0 24 15.5 39t41.5 15t40.5 -15z" />
    <glyph glyph-name="I" unicode="I" horiz-adv-x="336" 
d="M22 6q0 6 3 6q27 0 40.5 5t20.5 19t12 45l82 463q4 17 4 33q0 21 -12 28.5t-42 7.5q-3 0 -3 6t3 6l46 -1q40 -2 64 -2q30 0 70 2l43 1q3 0 3 -6t-3 -6q-27 0 -41 -6t-20.5 -20t-11.5 -45l-82 -461q-4 -19 -4 -34q0 -21 12 -28t42 -7q2 0 2 -6t-2 -6q-28 0 -45 1l-67 1
l-65 -1q-17 -1 -46 -1q-3 0 -3 6z" />
    <glyph glyph-name="IJ" unicode="&#x132;" horiz-adv-x="619" 
d="M39 275q0 6 4 6q30 0 44 5t21 19t12 45l34 194q4 19 4 34q0 21 -12 28t-44 7q-4 0 -4 6t4 6l50 -1q42 -2 67 -2q28 0 70 2l47 1q5 0 5 -6t-5 -6q-30 0 -44.5 -6t-21.5 -20t-13 -45l-34 -192q-4 -28 -4 -33q0 -22 12 -29t45 -7q4 0 4 -6t-4 -6q-30 0 -47 1l-70 1l-66 -1
q-18 -1 -50 -1q-4 0 -4 6zM175 5.5q-46 19.5 -72 51t-26 66.5q0 30 15.5 49t46.5 19q32 0 40.5 -19.5t9.5 -59.5q1 -34 6 -55t24 -35.5t58 -14.5q69 0 109 48.5t56 144.5l61 344q3 18 3 31q0 23 -14 30.5t-52 7.5q-4 0 -4 6t4 6l55 -1q46 -2 71 -2t65 2l43 1q3 0 3 -6t-3 -6
q-26 0 -39 -6t-19 -20.5t-11 -44.5l-49 -284q-23 -130 -98 -201t-181 -71q-56 0 -102 19.5z" />
    <glyph glyph-name="Iacute" unicode="&#xcd;" horiz-adv-x="336" 
d="M189 678q-4 0 -5 4.5t2 6.5q30 22 84 69q39 33 41 35q6 5 36.5 -3.5t54 -20t11.5 -13.5q-62 -15 -113.5 -33.5t-108.5 -43.5zM22 6q0 6 3 6q27 0 40.5 5t20.5 19t12 45l82 463q4 17 4 33q0 21 -12 28.5t-42 7.5q-3 0 -3 6t3 6l46 -1q40 -2 64 -2q30 0 70 2l43 1q3 0 3 -6
t-3 -6q-27 0 -41 -6t-20.5 -20t-11.5 -45l-82 -461q-4 -19 -4 -34q0 -21 12 -28t42 -7q2 0 2 -6t-2 -6q-28 0 -45 1l-67 1l-65 -1q-17 -1 -46 -1q-3 0 -3 6z" />
    <glyph glyph-name="Ibreve" unicode="&#x12c;" horiz-adv-x="336" 
d="M180 690q-28 25 -28 72q0 6 24 11t44 5q15 0 15 -3q3 -25 21 -38.5t42 -13.5q19 0 37.5 12t30.5 36q3 3 6 3q4 0 8 -2t3 -4q-22 -49 -59 -76t-74 -27q-42 0 -70 25zM22 6q0 6 3 6q27 0 40.5 5t20.5 19t12 45l82 463q4 17 4 33q0 21 -12 28.5t-42 7.5q-3 0 -3 6t3 6l46 -1
q40 -2 64 -2q30 0 70 2l43 1q3 0 3 -6t-3 -6q-27 0 -41 -6t-20.5 -20t-11.5 -45l-82 -461q-4 -19 -4 -34q0 -21 12 -28t42 -7q2 0 2 -6t-2 -6q-28 0 -45 1l-67 1l-65 -1q-17 -1 -46 -1q-3 0 -3 6z" />
    <glyph glyph-name="uni01CF" unicode="&#x1cf;" horiz-adv-x="336" 
d="M156 791v1q0 2 3 4.5t5 1.5l94 -39l110 39q2 1 5.5 -2.5t0.5 -4.5l-116 -116q-4 -4 -10 -4q-5 0 -8 4zM22 6q0 6 3 6q27 0 40.5 5t20.5 19t12 45l82 463q4 17 4 33q0 21 -12 28.5t-42 7.5q-3 0 -3 6t3 6l46 -1q40 -2 64 -2q30 0 70 2l43 1q3 0 3 -6t-3 -6q-27 0 -41 -6
t-20.5 -20t-11.5 -45l-82 -461q-4 -19 -4 -34q0 -21 12 -28t42 -7q2 0 2 -6t-2 -6q-28 0 -45 1l-67 1l-65 -1q-17 -1 -46 -1q-3 0 -3 6z" />
    <glyph glyph-name="Icircumflex" unicode="&#xce;" horiz-adv-x="336" 
d="M146 660q-3 0 -5 2.5t0 4.5l116 115q5 5 9 5q6 0 9 -5l83 -115l1 -2q0 -2 -3 -4t-5 -1l-94 38l-110 -38h-1zM22 6q0 6 3 6q27 0 40.5 5t20.5 19t12 45l82 463q4 17 4 33q0 21 -12 28.5t-42 7.5q-3 0 -3 6t3 6l46 -1q40 -2 64 -2q30 0 70 2l43 1q3 0 3 -6t-3 -6
q-27 0 -41 -6t-20.5 -20t-11.5 -45l-82 -461q-4 -19 -4 -34q0 -21 12 -28t42 -7q2 0 2 -6t-2 -6q-28 0 -45 1l-67 1l-65 -1q-17 -1 -46 -1q-3 0 -3 6z" />
    <glyph glyph-name="Idieresis" unicode="&#xcf;" horiz-adv-x="336" 
d="M150 717.5q-15 14.5 -15 40.5q0 24 15 38t40 14q24 0 37.5 -14t13.5 -38q0 -26 -13 -40.5t-38 -14.5t-40 14.5zM304.5 717.5q-13.5 14.5 -13.5 40.5q0 24 13.5 37.5t38.5 13.5q24 0 37.5 -13.5t13.5 -37.5q0 -26 -13.5 -40.5t-37.5 -14.5q-25 0 -38.5 14.5zM22 6q0 6 3 6
q27 0 40.5 5t20.5 19t12 45l82 463q4 17 4 33q0 21 -12 28.5t-42 7.5q-3 0 -3 6t3 6l46 -1q40 -2 64 -2q30 0 70 2l43 1q3 0 3 -6t-3 -6q-27 0 -41 -6t-20.5 -20t-11.5 -45l-82 -461q-4 -19 -4 -34q0 -21 12 -28t42 -7q2 0 2 -6t-2 -6q-28 0 -45 1l-67 1l-65 -1
q-17 -1 -46 -1q-3 0 -3 6z" />
    <glyph glyph-name="Idotaccent" unicode="&#x130;" horiz-adv-x="336" 
d="M224.5 728.5q-15.5 15.5 -15.5 42.5q0 25 15.5 39.5t41.5 14.5t40.5 -14.5t14.5 -39.5q0 -27 -14.5 -42.5t-40.5 -15.5t-41.5 15.5zM22 6q0 6 3 6q27 0 40.5 5t20.5 19t12 45l82 463q4 17 4 33q0 21 -12 28.5t-42 7.5q-3 0 -3 6t3 6l46 -1q40 -2 64 -2q30 0 70 2l43 1
q3 0 3 -6t-3 -6q-27 0 -41 -6t-20.5 -20t-11.5 -45l-82 -461q-4 -19 -4 -34q0 -21 12 -28t42 -7q2 0 2 -6t-2 -6q-28 0 -45 1l-67 1l-65 -1q-17 -1 -46 -1q-3 0 -3 6z" />
    <glyph glyph-name="uni1ECA" unicode="&#x1eca;" horiz-adv-x="336" 
d="M22 6q0 6 3 6q27 0 40.5 5t20.5 19t12 45l82 463q4 17 4 33q0 21 -12 28.5t-42 7.5q-3 0 -3 6t3 6l46 -1q40 -2 64 -2q30 0 70 2l43 1q3 0 3 -6t-3 -6q-27 0 -41 -6t-20.5 -20t-11.5 -45l-82 -461q-4 -19 -4 -34q0 -21 12 -28t42 -7q2 0 2 -6t-2 -6q-28 0 -45 1l-67 1
l-65 -1q-17 -1 -46 -1q-3 0 -3 6zM71.5 -188q-15.5 15 -15.5 43q0 24 15.5 39t41.5 15t40.5 -15t14.5 -39q0 -28 -14.5 -43t-40.5 -15t-41.5 15z" />
    <glyph glyph-name="Igrave" unicode="&#xcc;" horiz-adv-x="336" 
d="M242.5 724.5q-38.5 12.5 -102.5 31.5q-12 3 7 12.5t49.5 17.5t45.5 8q7 0 9 -2q25 -28 54 -55l37 -36q1 -1 1 -3q0 -3 -3.5 -5t-7.5 -1q-51 20 -89.5 32.5zM22 6q0 6 3 6q27 0 40.5 5t20.5 19t12 45l82 463q4 17 4 33q0 21 -12 28.5t-42 7.5q-3 0 -3 6t3 6l46 -1
q40 -2 64 -2q30 0 70 2l43 1q3 0 3 -6t-3 -6q-27 0 -41 -6t-20.5 -20t-11.5 -45l-82 -461q-4 -19 -4 -34q0 -21 12 -28t42 -7q2 0 2 -6t-2 -6q-28 0 -45 1l-67 1l-65 -1q-17 -1 -46 -1q-3 0 -3 6z" />
    <glyph glyph-name="uni1EC8" unicode="&#x1ec8;" horiz-adv-x="336" 
d="M244.5 650.5q-5.5 -0.5 -6.5 2.5q-2 16 -2 22q0 16 3.5 28.5t10.5 32.5q7 17 10.5 29t3.5 26q0 35 -28 35q-14 0 -36 -10h-2q-3 0 -5.5 3t0.5 6q36 28 82 28q32 0 51 -14t19 -39q0 -21 -13 -38.5t-39 -43.5q-22 -22 -32.5 -36t-10.5 -29q0 -2 -5.5 -2.5zM22 6q0 6 3 6
q27 0 40.5 5t20.5 19t12 45l82 463q4 17 4 33q0 21 -12 28.5t-42 7.5q-3 0 -3 6t3 6l46 -1q40 -2 64 -2q30 0 70 2l43 1q3 0 3 -6t-3 -6q-27 0 -41 -6t-20.5 -20t-11.5 -45l-82 -461q-4 -19 -4 -34q0 -21 12 -28t42 -7q2 0 2 -6t-2 -6q-28 0 -45 1l-67 1l-65 -1
q-17 -1 -46 -1q-3 0 -3 6z" />
    <glyph glyph-name="Imacron" unicode="&#x12a;" horiz-adv-x="336" 
d="M144 718q-3 6 -3 14t3 14t7 6h228q5 0 8 -6t3 -14t-3 -14t-8 -6h-228q-4 0 -7 6zM22 6q0 6 3 6q27 0 40.5 5t20.5 19t12 45l82 463q4 17 4 33q0 21 -12 28.5t-42 7.5q-3 0 -3 6t3 6l46 -1q40 -2 64 -2q30 0 70 2l43 1q3 0 3 -6t-3 -6q-27 0 -41 -6t-20.5 -20t-11.5 -45
l-82 -461q-4 -19 -4 -34q0 -21 12 -28t42 -7q2 0 2 -6t-2 -6q-28 0 -45 1l-67 1l-65 -1q-17 -1 -46 -1q-3 0 -3 6z" />
    <glyph glyph-name="Iogonek" unicode="&#x12e;" horiz-adv-x="336" 
d="M356 619q0 -6 -3 -6q-27 0 -41 -6t-20.5 -20t-11.5 -45l-82 -461q-4 -19 -4 -34q0 -21 12 -28t42 -7q2 0 2 -6t-2 -6q-25 0 -39 1l-57 1q-20 -41 -31 -73t-14 -67q-2 -16 -2 -24q0 -30 11.5 -48.5t33.5 -18.5q23 0 40 17l1 1q3 0 5.5 -4t0.5 -6q-29 -29 -54 -41.5
t-53 -12.5q-34 0 -54 23t-20 59q0 7 2 23q6 42 34.5 81.5t80.5 90.5l-63 -1q-17 -1 -45 -1q-3 0 -3 6t3 6q27 0 40.5 5t20.5 19t12 45l82 463q4 17 4 33q0 21 -12 28.5t-42 7.5q-3 0 -3 6t3 6l46 -1q40 -2 64 -2q30 0 70 2l43 1q3 0 3 -6z" />
    <glyph glyph-name="Itilde" unicode="&#x128;" horiz-adv-x="336" 
d="M123 686q-2 0 -4.5 2.5t-1.5 4.5q22 34 46 57.5t53 23.5q11 0 47 -10q18 -6 38 -10.5t36 -4.5q21 0 34.5 6t28.5 21q0 1 2 1t4 -3t1 -5q-30 -48 -49.5 -64t-45.5 -16q-19 0 -56 11q-17 5 -35 9t-34 4q-24 0 -34 -5t-29 -22h-1zM22 6q0 6 3 6q27 0 40.5 5t20.5 19t12 45
l82 463q4 17 4 33q0 21 -12 28.5t-42 7.5q-3 0 -3 6t3 6l46 -1q40 -2 64 -2q30 0 70 2l43 1q3 0 3 -6t-3 -6q-27 0 -41 -6t-20.5 -20t-11.5 -45l-82 -461q-4 -19 -4 -34q0 -21 12 -28t42 -7q2 0 2 -6t-2 -6q-28 0 -45 1l-67 1l-65 -1q-17 -1 -46 -1q-3 0 -3 6z" />
    <glyph glyph-name="J" unicode="J" horiz-adv-x="317" 
d="M-30 -189q-3 5 0 7q45 27 71 81t42 141l89 504q3 20 3 32q0 22 -11.5 29.5t-41.5 7.5q-3 0 -3 6t3 6l45 -1q40 -2 65 -2q29 0 69 2l44 1q3 0 3 -6t-3 -6q-27 0 -41 -6t-20.5 -20t-12.5 -45l-84 -475q-14 -78 -39.5 -126.5t-66 -78.5t-106.5 -55q-2 -1 -5 4z" />
    <glyph glyph-name="Jcircumflex" unicode="&#x134;" horiz-adv-x="317" 
d="M142 660q-3 0 -5 2.5t0 4.5l116 115q5 5 9 5q6 0 9 -5l83 -115l1 -2q0 -2 -3 -4t-5 -1l-94 38l-110 -38h-1zM-30 -189q-3 5 0 7q45 27 71 81t42 141l89 504q3 20 3 32q0 22 -11.5 29.5t-41.5 7.5q-3 0 -3 6t3 6l45 -1q40 -2 65 -2q29 0 69 2l44 1q3 0 3 -6t-3 -6
q-27 0 -41 -6t-20.5 -20t-12.5 -45l-84 -475q-14 -78 -39.5 -126.5t-66 -78.5t-106.5 -55q-2 -1 -5 4z" />
    <glyph glyph-name="K" unicode="K" horiz-adv-x="625" 
d="M661 619q0 -6 -3 -6q-40 0 -92.5 -25.5t-101.5 -69.5l-121 -112l94 -190q51 -101 73 -139.5t38 -51.5t41 -13q3 0 3 -6t-3 -6h-94q-53 0 -65.5 6t-33.5 58.5t-43 95.5l-87 175l-42 -39l-38 -215q-6 -36 -6 -42q0 -16 11 -21.5t44 -5.5q3 0 3 -6t-3 -6q-30 0 -45 1l-68 1
l-64 -1q-16 -1 -45 -1q-3 0 -3 6t3 6q28 0 41.5 5t20.5 19t13 45l82 463q4 26 4 33q0 21 -12 28.5t-42 7.5q-2 0 -2 6t2 6l45 -1q40 -2 64 -2t66 2l47 1q2 0 2 -6t-2 -6q-27 0 -41 -6t-21 -20.5t-12 -44.5l-38 -214l209 196q16 14 24 29t8 28q0 15 -10.5 23.5t-30.5 8.5
q-2 0 -2 6t2 6l49 -1q52 -2 81 -2q30 0 64 2l34 1q3 0 3 -6z" />
    <glyph glyph-name="uni1E30" unicode="&#x1e30;" horiz-adv-x="625" 
d="M341 678q-4 0 -5 4.5t2 6.5q30 22 84 69q39 33 41 35q6 5 36.5 -3.5t54 -20t11.5 -13.5q-62 -15 -113.5 -33.5t-108.5 -43.5zM661 619q0 -6 -3 -6q-40 0 -92.5 -25.5t-101.5 -69.5l-121 -112l94 -190q51 -101 73 -139.5t38 -51.5t41 -13q3 0 3 -6t-3 -6h-94
q-53 0 -65.5 6t-33.5 58.5t-43 95.5l-87 175l-42 -39l-38 -215q-6 -36 -6 -42q0 -16 11 -21.5t44 -5.5q3 0 3 -6t-3 -6q-30 0 -45 1l-68 1l-64 -1q-16 -1 -45 -1q-3 0 -3 6t3 6q28 0 41.5 5t20.5 19t13 45l82 463q4 26 4 33q0 21 -12 28.5t-42 7.5q-2 0 -2 6t2 6l45 -1
q40 -2 64 -2t66 2l47 1q2 0 2 -6t-2 -6q-27 0 -41 -6t-21 -20.5t-12 -44.5l-38 -214l209 196q16 14 24 29t8 28q0 15 -10.5 23.5t-30.5 8.5q-2 0 -2 6t2 6l49 -1q52 -2 81 -2q30 0 64 2l34 1q3 0 3 -6z" />
    <glyph glyph-name="uni01E8" unicode="&#x1e8;" horiz-adv-x="625" 
d="M308 791v1q0 2 3 4.5t5 1.5l94 -39l110 39q2 1 5.5 -2.5t0.5 -4.5l-116 -116q-4 -4 -10 -4q-5 0 -8 4zM661 619q0 -6 -3 -6q-40 0 -92.5 -25.5t-101.5 -69.5l-121 -112l94 -190q51 -101 73 -139.5t38 -51.5t41 -13q3 0 3 -6t-3 -6h-94q-53 0 -65.5 6t-33.5 58.5t-43 95.5
l-87 175l-42 -39l-38 -215q-6 -36 -6 -42q0 -16 11 -21.5t44 -5.5q3 0 3 -6t-3 -6q-30 0 -45 1l-68 1l-64 -1q-16 -1 -45 -1q-3 0 -3 6t3 6q28 0 41.5 5t20.5 19t13 45l82 463q4 26 4 33q0 21 -12 28.5t-42 7.5q-2 0 -2 6t2 6l45 -1q40 -2 64 -2t66 2l47 1q2 0 2 -6t-2 -6
q-27 0 -41 -6t-21 -20.5t-12 -44.5l-38 -214l209 196q16 14 24 29t8 28q0 15 -10.5 23.5t-30.5 8.5q-2 0 -2 6t2 6l49 -1q52 -2 81 -2q30 0 64 2l34 1q3 0 3 -6z" />
    <glyph glyph-name="Kcommaaccent" unicode="&#x136;" horiz-adv-x="625" 
d="M661 619q0 -6 -3 -6q-40 0 -92.5 -25.5t-101.5 -69.5l-121 -112l94 -190q51 -101 73 -139.5t38 -51.5t41 -13q3 0 3 -6t-3 -6h-94q-53 0 -65.5 6t-33.5 58.5t-43 95.5l-87 175l-42 -39l-38 -215q-6 -36 -6 -42q0 -16 11 -21.5t44 -5.5q3 0 3 -6t-3 -6q-30 0 -45 1l-68 1
l-64 -1q-16 -1 -45 -1q-3 0 -3 6t3 6q28 0 41.5 5t20.5 19t13 45l82 463q4 26 4 33q0 21 -12 28.5t-42 7.5q-2 0 -2 6t2 6l45 -1q40 -2 64 -2t66 2l47 1q2 0 2 -6t-2 -6q-27 0 -41 -6t-21 -20.5t-12 -44.5l-38 -214l209 196q16 14 24 29t8 28q0 15 -10.5 23.5t-30.5 8.5
q-2 0 -2 6t2 6l49 -1q52 -2 81 -2q30 0 64 2l34 1q3 0 3 -6zM327.5 -86q14.5 -17 14.5 -45q0 -44 -28 -81.5t-73 -62.5l-2 -1q-4 0 -6 4.5t1 6.5q52 31 59 67q2 8 2 20q-7 -3 -19 -3q-26 0 -39.5 16.5t-13.5 38.5q0 24 16 40.5t45 16.5t43.5 -17z" />
    <glyph glyph-name="L" unicode="L" horiz-adv-x="505" 
d="M12 6q0 6 2 6q28 0 41.5 5t20 19t12.5 45l82 463q4 26 4 33q0 21 -12 28.5t-42 7.5q-2 0 -2 6t2 6l45 -1q40 -2 64 -2t66 2l47 1q2 0 2 -6t-2 -6q-28 0 -41.5 -5.5t-20.5 -20t-12 -44.5l-81 -458q-3 -19 -3 -32q0 -19 8.5 -25.5t30.5 -6.5h26q74 0 130 36.5t101 113.5
q1 1 4 1q8 0 7 -4q-25 -93 -35 -153q-2 -8 -5.5 -11.5t-10.5 -3.5h-426q-2 0 -2 6z" />
    <glyph glyph-name="Lacute" unicode="&#x139;" horiz-adv-x="505" 
d="M178 678q-4 0 -5 4.5t2 6.5q30 22 84 69q39 33 41 35q6 5 36.5 -3.5t54 -20t11.5 -13.5q-62 -15 -113.5 -33.5t-108.5 -43.5zM12 6q0 6 2 6q28 0 41.5 5t20 19t12.5 45l82 463q4 26 4 33q0 21 -12 28.5t-42 7.5q-2 0 -2 6t2 6l45 -1q40 -2 64 -2t66 2l47 1q2 0 2 -6
t-2 -6q-28 0 -41.5 -5.5t-20.5 -20t-12 -44.5l-81 -458q-3 -19 -3 -32q0 -19 8.5 -25.5t30.5 -6.5h26q74 0 130 36.5t101 113.5q1 1 4 1q8 0 7 -4q-25 -93 -35 -153q-2 -8 -5.5 -11.5t-10.5 -3.5h-426q-2 0 -2 6z" />
    <glyph glyph-name="Lcaron" unicode="&#x13d;" horiz-adv-x="505" 
d="M438 625q2 5 18.5 -4.5t30.5 -22.5t12 -18l-91 -227q-1 -2 -6 -2t-5 2zM12 6q0 6 2 6q28 0 41.5 5t20 19t12.5 45l82 463q4 26 4 33q0 21 -12 28.5t-42 7.5q-2 0 -2 6t2 6l45 -1q40 -2 64 -2t66 2l47 1q2 0 2 -6t-2 -6q-28 0 -41.5 -5.5t-20.5 -20t-12 -44.5l-81 -458
q-3 -19 -3 -32q0 -19 8.5 -25.5t30.5 -6.5h26q74 0 130 36.5t101 113.5q1 1 4 1q8 0 7 -4q-25 -93 -35 -153q-2 -8 -5.5 -11.5t-10.5 -3.5h-426q-2 0 -2 6z" />
    <glyph glyph-name="Lcommaaccent" unicode="&#x13b;" horiz-adv-x="505" 
d="M484 172q8 0 7 -4q-25 -93 -35 -153q-2 -8 -5.5 -11.5t-10.5 -3.5h-426q-2 0 -2 6t2 6q28 0 41.5 5t20 19t12.5 45l82 463q4 26 4 33q0 21 -12 28.5t-42 7.5q-2 0 -2 6t2 6l45 -1q40 -2 64 -2t66 2l47 1q2 0 2 -6t-2 -6q-28 0 -41.5 -5.5t-20.5 -20t-12 -44.5l-81 -458
q-3 -19 -3 -32q0 -19 8.5 -25.5t30.5 -6.5h26q74 0 130 36.5t101 113.5q1 1 4 1zM284.5 -86q14.5 -17 14.5 -45q0 -44 -28 -81.5t-73 -62.5l-2 -1q-4 0 -6 4.5t1 6.5q52 31 59 67q2 8 2 20q-7 -3 -19 -3q-26 0 -39.5 16.5t-13.5 38.5q0 24 16 40.5t45 16.5t43.5 -17z" />
    <glyph glyph-name="Ldot" unicode="&#x13f;" horiz-adv-x="505" 
d="M12 6q0 6 2 6q28 0 41.5 5t20 19t12.5 45l82 463q4 26 4 33q0 21 -12 28.5t-42 7.5q-2 0 -2 6t2 6l45 -1q40 -2 64 -2t66 2l47 1q2 0 2 -6t-2 -6q-28 0 -41.5 -5.5t-20.5 -20t-12 -44.5l-81 -458q-3 -19 -3 -32q0 -19 8.5 -25.5t30.5 -6.5h26q74 0 130 36.5t101 113.5
q1 1 4 1q8 0 7 -4q-25 -93 -35 -153q-2 -8 -5.5 -11.5t-10.5 -3.5h-426q-2 0 -2 6zM401.5 284q-15.5 15 -15.5 42q0 25 15.5 39.5t41.5 14.5t40.5 -14.5t14.5 -39.5q0 -27 -14.5 -42t-40.5 -15t-41.5 15z" />
    <glyph glyph-name="uni1E36" unicode="&#x1e36;" horiz-adv-x="505" 
d="M12 6q0 6 2 6q28 0 41.5 5t20 19t12.5 45l82 463q4 26 4 33q0 21 -12 28.5t-42 7.5q-2 0 -2 6t2 6l45 -1q40 -2 64 -2t66 2l47 1q2 0 2 -6t-2 -6q-28 0 -41.5 -5.5t-20.5 -20t-12 -44.5l-81 -458q-3 -19 -3 -32q0 -19 8.5 -25.5t30.5 -6.5h26q74 0 130 36.5t101 113.5
q1 1 4 1q8 0 7 -4q-25 -93 -35 -153q-2 -8 -5.5 -11.5t-10.5 -3.5h-426q-2 0 -2 6zM197.5 -188q-15.5 15 -15.5 43q0 24 15.5 39t41.5 15t40.5 -15t14.5 -39q0 -28 -14.5 -43t-40.5 -15t-41.5 15z" />
    <glyph glyph-name="uni1E38" unicode="&#x1e38;" horiz-adv-x="505" 
d="M97 718.5q-3 5.5 -3 13.5q0 7 3 12.5t7 5.5h251q5 0 8 -5.5t3 -12.5q0 -8 -3 -13.5t-8 -5.5h-251q-4 0 -7 5.5zM12 6q0 6 2 6q28 0 41.5 5t20 19t12.5 45l82 463q4 26 4 33q0 21 -12 28.5t-42 7.5q-2 0 -2 6t2 6l45 -1q40 -2 64 -2t66 2l47 1q2 0 2 -6t-2 -6
q-28 0 -41.5 -5.5t-20.5 -20t-12 -44.5l-81 -458q-3 -19 -3 -32q0 -19 8.5 -25.5t30.5 -6.5h26q74 0 130 36.5t101 113.5q1 1 4 1q8 0 7 -4q-25 -93 -35 -153q-2 -8 -5.5 -11.5t-10.5 -3.5h-426q-2 0 -2 6zM197.5 -188q-15.5 15 -15.5 43q0 24 15.5 39t41.5 15t40.5 -15
t14.5 -39q0 -28 -14.5 -43t-40.5 -15t-41.5 15z" />
    <glyph glyph-name="uni1E3A" unicode="&#x1e3a;" horiz-adv-x="505" 
d="M12 6q0 6 2 6q28 0 41.5 5t20 19t12.5 45l82 463q4 26 4 33q0 21 -12 28.5t-42 7.5q-2 0 -2 6t2 6l45 -1q40 -2 64 -2t66 2l47 1q2 0 2 -6t-2 -6q-28 0 -41.5 -5.5t-20.5 -20t-12 -44.5l-81 -458q-3 -19 -3 -32q0 -19 8.5 -25.5t30.5 -6.5h26q74 0 130 36.5t101 113.5
q1 1 4 1q8 0 7 -4q-25 -93 -35 -153q-2 -8 -5.5 -11.5t-10.5 -3.5h-426q-2 0 -2 6zM134 -117q-3 6 -3 14t3 14t7 6h228q5 0 8 -6t3 -14t-3 -14t-8 -6h-228q-4 0 -7 6z" />
    <glyph glyph-name="Lslash" unicode="&#x141;" horiz-adv-x="505" 
d="M484 172q8 0 7 -4q-25 -93 -35 -153q-2 -8 -5.5 -11.5t-10.5 -3.5h-426q-2 0 -2 6t2 6q28 0 41.5 5t20 19t12.5 45l33 186l-47 -27h-1q-4 0 -8 7.5t-1 8.5l61 35l45 253q4 26 4 33q0 21 -12 28.5t-42 7.5q-2 0 -2 6t2 6l45 -1q40 -2 64 -2t66 2l47 1q2 0 2 -6t-2 -6
q-28 0 -41.5 -5.5t-20.5 -20t-12 -44.5l-33 -189l48 28h1q4 0 8 -7.5t0 -8.5l-62 -36l-43 -245q-3 -19 -3 -32q0 -19 8.5 -25.5t30.5 -6.5h26q74 0 130 36.5t101 113.5q1 1 4 1z" />
    <glyph glyph-name="M" unicode="M" horiz-adv-x="742" 
d="M772 619q0 -6 -2 -6q-32 0 -47 -13.5t-21 -53.5l-69 -465q-3 -18 -3 -31q0 -23 11.5 -30.5t41.5 -7.5q3 0 3 -6t-3 -6q-28 0 -45 1l-66 1l-65 -1q-17 -1 -46 -1q-3 0 -3 6t3 6q28 0 42 5t20.5 19t11.5 45l71 476l-271 -550q-2 -4 -7 -4q-6 0 -8 5l-110 525l-73 -403
q-4 -20 -4 -41q0 -37 14.5 -57t41.5 -20q3 0 3 -6t-3 -6q-23 0 -36 1l-54 1l-47 -1q-13 -1 -39 -1q-3 0 -3 6t3 6q34 0 60 31t36 84l84 451q-22 35 -71 35q-3 0 -3 6t3 6q15 0 24 -1l40 -1l59 1q11 1 25 1q11 0 17.5 -10t13.5 -42l87 -413l214 440q5 11 15 18t22 7
q14 0 23 -1l42 -1l39 1q9 1 27 1q2 0 2 -6z" />
    <glyph glyph-name="uni1E40" unicode="&#x1e40;" horiz-adv-x="742" 
d="M430.5 728.5q-15.5 15.5 -15.5 42.5q0 25 15.5 39.5t41.5 14.5t40.5 -14.5t14.5 -39.5q0 -27 -14.5 -42.5t-40.5 -15.5t-41.5 15.5zM772 619q0 -6 -2 -6q-32 0 -47 -13.5t-21 -53.5l-69 -465q-3 -18 -3 -31q0 -23 11.5 -30.5t41.5 -7.5q3 0 3 -6t-3 -6q-28 0 -45 1l-66 1
l-65 -1q-17 -1 -46 -1q-3 0 -3 6t3 6q28 0 42 5t20.5 19t11.5 45l71 476l-271 -550q-2 -4 -7 -4q-6 0 -8 5l-110 525l-73 -403q-4 -20 -4 -41q0 -37 14.5 -57t41.5 -20q3 0 3 -6t-3 -6q-23 0 -36 1l-54 1l-47 -1q-13 -1 -39 -1q-3 0 -3 6t3 6q34 0 60 31t36 84l84 451
q-22 35 -71 35q-3 0 -3 6t3 6q15 0 24 -1l40 -1l59 1q11 1 25 1q11 0 17.5 -10t13.5 -42l87 -413l214 440q5 11 15 18t22 7q14 0 23 -1l42 -1l39 1q9 1 27 1q2 0 2 -6z" />
    <glyph glyph-name="uni1E42" unicode="&#x1e42;" horiz-adv-x="742" 
d="M772 619q0 -6 -2 -6q-32 0 -47 -13.5t-21 -53.5l-69 -465q-3 -18 -3 -31q0 -23 11.5 -30.5t41.5 -7.5q3 0 3 -6t-3 -6q-28 0 -45 1l-66 1l-65 -1q-17 -1 -46 -1q-3 0 -3 6t3 6q28 0 42 5t20.5 19t11.5 45l71 476l-271 -550q-2 -4 -7 -4q-6 0 -8 5l-110 525l-73 -403
q-4 -20 -4 -41q0 -37 14.5 -57t41.5 -20q3 0 3 -6t-3 -6q-23 0 -36 1l-54 1l-47 -1q-13 -1 -39 -1q-3 0 -3 6t3 6q34 0 60 31t36 84l84 451q-22 35 -71 35q-3 0 -3 6t3 6q15 0 24 -1l40 -1l59 1q11 1 25 1q11 0 17.5 -10t13.5 -42l87 -413l214 440q5 11 15 18t22 7
q14 0 23 -1l42 -1l39 1q9 1 27 1q2 0 2 -6zM355.5 -106q14.5 -15 14.5 -39q0 -28 -14.5 -43t-40.5 -15t-41.5 15t-15.5 43q0 24 15.5 39t41.5 15t40.5 -15z" />
    <glyph glyph-name="N" unicode="N" 
d="M712 619q0 -6 -2 -6q-38 0 -65.5 -28t-36.5 -76l-92 -516q0 -3 -5.5 -5.5t-11.5 -2.5q-9 0 -12 6l-288 526l-72 -401q-2 -10 -2 -28q0 -36 18 -56t50 -20q2 0 2 -6t-2 -6q-26 0 -40 1l-57 1l-54 -1q-15 -1 -44 -1q-3 0 -3 6t3 6q38 0 65.5 28t35.5 76l79 438
q-19 33 -37 46t-39 13q-3 0 -3 6t3 6l47 -1q15 -1 40 -1q24 0 41.5 1t23.5 1t9 -3.5t7 -14.5q2 -4 6.5 -13.5t10.5 -20.5l229 -417l64 353q3 17 3 30q0 35 -18 54.5t-50 19.5q-3 0 -3 6t3 6l36 -1q36 -2 61 -2q18 0 54 2l44 1q2 0 2 -6z" />
    <glyph glyph-name="Nacute" unicode="&#x143;" 
d="M349 678q-4 0 -5 4.5t2 6.5q30 22 84 69q39 33 41 35q6 5 36.5 -3.5t54 -20t11.5 -13.5q-62 -15 -113.5 -33.5t-108.5 -43.5zM712 619q0 -6 -2 -6q-38 0 -65.5 -28t-36.5 -76l-92 -516q0 -3 -5.5 -5.5t-11.5 -2.5q-9 0 -12 6l-288 526l-72 -401q-2 -10 -2 -28
q0 -36 18 -56t50 -20q2 0 2 -6t-2 -6q-26 0 -40 1l-57 1l-54 -1q-15 -1 -44 -1q-3 0 -3 6t3 6q38 0 65.5 28t35.5 76l79 438q-19 33 -37 46t-39 13q-3 0 -3 6t3 6l47 -1q15 -1 40 -1q24 0 41.5 1t23.5 1t9 -3.5t7 -14.5q2 -4 6.5 -13.5t10.5 -20.5l229 -417l64 353
q3 17 3 30q0 35 -18 54.5t-50 19.5q-3 0 -3 6t3 6l36 -1q36 -2 61 -2q18 0 54 2l44 1q2 0 2 -6z" />
    <glyph glyph-name="Ncaron" unicode="&#x147;" 
d="M316 791v1q0 2 3 4.5t5 1.5l94 -39l110 39q2 1 5.5 -2.5t0.5 -4.5l-116 -116q-4 -4 -10 -4q-5 0 -8 4zM712 619q0 -6 -2 -6q-38 0 -65.5 -28t-36.5 -76l-92 -516q0 -3 -5.5 -5.5t-11.5 -2.5q-9 0 -12 6l-288 526l-72 -401q-2 -10 -2 -28q0 -36 18 -56t50 -20q2 0 2 -6
t-2 -6q-26 0 -40 1l-57 1l-54 -1q-15 -1 -44 -1q-3 0 -3 6t3 6q38 0 65.5 28t35.5 76l79 438q-19 33 -37 46t-39 13q-3 0 -3 6t3 6l47 -1q15 -1 40 -1q24 0 41.5 1t23.5 1t9 -3.5t7 -14.5q2 -4 6.5 -13.5t10.5 -20.5l229 -417l64 353q3 17 3 30q0 35 -18 54.5t-50 19.5
q-3 0 -3 6t3 6l36 -1q36 -2 61 -2q18 0 54 2l44 1q2 0 2 -6z" />
    <glyph glyph-name="Ncommaaccent" unicode="&#x145;" 
d="M712 619q0 -6 -2 -6q-38 0 -65.5 -28t-36.5 -76l-92 -516q0 -3 -5.5 -5.5t-11.5 -2.5q-9 0 -12 6l-288 526l-72 -401q-2 -10 -2 -28q0 -36 18 -56t50 -20q2 0 2 -6t-2 -6q-26 0 -40 1l-57 1l-54 -1q-15 -1 -44 -1q-3 0 -3 6t3 6q38 0 65.5 28t35.5 76l79 438
q-19 33 -37 46t-39 13q-3 0 -3 6t3 6l47 -1q15 -1 40 -1q24 0 41.5 1t23.5 1t9 -3.5t7 -14.5q2 -4 6.5 -13.5t10.5 -20.5l229 -417l64 353q3 17 3 30q0 35 -18 54.5t-50 19.5q-3 0 -3 6t3 6l36 -1q36 -2 61 -2q18 0 54 2l44 1q2 0 2 -6zM338.5 -86q14.5 -17 14.5 -45
q0 -44 -28 -81.5t-73 -62.5l-2 -1q-4 0 -6 4.5t1 6.5q52 31 59 67q2 8 2 20q-8 -3 -19 -3q-26 0 -39.5 16.5t-13.5 38.5q0 24 16 40.5t45 16.5t43.5 -17z" />
    <glyph glyph-name="uni1E44" unicode="&#x1e44;" 
d="M384.5 728.5q-15.5 15.5 -15.5 42.5q0 25 15.5 39.5t41.5 14.5t40.5 -14.5t14.5 -39.5q0 -27 -14.5 -42.5t-40.5 -15.5t-41.5 15.5zM712 619q0 -6 -2 -6q-38 0 -65.5 -28t-36.5 -76l-92 -516q0 -3 -5.5 -5.5t-11.5 -2.5q-9 0 -12 6l-288 526l-72 -401q-2 -10 -2 -28
q0 -36 18 -56t50 -20q2 0 2 -6t-2 -6q-26 0 -40 1l-57 1l-54 -1q-15 -1 -44 -1q-3 0 -3 6t3 6q38 0 65.5 28t35.5 76l79 438q-19 33 -37 46t-39 13q-3 0 -3 6t3 6l47 -1q15 -1 40 -1q24 0 41.5 1t23.5 1t9 -3.5t7 -14.5q2 -4 6.5 -13.5t10.5 -20.5l229 -417l64 353
q3 17 3 30q0 35 -18 54.5t-50 19.5q-3 0 -3 6t3 6l36 -1q36 -2 61 -2q18 0 54 2l44 1q2 0 2 -6z" />
    <glyph glyph-name="uni1E46" unicode="&#x1e46;" 
d="M712 619q0 -6 -2 -6q-38 0 -65.5 -28t-36.5 -76l-92 -516q0 -3 -5.5 -5.5t-11.5 -2.5q-9 0 -12 6l-288 526l-72 -401q-2 -10 -2 -28q0 -36 18 -56t50 -20q2 0 2 -6t-2 -6q-26 0 -40 1l-57 1l-54 -1q-15 -1 -44 -1q-3 0 -3 6t3 6q38 0 65.5 28t35.5 76l79 438
q-19 33 -37 46t-39 13q-3 0 -3 6t3 6l47 -1q15 -1 40 -1q24 0 41.5 1t23.5 1t9 -3.5t7 -14.5q2 -4 6.5 -13.5t10.5 -20.5l229 -417l64 353q3 17 3 30q0 35 -18 54.5t-50 19.5q-3 0 -3 6t3 6l36 -1q36 -2 61 -2q18 0 54 2l44 1q2 0 2 -6zM333.5 -106q14.5 -15 14.5 -39
q0 -28 -14.5 -43t-40.5 -15t-41.5 15t-15.5 43q0 24 15.5 39t41.5 15t40.5 -15z" />
    <glyph glyph-name="Eng" unicode="&#x14a;" horiz-adv-x="650" 
d="M712 619q0 -6 -2 -6q-38 0 -65.5 -28t-36.5 -76l-92 -516v-1q-18 -92 -57.5 -137.5t-102.5 -45.5q-42 0 -68.5 18t-26.5 47q0 28 16 42.5t42 14.5q25 0 34 -11t16 -34q5 -18 11.5 -26.5t21.5 -8.5q61 0 85 140l-288 526l-72 -401q-2 -10 -2 -28q0 -36 18 -56t50 -20
q2 0 2 -6t-2 -6q-26 0 -40 1l-57 1l-54 -1q-15 -1 -44 -1q-3 0 -3 6t3 6q38 0 65.5 28t35.5 76l79 438q-19 33 -37 46t-39 13q-3 0 -3 6t3 6l47 -1q15 -1 40 -1q24 0 41.5 1t23.5 1t9 -3.5t7 -14.5q2 -4 6.5 -13.5t10.5 -20.5l229 -417l64 353q3 17 3 30q0 35 -18 54.5
t-50 19.5q-3 0 -3 6t3 6l36 -1q36 -2 61 -2q18 0 54 2l44 1q2 0 2 -6z" />
    <glyph glyph-name="uni1E48" unicode="&#x1e48;" 
d="M712 619q0 -6 -2 -6q-38 0 -65.5 -28t-36.5 -76l-92 -516q0 -3 -5.5 -5.5t-11.5 -2.5q-9 0 -12 6l-288 526l-72 -401q-2 -10 -2 -28q0 -36 18 -56t50 -20q2 0 2 -6t-2 -6q-26 0 -40 1l-57 1l-54 -1q-15 -1 -44 -1q-3 0 -3 6t3 6q38 0 65.5 28t35.5 76l79 438
q-19 33 -37 46t-39 13q-3 0 -3 6t3 6l47 -1q15 -1 40 -1q24 0 41.5 1t23.5 1t9 -3.5t7 -14.5q2 -4 6.5 -13.5t10.5 -20.5l229 -417l64 353q3 17 3 30q0 35 -18 54.5t-50 19.5q-3 0 -3 6t3 6l36 -1q36 -2 61 -2q18 0 54 2l44 1q2 0 2 -6zM431 -89q3 -6 3 -14t-3 -14t-8 -6
h-228q-4 0 -7 6t-3 14t3 14t7 6h228q5 0 8 -6z" />
    <glyph glyph-name="Ntilde" unicode="&#xd1;" 
d="M287 685q-2 0 -4 3t-1 5q22 34 46 57.5t54 23.5q10 0 26 -4.5t21 -5.5q49 -15 73 -15q22 0 35.5 6t28.5 21h1q3 0 5 -2.5t1 -4.5q-30 -49 -49.5 -65t-45.5 -16q-16 0 -56 12q-4 1 -26.5 7t-42.5 6q-23 0 -33.5 -4.5t-19 -12t-11.5 -10.5q0 -1 -2 -1zM712 619q0 -6 -2 -6
q-38 0 -65.5 -28t-36.5 -76l-92 -516q0 -3 -5.5 -5.5t-11.5 -2.5q-9 0 -12 6l-288 526l-72 -401q-2 -10 -2 -28q0 -36 18 -56t50 -20q2 0 2 -6t-2 -6q-26 0 -40 1l-57 1l-54 -1q-15 -1 -44 -1q-3 0 -3 6t3 6q38 0 65.5 28t35.5 76l79 438q-19 33 -37 46t-39 13q-3 0 -3 6
t3 6l47 -1q15 -1 40 -1q24 0 41.5 1t23.5 1t9 -3.5t7 -14.5q2 -4 6.5 -13.5t10.5 -20.5l229 -417l64 353q3 17 3 30q0 35 -18 54.5t-50 19.5q-3 0 -3 6t3 6l36 -1q36 -2 61 -2q18 0 54 2l44 1q2 0 2 -6z" />
    <glyph glyph-name="O" unicode="O" 
d="M158.5 20.5q-51.5 32.5 -78.5 89.5t-27 129q0 30 7 74q16 92 66.5 165.5t125.5 115.5t159 42q72 0 124.5 -32t80.5 -88.5t28 -129.5q0 -38 -7 -73q-17 -98 -71 -172t-129.5 -113.5t-155.5 -39.5q-71 0 -122.5 32.5zM449.5 80.5q54.5 66.5 73.5 179.5q8 44 8 97
q0 111 -42 183t-117 72q-72 0 -126 -66.5t-73 -179.5q-8 -53 -8 -96q0 -110 41.5 -183t117.5 -73q71 0 125.5 66.5z" />
    <glyph glyph-name="Oacute" unicode="&#xd3;" 
d="M347 678q-4 0 -5 4.5t2 6.5q30 22 84 69q39 33 41 35q6 5 36.5 -3.5t54 -20t11.5 -13.5q-62 -15 -113.5 -33.5t-108.5 -43.5zM158.5 20.5q-51.5 32.5 -78.5 89.5t-27 129q0 30 7 74q16 92 66.5 165.5t125.5 115.5t159 42q72 0 124.5 -32t80.5 -88.5t28 -129.5
q0 -38 -7 -73q-17 -98 -71 -172t-129.5 -113.5t-155.5 -39.5q-71 0 -122.5 32.5zM449.5 80.5q54.5 66.5 73.5 179.5q8 44 8 97q0 111 -42 183t-117 72q-72 0 -126 -66.5t-73 -179.5q-8 -53 -8 -96q0 -110 41.5 -183t117.5 -73q71 0 125.5 66.5z" />
    <glyph glyph-name="Obreve" unicode="&#x14e;" 
d="M338 690q-28 25 -28 72q0 6 24 11t44 5q15 0 15 -3q3 -25 21 -38.5t42 -13.5q19 0 37.5 12t30.5 36q3 3 6 3q4 0 8 -2t3 -4q-22 -49 -59 -76t-74 -27q-42 0 -70 25zM158.5 20.5q-51.5 32.5 -78.5 89.5t-27 129q0 30 7 74q16 92 66.5 165.5t125.5 115.5t159 42
q72 0 124.5 -32t80.5 -88.5t28 -129.5q0 -38 -7 -73q-17 -98 -71 -172t-129.5 -113.5t-155.5 -39.5q-71 0 -122.5 32.5zM449.5 80.5q54.5 66.5 73.5 179.5q8 44 8 97q0 111 -42 183t-117 72q-72 0 -126 -66.5t-73 -179.5q-8 -53 -8 -96q0 -110 41.5 -183t117.5 -73
q71 0 125.5 66.5z" />
    <glyph glyph-name="uni01D1" unicode="&#x1d1;" 
d="M314 791v1q0 2 3 4.5t5 1.5l94 -39l110 39q2 1 5.5 -2.5t0.5 -4.5l-116 -116q-4 -4 -10 -4q-5 0 -8 4zM158.5 20.5q-51.5 32.5 -78.5 89.5t-27 129q0 30 7 74q16 92 66.5 165.5t125.5 115.5t159 42q72 0 124.5 -32t80.5 -88.5t28 -129.5q0 -38 -7 -73q-17 -98 -71 -172
t-129.5 -113.5t-155.5 -39.5q-71 0 -122.5 32.5zM449.5 80.5q54.5 66.5 73.5 179.5q8 44 8 97q0 111 -42 183t-117 72q-72 0 -126 -66.5t-73 -179.5q-8 -53 -8 -96q0 -110 41.5 -183t117.5 -73q71 0 125.5 66.5z" />
    <glyph glyph-name="Ocircumflex" unicode="&#xd4;" 
d="M304 660q-3 0 -5 2.5t0 4.5l116 115q5 5 9 5q6 0 9 -5l83 -115l1 -2q0 -2 -3 -4t-5 -1l-94 38l-110 -38h-1zM158.5 20.5q-51.5 32.5 -78.5 89.5t-27 129q0 30 7 74q16 92 66.5 165.5t125.5 115.5t159 42q72 0 124.5 -32t80.5 -88.5t28 -129.5q0 -38 -7 -73
q-17 -98 -71 -172t-129.5 -113.5t-155.5 -39.5q-71 0 -122.5 32.5zM449.5 80.5q54.5 66.5 73.5 179.5q8 44 8 97q0 111 -42 183t-117 72q-72 0 -126 -66.5t-73 -179.5q-8 -53 -8 -96q0 -110 41.5 -183t117.5 -73q71 0 125.5 66.5z" />
    <glyph glyph-name="uni1ED0" unicode="&#x1ed0;" 
d="M487 723q-3 0 -4.5 4.5t0.5 7.5q49 62 76 104q2 3 8 3q14 0 40 -8.5t42 -18t6 -13.5q-85 -29 -166 -78zM303 660q-3 0 -5 2.5t0 4.5l116 115q5 5 9 5q6 0 9 -5l83 -115l1 -2q0 -2 -3 -4t-5 -1l-94 38l-110 -38h-1zM158.5 20.5q-51.5 32.5 -78.5 89.5t-27 129q0 30 7 74
q16 92 66.5 165.5t125.5 115.5t159 42q72 0 124.5 -32t80.5 -88.5t28 -129.5q0 -38 -7 -73q-17 -98 -71 -172t-129.5 -113.5t-155.5 -39.5q-71 0 -122.5 32.5zM449.5 80.5q54.5 66.5 73.5 179.5q8 44 8 97q0 111 -42 183t-117 72q-72 0 -126 -66.5t-73 -179.5q-8 -53 -8 -96
q0 -110 41.5 -183t117.5 -73q71 0 125.5 66.5z" />
    <glyph glyph-name="uni1ED8" unicode="&#x1ed8;" 
d="M304 660q-3 0 -5 2.5t0 4.5l116 115q5 5 9 5q6 0 9 -5l83 -115l1 -2q0 -2 -3 -4t-5 -1l-94 38l-110 -38h-1zM158.5 20.5q-51.5 32.5 -78.5 89.5t-27 129q0 30 7 74q16 92 66.5 165.5t125.5 115.5t159 42q72 0 124.5 -32t80.5 -88.5t28 -129.5q0 -38 -7 -73
q-17 -98 -71 -172t-129.5 -113.5t-155.5 -39.5q-71 0 -122.5 32.5zM449.5 80.5q54.5 66.5 73.5 179.5q8 44 8 97q0 111 -42 183t-117 72q-72 0 -126 -66.5t-73 -179.5q-8 -53 -8 -96q0 -110 41.5 -183t117.5 -73q71 0 125.5 66.5zM244.5 -188q-15.5 15 -15.5 43
q0 24 15.5 39t41.5 15t40.5 -15t14.5 -39q0 -28 -14.5 -43t-40.5 -15t-41.5 15z" />
    <glyph glyph-name="uni1ED2" unicode="&#x1ed2;" 
d="M444 793q-9 4 10 13.5t47.5 18t42.5 8.5q7 0 8 -3q14 -53 37 -104v-1q0 -4 -3 -7.5t-7 -2.5q-61 46 -135 78zM302 660q-3 0 -5 2.5t0 4.5l116 115q5 5 9 5q6 0 9 -5l83 -115l1 -2q0 -2 -3 -4t-5 -1l-94 38l-110 -38h-1zM158.5 20.5q-51.5 32.5 -78.5 89.5t-27 129
q0 30 7 74q16 92 66.5 165.5t125.5 115.5t159 42q72 0 124.5 -32t80.5 -88.5t28 -129.5q0 -38 -7 -73q-17 -98 -71 -172t-129.5 -113.5t-155.5 -39.5q-71 0 -122.5 32.5zM449.5 80.5q54.5 66.5 73.5 179.5q8 44 8 97q0 111 -42 183t-117 72q-72 0 -126 -66.5t-73 -179.5
q-8 -53 -8 -96q0 -110 41.5 -183t117.5 -73q71 0 125.5 66.5z" />
    <glyph glyph-name="uni1ED4" unicode="&#x1ed4;" 
d="M494 740.5q4 10.5 14 28.5q6 10 11 21t5 21q0 12 -7.5 18t-18.5 6q-10 0 -18 -3l-2 -1q-3 0 -4.5 3.5t0.5 5.5q33 18 65 18q22 0 35.5 -10.5t13.5 -26.5t-12 -29t-34 -30q-19 -14 -29 -24t-11 -21q-1 -2 -6 -2.5t-5 2.5q-1 13 3 23.5zM301 660q-3 0 -5 2.5t0 4.5l116 115
q5 5 9 5q6 0 9 -5l83 -115l1 -2q0 -2 -3 -4t-5 -1l-94 38l-110 -38h-1zM158.5 20.5q-51.5 32.5 -78.5 89.5t-27 129q0 30 7 74q16 92 66.5 165.5t125.5 115.5t159 42q72 0 124.5 -32t80.5 -88.5t28 -129.5q0 -38 -7 -73q-17 -98 -71 -172t-129.5 -113.5t-155.5 -39.5
q-71 0 -122.5 32.5zM449.5 80.5q54.5 66.5 73.5 179.5q8 44 8 97q0 111 -42 183t-117 72q-72 0 -126 -66.5t-73 -179.5q-8 -53 -8 -96q0 -110 41.5 -183t117.5 -73q71 0 125.5 66.5z" />
    <glyph glyph-name="uni1ED6" unicode="&#x1ed6;" 
d="M295 795q-2 0 -4.5 2.5t-1.5 4.5q22 34 46 57.5t53 23.5q11 0 47 -10q18 -6 38 -10.5t36 -4.5q21 0 34.5 6t28.5 21q0 1 2 1t4 -3t1 -5q-30 -48 -49.5 -64t-45.5 -16q-19 0 -56 11q-17 5 -35 9t-34 4q-24 0 -34 -5t-29 -22h-1zM296 660q-3 0 -5 2.5t0 4.5l116 115
q5 5 9 5q6 0 9 -5l83 -115l1 -2q0 -2 -3 -4t-5 -1l-94 38l-110 -38h-1zM158.5 20.5q-51.5 32.5 -78.5 89.5t-27 129q0 30 7 74q16 92 66.5 165.5t125.5 115.5t159 42q72 0 124.5 -32t80.5 -88.5t28 -129.5q0 -38 -7 -73q-17 -98 -71 -172t-129.5 -113.5t-155.5 -39.5
q-71 0 -122.5 32.5zM449.5 80.5q54.5 66.5 73.5 179.5q8 44 8 97q0 111 -42 183t-117 72q-72 0 -126 -66.5t-73 -179.5q-8 -53 -8 -96q0 -110 41.5 -183t117.5 -73q71 0 125.5 66.5z" />
    <glyph glyph-name="Odieresis" unicode="&#xd6;" 
d="M303 717.5q-14 14.5 -14 40.5q0 24 14.5 37.5t39.5 13.5q24 0 37.5 -13.5t13.5 -37.5q0 -26 -13.5 -40.5t-37.5 -14.5q-26 0 -40 14.5zM462 717.5q-14 14.5 -14 40.5q0 24 14.5 37.5t39.5 13.5q24 0 37.5 -13.5t13.5 -37.5q0 -26 -13.5 -40.5t-37.5 -14.5q-26 0 -40 14.5
zM158.5 20.5q-51.5 32.5 -78.5 89.5t-27 129q0 30 7 74q16 92 66.5 165.5t125.5 115.5t159 42q72 0 124.5 -32t80.5 -88.5t28 -129.5q0 -38 -7 -73q-17 -98 -71 -172t-129.5 -113.5t-155.5 -39.5q-71 0 -122.5 32.5zM449.5 80.5q54.5 66.5 73.5 179.5q8 44 8 97
q0 111 -42 183t-117 72q-72 0 -126 -66.5t-73 -179.5q-8 -53 -8 -96q0 -110 41.5 -183t117.5 -73q71 0 125.5 66.5z" />
    <glyph glyph-name="uni1ECC" unicode="&#x1ecc;" 
d="M158.5 20.5q-51.5 32.5 -78.5 89.5t-27 129q0 30 7 74q16 92 66.5 165.5t125.5 115.5t159 42q72 0 124.5 -32t80.5 -88.5t28 -129.5q0 -38 -7 -73q-17 -98 -71 -172t-129.5 -113.5t-155.5 -39.5q-71 0 -122.5 32.5zM449.5 80.5q54.5 66.5 73.5 179.5q8 44 8 97
q0 111 -42 183t-117 72q-72 0 -126 -66.5t-73 -179.5q-8 -53 -8 -96q0 -110 41.5 -183t117.5 -73q71 0 125.5 66.5zM244.5 -188q-15.5 15 -15.5 43q0 24 15.5 39t41.5 15t40.5 -15t14.5 -39q0 -28 -14.5 -43t-40.5 -15t-41.5 15z" />
    <glyph glyph-name="Ograve" unicode="&#xd2;" 
d="M400.5 724.5q-38.5 12.5 -102.5 31.5q-12 3 7 12.5t49.5 17.5t45.5 8q7 0 9 -2q25 -28 54 -55l37 -36q1 -1 1 -3q0 -3 -3.5 -5t-7.5 -1q-51 20 -89.5 32.5zM158.5 20.5q-51.5 32.5 -78.5 89.5t-27 129q0 30 7 74q16 92 66.5 165.5t125.5 115.5t159 42q72 0 124.5 -32
t80.5 -88.5t28 -129.5q0 -38 -7 -73q-17 -98 -71 -172t-129.5 -113.5t-155.5 -39.5q-71 0 -122.5 32.5zM449.5 80.5q54.5 66.5 73.5 179.5q8 44 8 97q0 111 -42 183t-117 72q-72 0 -126 -66.5t-73 -179.5q-8 -53 -8 -96q0 -110 41.5 -183t117.5 -73q71 0 125.5 66.5z" />
    <glyph glyph-name="uni1ECE" unicode="&#x1ece;" 
d="M402.5 650.5q-5.5 -0.5 -6.5 2.5q-2 16 -2 22q0 16 3.5 28.5t10.5 32.5q7 17 10.5 29t3.5 26q0 35 -28 35q-14 0 -36 -10h-2q-3 0 -5.5 3t0.5 6q36 28 82 28q32 0 51 -14t19 -39q0 -21 -13 -38.5t-39 -43.5q-22 -22 -32.5 -36t-10.5 -29q0 -2 -5.5 -2.5zM158.5 20.5
q-51.5 32.5 -78.5 89.5t-27 129q0 30 7 74q16 92 66.5 165.5t125.5 115.5t159 42q72 0 124.5 -32t80.5 -88.5t28 -129.5q0 -38 -7 -73q-17 -98 -71 -172t-129.5 -113.5t-155.5 -39.5q-71 0 -122.5 32.5zM449.5 80.5q54.5 66.5 73.5 179.5q8 44 8 97q0 111 -42 183t-117 72
q-72 0 -126 -66.5t-73 -179.5q-8 -53 -8 -96q0 -110 41.5 -183t117.5 -73q71 0 125.5 66.5z" />
    <glyph glyph-name="Ohorn" unicode="&#x1a0;" 
d="M739 697.5q10 -15.5 7 -36.5q-7 -41 -45 -68.5t-100 -51.5q43 -64 43 -155q0 -29 -7 -73q-17 -98 -71 -172t-129.5 -113.5t-155.5 -39.5q-71 0 -122.5 32.5t-78.5 89.5t-27 129q0 30 7 74q16 92 66.5 165.5t125.5 115.5t159 42q59 0 105 -21.5t77 -61.5q64 25 64 57
q0 7 -6.5 18.5t-6.5 22.5q0 29 19 45.5t43 16.5q23 0 33 -15.5zM531 357q0 111 -42 183t-117 72q-72 0 -126 -66.5t-73 -179.5q-8 -53 -8 -96q0 -110 41.5 -183t117.5 -73q71 0 125.5 66.5t73.5 179.5q8 44 8 97z" />
    <glyph glyph-name="uni1EDA" unicode="&#x1eda;" 
d="M317 678q-4 0 -5.5 4.5t1.5 6.5q31 22 87 70q13 12 39 34q5 4 35.5 -4.5t54 -19.5t11.5 -13q-118 -30 -222 -78h-1zM739 697.5q10 -15.5 7 -36.5q-7 -41 -45 -68.5t-100 -51.5q43 -64 43 -155q0 -29 -7 -73q-17 -98 -71 -172t-129.5 -113.5t-155.5 -39.5
q-71 0 -122.5 32.5t-78.5 89.5t-27 129q0 30 7 74q16 92 66.5 165.5t125.5 115.5t159 42q59 0 105 -21.5t77 -61.5q64 25 64 57q0 7 -6.5 18.5t-6.5 22.5q0 29 19 45.5t43 16.5q23 0 33 -15.5zM531 357q0 111 -42 183t-117 72q-72 0 -126 -66.5t-73 -179.5q-8 -53 -8 -96
q0 -110 41.5 -183t117.5 -73q71 0 125.5 66.5t73.5 179.5q8 44 8 97z" />
    <glyph glyph-name="uni1EE2" unicode="&#x1ee2;" 
d="M739 697.5q10 -15.5 7 -36.5q-7 -41 -45 -68.5t-100 -51.5q43 -64 43 -155q0 -29 -7 -73q-17 -98 -71 -172t-129.5 -113.5t-155.5 -39.5q-71 0 -122.5 32.5t-78.5 89.5t-27 129q0 30 7 74q16 92 66.5 165.5t125.5 115.5t159 42q59 0 105 -21.5t77 -61.5q64 25 64 57
q0 7 -6.5 18.5t-6.5 22.5q0 29 19 45.5t43 16.5q23 0 33 -15.5zM531 357q0 111 -42 183t-117 72q-72 0 -126 -66.5t-73 -179.5q-8 -53 -8 -96q0 -110 41.5 -183t117.5 -73q71 0 125.5 66.5t73.5 179.5q8 44 8 97zM312.5 -106q14.5 -15 14.5 -39q0 -28 -14.5 -43t-40.5 -15
t-41.5 15t-15.5 43q0 24 15.5 39t41.5 15t40.5 -15z" />
    <glyph glyph-name="uni1EDC" unicode="&#x1edc;" 
d="M304.5 769.5q23.5 11.5 54 20t35.5 3.5l47 -40q44 -38 78 -64q3 -1 3 -4t-2 -5t-5 -1q-112 50 -222 77q-12 2 11.5 13.5zM739 697.5q10 -15.5 7 -36.5q-7 -41 -45 -68.5t-100 -51.5q43 -64 43 -155q0 -29 -7 -73q-17 -98 -71 -172t-129.5 -113.5t-155.5 -39.5
q-71 0 -122.5 32.5t-78.5 89.5t-27 129q0 30 7 74q16 92 66.5 165.5t125.5 115.5t159 42q59 0 105 -21.5t77 -61.5q64 25 64 57q0 7 -6.5 18.5t-6.5 22.5q0 29 19 45.5t43 16.5q23 0 33 -15.5zM531 357q0 111 -42 183t-117 72q-72 0 -126 -66.5t-73 -179.5q-8 -53 -8 -96
q0 -110 41.5 -183t117.5 -73q71 0 125.5 66.5t73.5 179.5q8 44 8 97z" />
    <glyph glyph-name="uni1EDE" unicode="&#x1ede;" 
d="M372 816q-3 0 -5.5 3t0.5 6q36 28 82 28q32 0 51 -14t19 -39q0 -21 -13 -38.5t-39 -43.5q-22 -22 -32.5 -36t-10.5 -29q0 -2 -5.5 -2.5t-6.5 2.5q-2 16 -2 22q0 16 3.5 28.5t10.5 32.5q7 17 10.5 29t3.5 26q0 35 -28 35q-14 0 -36 -10h-2zM739 697.5q10 -15.5 7 -36.5
q-7 -41 -45 -68.5t-100 -51.5q43 -64 43 -155q0 -29 -7 -73q-17 -98 -71 -172t-129.5 -113.5t-155.5 -39.5q-71 0 -122.5 32.5t-78.5 89.5t-27 129q0 30 7 74q16 92 66.5 165.5t125.5 115.5t159 42q59 0 105 -21.5t77 -61.5q64 25 64 57q0 7 -6.5 18.5t-6.5 22.5
q0 29 19 45.5t43 16.5q23 0 33 -15.5zM531 357q0 111 -42 183t-117 72q-72 0 -126 -66.5t-73 -179.5q-8 -53 -8 -96q0 -110 41.5 -183t117.5 -73q71 0 125.5 66.5t73.5 179.5q8 44 8 97z" />
    <glyph glyph-name="uni1EE0" unicode="&#x1ee0;" 
d="M298 709q-2 0 -4.5 2.5t-1.5 4.5q22 34 46 57.5t53 23.5q11 0 47 -10q18 -6 38 -10.5t36 -4.5q21 0 34.5 6t28.5 21q0 1 2 1t4 -3t1 -5q-30 -48 -49.5 -64t-45.5 -16q-19 0 -56 11q-17 5 -35 9t-34 4q-24 0 -34 -5t-29 -22h-1zM739 697.5q10 -15.5 7 -36.5
q-7 -41 -45 -68.5t-100 -51.5q43 -64 43 -155q0 -29 -7 -73q-17 -98 -71 -172t-129.5 -113.5t-155.5 -39.5q-71 0 -122.5 32.5t-78.5 89.5t-27 129q0 30 7 74q16 92 66.5 165.5t125.5 115.5t159 42q59 0 105 -21.5t77 -61.5q64 25 64 57q0 7 -6.5 18.5t-6.5 22.5
q0 29 19 45.5t43 16.5q23 0 33 -15.5zM531 357q0 111 -42 183t-117 72q-72 0 -126 -66.5t-73 -179.5q-8 -53 -8 -96q0 -110 41.5 -183t117.5 -73q71 0 125.5 66.5t73.5 179.5q8 44 8 97z" />
    <glyph glyph-name="Ohungarumlaut" unicode="&#x150;" 
d="M274 666q-3 0 -4 4.5t1 7.5l38 43q41 44 64 78q2 4 12 4q15 0 37.5 -6t35.5 -14t5 -15q-19 -10 -35 -18t-29 -15q-80 -37 -123 -68zM414 666q-2 0 -3.5 4.5t1.5 7.5q-3 -3 40 46q39 42 61 75q2 3 11 3q15 0 38 -6t36.5 -14t5.5 -14q-72 -34 -110.5 -53.5t-77.5 -47.5z
M158.5 20.5q-51.5 32.5 -78.5 89.5t-27 129q0 30 7 74q16 92 66.5 165.5t125.5 115.5t159 42q72 0 124.5 -32t80.5 -88.5t28 -129.5q0 -38 -7 -73q-17 -98 -71 -172t-129.5 -113.5t-155.5 -39.5q-71 0 -122.5 32.5zM449.5 80.5q54.5 66.5 73.5 179.5q8 44 8 97
q0 111 -42 183t-117 72q-72 0 -126 -66.5t-73 -179.5q-8 -53 -8 -96q0 -110 41.5 -183t117.5 -73q71 0 125.5 66.5z" />
    <glyph glyph-name="Omacron" unicode="&#x14c;" 
d="M302 718q-3 6 -3 14t3 14t7 6h228q5 0 8 -6t3 -14t-3 -14t-8 -6h-228q-4 0 -7 6zM158.5 20.5q-51.5 32.5 -78.5 89.5t-27 129q0 30 7 74q16 92 66.5 165.5t125.5 115.5t159 42q72 0 124.5 -32t80.5 -88.5t28 -129.5q0 -38 -7 -73q-17 -98 -71 -172t-129.5 -113.5
t-155.5 -39.5q-71 0 -122.5 32.5zM449.5 80.5q54.5 66.5 73.5 179.5q8 44 8 97q0 111 -42 183t-117 72q-72 0 -126 -66.5t-73 -179.5q-8 -53 -8 -96q0 -110 41.5 -183t117.5 -73q71 0 125.5 66.5z" />
    <glyph glyph-name="uni01EA" unicode="&#x1ea;" 
d="M535.5 604q52.5 -32 80.5 -88.5t28 -129.5q0 -38 -7 -73q-21 -117 -93 -199t-169 -112q-37 -46 -56.5 -84t-19.5 -82q0 -30 12.5 -49t37.5 -19t47 20l1 1q3 0 5.5 -4t0.5 -6q-29 -29 -54 -41.5t-53 -12.5q-40 0 -63 23.5t-23 60.5q0 46 34 88.5t101 97.5q-29 -7 -64 -7
q-71 0 -122.5 32.5t-78.5 89.5t-27 129q0 30 7 74q16 92 66.5 165.5t125.5 115.5t159 42q72 0 124.5 -32zM531 357q0 111 -42 183t-117 72q-72 0 -126 -66.5t-73 -179.5q-8 -53 -8 -96q0 -110 41.5 -183t117.5 -73q71 0 125.5 66.5t73.5 179.5q8 44 8 97z" />
    <glyph glyph-name="Oslash" unicode="&#xd8;" 
d="M648 636q5 0 14 -8.5t6 -11.5l-70 -71q46 -64 46 -159q0 -38 -7 -73q-17 -98 -71 -172t-129.5 -113.5t-155.5 -39.5q-103 0 -165 68l-69 -70l-1 -1q-6 0 -14.5 9t-4.5 13l71 72q-44 65 -44 161q0 36 6 73q16 92 66.5 165.5t125.5 115.5t159 42q53 0 96 -17.5t74 -50.5
l66 67zM165 269q0 -61 13 -109l332 336q-20 55 -55 85.5t-83 30.5q-72 0 -126 -66.5t-73 -179.5q-8 -53 -8 -97zM532 357q0 54 -13 108l-332 -337q20 -53 54.5 -83.5t82.5 -30.5q71 0 125.5 66.5t73.5 179.5q9 50 9 97z" />
    <glyph glyph-name="Oslashacute" unicode="&#x1fe;" 
d="M343 678q-4 0 -5 4.5t2 6.5q30 22 84 69q39 33 41 35q6 5 36.5 -3.5t54 -20t11.5 -13.5q-62 -15 -113.5 -33.5t-108.5 -43.5zM648 636q5 0 14 -8.5t6 -11.5l-70 -71q46 -64 46 -159q0 -38 -7 -73q-17 -98 -71 -172t-129.5 -113.5t-155.5 -39.5q-103 0 -165 68l-69 -70
l-1 -1q-6 0 -14.5 9t-4.5 13l71 72q-44 65 -44 161q0 36 6 73q16 92 66.5 165.5t125.5 115.5t159 42q53 0 96 -17.5t74 -50.5l66 67zM165 269q0 -61 13 -109l332 336q-20 55 -55 85.5t-83 30.5q-72 0 -126 -66.5t-73 -179.5q-8 -53 -8 -97zM532 357q0 54 -13 108l-332 -337
q20 -53 54.5 -83.5t82.5 -30.5q71 0 125.5 66.5t73.5 179.5q9 50 9 97z" />
    <glyph glyph-name="Otilde" unicode="&#xd5;" 
d="M285 685q-2 0 -4 3t-1 5q22 34 46 57.5t54 23.5q10 0 26 -4.5t21 -5.5q49 -15 73 -15q22 0 35.5 6t28.5 21h1q3 0 5 -2.5t1 -4.5q-30 -49 -49.5 -65t-45.5 -16q-16 0 -56 12q-4 1 -26.5 7t-42.5 6q-23 0 -33.5 -4.5t-19 -12t-11.5 -10.5q0 -1 -2 -1zM158.5 20.5
q-51.5 32.5 -78.5 89.5t-27 129q0 30 7 74q16 92 66.5 165.5t125.5 115.5t159 42q72 0 124.5 -32t80.5 -88.5t28 -129.5q0 -38 -7 -73q-17 -98 -71 -172t-129.5 -113.5t-155.5 -39.5q-71 0 -122.5 32.5zM449.5 80.5q54.5 66.5 73.5 179.5q8 44 8 97q0 111 -42 183t-117 72
q-72 0 -126 -66.5t-73 -179.5q-8 -53 -8 -96q0 -110 41.5 -183t117.5 -73q71 0 125.5 66.5z" />
    <glyph glyph-name="OE" unicode="&#x152;" horiz-adv-x="809" 
d="M813 616l-8 -51l-13 -83q0 -3 -4 -3q-3 0 -5.5 1.5t-2.5 2.5q-5 60 -28 90.5t-75 30.5h-17q-29 0 -42 -4.5t-19 -16.5t-11 -40l-36 -204h90q46 0 71 17.5t33 58.5q1 5 7 4.5t5 -5.5l-9 -51q-3 -15 -7 -38l-8 -46q-3 -23 -9 -57q-1 -4 -7 -3.5t-5 4.5q2 14 2 20
q0 33 -21 50.5t-59 17.5h-88l-39 -226q-4 -26 -4 -33q0 -20 11 -27t41 -7h25q55 0 92.5 34t78.5 107q2 2 4 2q3 0 6 -1.5t2 -2.5q-19 -56 -34 -142q-2 -9 -5.5 -12t-11.5 -3h-263q-23 0 -69 -2q-40 -2 -55 -2q-83 0 -145 32.5t-95.5 90t-33.5 130.5q0 29 6 60
q18 95 73.5 167t133 111.5t160.5 39.5q36 0 58 -1l71 -1h253q8 0 6 -9zM490 563q0 24 -13 33.5t-45 9.5q-98 0 -168 -71t-93 -204q-8 -41 -8 -88q0 -67 19 -118.5t54.5 -80t82.5 -28.5q33 0 49 3.5t25.5 17.5t14.5 45l79 449q3 20 3 32z" />
    <glyph glyph-name="P" unicode="P" horiz-adv-x="532" 
d="M13 6q0 6 2 6q28 0 42 5t21 19.5t12 44.5l82 463q4 26 4 33q0 22 -11.5 29t-41.5 7q-3 0 -3 6t3 6l44 -1q40 -2 65 -2q20 0 48 3q69 3 72 3q86 0 137.5 -35.5t51.5 -103.5q0 -16 -3 -36q-12 -63 -52.5 -106.5t-93 -64t-101.5 -20.5q-25 0 -41 5q-1 0 -1 3q0 5 2 11.5
t5 5.5q12 -4 29 -4q52 0 92 37.5t51 112.5q4 30 4 43q0 61 -28.5 96t-70.5 35q-32 0 -44 -12.5t-20 -52.5l-81 -461q-4 -26 -4 -33q0 -22 11.5 -29t41.5 -7q3 0 3 -6t-3 -6q-29 0 -46 1l-67 1l-64 -1q-16 -1 -45 -1q-2 0 -2 6z" />
    <glyph glyph-name="Thorn" unicode="&#xde;" horiz-adv-x="546" 
d="M484 461q59 -38 59 -109q0 -17 -5 -40q-13 -60 -55 -100t-97 -59.5t-106 -19.5q-21 0 -41 5q-1 0 -1 4q0 5 2 10.5t4 4.5q13 -4 30 -4q51 0 95 32.5t58 106.5q5 25 5 45q0 62 -36 101.5t-106 39.5q-11 0 -33 -2l-69 -395q-4 -26 -4 -32q0 -23 16 -30t61 -7q2 0 2 -6
t-2 -6q-35 0 -55 1l-82 1l-64 -1q-16 -1 -45 -1q-2 0 -2 6t2 6q28 0 42 5t21 19.5t12 44.5l82 463q4 26 4 33q0 21 -12 28.5t-41 7.5q-3 0 -3 6t3 6l44 -1q40 -2 65 -2q34 0 84 2l52 1q3 0 3 -6t-3 -6q-41 0 -59 -4.5t-26 -18.5t-14 -48l-8 -46q33 3 64 3q100 0 159 -38z
" />
    <glyph glyph-name="Q" unicode="Q" 
d="M701.5 -178.5q1.5 -5.5 -0.5 -6.5q-43 -15 -74 -15q-74 0 -142.5 51.5t-120.5 147.5q-42 -11 -83 -11q-71 0 -122.5 32.5t-78.5 89.5t-27 129q0 30 7 74q16 92 66.5 165.5t125.5 115.5t159 42q72 0 124.5 -32t80.5 -88.5t28 -129.5q0 -38 -7 -73q-16 -90 -63.5 -160.5
t-115.5 -112.5q22 -61 60.5 -111t79 -78.5t67.5 -28.5q19 0 32 4q3 1 4.5 -4.5zM165 270q0 -110 41.5 -183t117.5 -73q71 0 125.5 66.5t73.5 179.5q8 44 8 97q0 111 -42 183t-117 72q-72 0 -126 -66.5t-73 -179.5q-8 -53 -8 -96z" />
    <glyph glyph-name="R" unicode="R" horiz-adv-x="635" 
d="M614 6q0 -6 -3 -6h-151q-14 0 -37 32.5t-52.5 102t-61.5 174.5q-32 -5 -59 -5h-11l-40 -223q-4 -28 -4 -34q0 -21 12 -28t43 -7q4 0 4 -6t-3 -6q-31 0 -48 1l-67 1l-69 -1q-17 -1 -48 -1q-4 0 -4 6t4 6q30 0 45 5.5t23 20t14 43.5l81 463q4 19 4 34q0 21 -12 28t-44 7
q-4 0 -4 6t4 6l48 -1q40 -2 66 -2q17 0 31.5 1t25.5 2q29 3 50 3q174 0 174 -108q0 -61 -36.5 -109t-96.5 -76q47 -121 83.5 -191t68.5 -101t67 -31q3 0 3 -6zM270 331q66 0 100.5 32t45.5 106q4 23 4 45q0 48 -21.5 70.5t-56.5 22.5q-24 0 -34 -3.5t-15.5 -16t-11.5 -45.5
l-37 -208q14 -3 26 -3z" />
    <glyph glyph-name="Racute" unicode="&#x154;" horiz-adv-x="635" 
d="M245 678q-4 0 -5.5 4.5t1.5 6.5q31 22 87 70q13 12 39 34q5 4 35.5 -4.5t54 -19.5t11.5 -13q-118 -30 -222 -78h-1zM614 6q0 -6 -3 -6h-151q-14 0 -37 32.5t-52.5 102t-61.5 174.5q-32 -5 -59 -5h-11l-40 -223q-4 -28 -4 -34q0 -21 12 -28t43 -7q4 0 4 -6t-3 -6
q-31 0 -48 1l-67 1l-69 -1q-17 -1 -48 -1q-4 0 -4 6t4 6q30 0 45 5.5t23 20t14 43.5l81 463q4 19 4 34q0 21 -12 28t-44 7q-4 0 -4 6t4 6l48 -1q40 -2 66 -2q17 0 31.5 1t25.5 2q29 3 50 3q174 0 174 -108q0 -61 -36.5 -109t-96.5 -76q47 -121 83.5 -191t68.5 -101t67 -31
q3 0 3 -6zM270 331q66 0 100.5 32t45.5 106q4 23 4 45q0 48 -21.5 70.5t-56.5 22.5q-24 0 -34 -3.5t-15.5 -16t-11.5 -45.5l-37 -208q14 -3 26 -3z" />
    <glyph glyph-name="Rcaron" unicode="&#x158;" horiz-adv-x="635" 
d="M258 791v1q0 2 3 4.5t5 1.5l94 -39l110 39q2 1 5.5 -2.5t0.5 -4.5l-116 -116q-4 -4 -10 -4q-5 0 -8 4zM614 6q0 -6 -3 -6h-151q-14 0 -37 32.5t-52.5 102t-61.5 174.5q-32 -5 -59 -5h-11l-40 -223q-4 -28 -4 -34q0 -21 12 -28t43 -7q4 0 4 -6t-3 -6q-31 0 -48 1l-67 1
l-69 -1q-17 -1 -48 -1q-4 0 -4 6t4 6q30 0 45 5.5t23 20t14 43.5l81 463q4 19 4 34q0 21 -12 28t-44 7q-4 0 -4 6t4 6l48 -1q40 -2 66 -2q17 0 31.5 1t25.5 2q29 3 50 3q174 0 174 -108q0 -61 -36.5 -109t-96.5 -76q47 -121 83.5 -191t68.5 -101t67 -31q3 0 3 -6zM270 331
q66 0 100.5 32t45.5 106q4 23 4 45q0 48 -21.5 70.5t-56.5 22.5q-24 0 -34 -3.5t-15.5 -16t-11.5 -45.5l-37 -208q14 -3 26 -3z" />
    <glyph glyph-name="Rcommaaccent" unicode="&#x156;" horiz-adv-x="635" 
d="M614 6q0 -6 -3 -6h-151q-14 0 -37 32.5t-52.5 102t-61.5 174.5q-32 -5 -59 -5h-11l-40 -223q-4 -28 -4 -34q0 -21 12 -28t43 -7q4 0 4 -6t-3 -6q-31 0 -48 1l-67 1l-69 -1q-17 -1 -48 -1q-4 0 -4 6t4 6q30 0 45 5.5t23 20t14 43.5l81 463q4 19 4 34q0 21 -12 28t-44 7
q-4 0 -4 6t4 6l48 -1q40 -2 66 -2q17 0 31.5 1t25.5 2q29 3 50 3q174 0 174 -108q0 -61 -36.5 -109t-96.5 -76q47 -121 83.5 -191t68.5 -101t67 -31q3 0 3 -6zM270 331q66 0 100.5 32t45.5 106q4 23 4 45q0 48 -21.5 70.5t-56.5 22.5q-24 0 -34 -3.5t-15.5 -16t-11.5 -45.5
l-37 -208q14 -3 26 -3zM365.5 -86q14.5 -17 14.5 -45q0 -44 -28 -81.5t-73 -62.5l-2 -1q-4 0 -6 4.5t1 6.5q52 31 59 67q2 8 2 20q-7 -3 -19 -3q-26 0 -39.5 16.5t-13.5 38.5q0 24 16 40.5t45 16.5t43.5 -17z" />
    <glyph glyph-name="uni1E5A" unicode="&#x1e5a;" horiz-adv-x="635" 
d="M614 6q0 -6 -3 -6h-151q-14 0 -37 32.5t-52.5 102t-61.5 174.5q-32 -5 -59 -5h-11l-40 -223q-4 -28 -4 -34q0 -21 12 -28t43 -7q4 0 4 -6t-3 -6q-31 0 -48 1l-67 1l-69 -1q-17 -1 -48 -1q-4 0 -4 6t4 6q30 0 45 5.5t23 20t14 43.5l81 463q4 19 4 34q0 21 -12 28t-44 7
q-4 0 -4 6t4 6l48 -1q40 -2 66 -2q17 0 31.5 1t25.5 2q29 3 50 3q174 0 174 -108q0 -61 -36.5 -109t-96.5 -76q47 -121 83.5 -191t68.5 -101t67 -31q3 0 3 -6zM270 331q66 0 100.5 32t45.5 106q4 23 4 45q0 48 -21.5 70.5t-56.5 22.5q-24 0 -34 -3.5t-15.5 -16t-11.5 -45.5
l-37 -208q14 -3 26 -3zM360.5 -106q14.5 -15 14.5 -39q0 -28 -14.5 -43t-40.5 -15t-41.5 15t-15.5 43q0 24 15.5 39t41.5 15t40.5 -15z" />
    <glyph glyph-name="uni1E5C" unicode="&#x1e5c;" horiz-adv-x="635" 
d="M210 718.5q-3 5.5 -3 13.5q0 7 3 12.5t7 5.5h251q5 0 8 -5.5t3 -12.5q0 -8 -3 -13.5t-8 -5.5h-251q-4 0 -7 5.5zM614 6q0 -6 -3 -6h-151q-14 0 -37 32.5t-52.5 102t-61.5 174.5q-32 -5 -59 -5h-11l-40 -223q-4 -28 -4 -34q0 -21 12 -28t43 -7q4 0 4 -6t-3 -6q-31 0 -48 1
l-67 1l-69 -1q-17 -1 -48 -1q-4 0 -4 6t4 6q30 0 45 5.5t23 20t14 43.5l81 463q4 19 4 34q0 21 -12 28t-44 7q-4 0 -4 6t4 6l48 -1q40 -2 66 -2q17 0 31.5 1t25.5 2q29 3 50 3q174 0 174 -108q0 -61 -36.5 -109t-96.5 -76q47 -121 83.5 -191t68.5 -101t67 -31q3 0 3 -6z
M270 331q66 0 100.5 32t45.5 106q4 23 4 45q0 48 -21.5 70.5t-56.5 22.5q-24 0 -34 -3.5t-15.5 -16t-11.5 -45.5l-37 -208q14 -3 26 -3zM360.5 -106q14.5 -15 14.5 -39q0 -28 -14.5 -43t-40.5 -15t-41.5 15t-15.5 43q0 24 15.5 39t41.5 15t40.5 -15z" />
    <glyph glyph-name="uni1E5E" unicode="&#x1e5e;" horiz-adv-x="635" 
d="M614 6q0 -6 -3 -6h-151q-14 0 -37 32.5t-52.5 102t-61.5 174.5q-32 -5 -59 -5h-11l-40 -223q-4 -28 -4 -34q0 -21 12 -28t43 -7q4 0 4 -6t-3 -6q-31 0 -48 1l-67 1l-69 -1q-17 -1 -48 -1q-4 0 -4 6t4 6q30 0 45 5.5t23 20t14 43.5l81 463q4 19 4 34q0 21 -12 28t-44 7
q-4 0 -4 6t4 6l48 -1q40 -2 66 -2q17 0 31.5 1t25.5 2q29 3 50 3q174 0 174 -108q0 -61 -36.5 -109t-96.5 -76q47 -121 83.5 -191t68.5 -101t67 -31q3 0 3 -6zM270 331q66 0 100.5 32t45.5 106q4 23 4 45q0 48 -21.5 70.5t-56.5 22.5q-24 0 -34 -3.5t-15.5 -16t-11.5 -45.5
l-37 -208q14 -3 26 -3zM458 -89q3 -6 3 -14t-3 -14t-8 -6h-228q-4 0 -7 6t-3 14t3 14t7 6h228q5 0 8 -6z" />
    <glyph glyph-name="S" unicode="S" horiz-adv-x="470" 
d="M39 22q-10 7 -6 19l32 141q0 5 5.5 5t6.5 -5q37 -170 142 -170q49 0 79.5 34.5t30.5 91.5q0 48 -27.5 83t-79.5 75q-38 29 -60 49t-37 47t-15 60q0 14 3 29q16 75 79.5 115t143.5 40q59 0 118 -24q14 -7 11 -17l-15 -130q-1 -3 -5.5 -3t-5.5 3q-16 70 -51 110t-79 40
q-34 0 -56 -18.5t-32 -44t-10 -49.5q0 -30 14 -54t33 -41.5t57 -47.5q59 -46 90 -84t31 -90q0 -17 -2 -26q-14 -76 -77 -124t-165 -48q-81 0 -153 34z" />
    <glyph glyph-name="Sacute" unicode="&#x15a;" horiz-adv-x="470" 
d="M257 678q-4 0 -5 4.5t2 6.5q30 22 84 69q39 33 41 35q6 5 36.5 -3.5t54 -20t11.5 -13.5q-62 -15 -113.5 -33.5t-108.5 -43.5zM39 22q-10 7 -6 19l32 141q0 5 5.5 5t6.5 -5q37 -170 142 -170q49 0 79.5 34.5t30.5 91.5q0 48 -27.5 83t-79.5 75q-38 29 -60 49t-37 47
t-15 60q0 14 3 29q16 75 79.5 115t143.5 40q59 0 118 -24q14 -7 11 -17l-15 -130q-1 -3 -5.5 -3t-5.5 3q-16 70 -51 110t-79 40q-34 0 -56 -18.5t-32 -44t-10 -49.5q0 -30 14 -54t33 -41.5t57 -47.5q59 -46 90 -84t31 -90q0 -17 -2 -26q-14 -76 -77 -124t-165 -48
q-81 0 -153 34z" />
    <glyph glyph-name="Scaron" unicode="&#x160;" horiz-adv-x="470" 
d="M224 791v1q0 2 3 4.5t5 1.5l94 -39l110 39q2 1 5.5 -2.5t0.5 -4.5l-116 -116q-4 -4 -10 -4q-5 0 -8 4zM39 22q-10 7 -6 19l32 141q0 5 5.5 5t6.5 -5q37 -170 142 -170q49 0 79.5 34.5t30.5 91.5q0 48 -27.5 83t-79.5 75q-38 29 -60 49t-37 47t-15 60q0 14 3 29
q16 75 79.5 115t143.5 40q59 0 118 -24q14 -7 11 -17l-15 -130q-1 -3 -5.5 -3t-5.5 3q-16 70 -51 110t-79 40q-34 0 -56 -18.5t-32 -44t-10 -49.5q0 -30 14 -54t33 -41.5t57 -47.5q59 -46 90 -84t31 -90q0 -17 -2 -26q-14 -76 -77 -124t-165 -48q-81 0 -153 34z" />
    <glyph glyph-name="Scedilla" unicode="&#x15e;" horiz-adv-x="470" 
d="M465 595l-15 -130q-1 -3 -5.5 -3t-5.5 3q-16 70 -51 110t-79 40q-34 0 -56 -18.5t-32 -44t-10 -49.5q0 -30 14 -54t33 -41.5t57 -47.5q59 -46 90 -84t31 -90q0 -17 -2 -26q-13 -68 -66 -114.5t-138 -55.5q-5 -15 -5 -26q0 -15 6.5 -27t15.5 -23.5t13 -17.5q34 -43 34 -71
q0 -19 -13.5 -42.5t-40.5 -40.5t-67 -17q-34 0 -57 13t-23 34q0 20 12.5 30t29.5 10q18 0 25.5 -9.5t13.5 -27.5q6 -16 11.5 -23.5t17.5 -7.5q11 0 17.5 6.5t8.5 17.5q1 17 -12.5 39.5t-38.5 54.5q-8 9 -8 24q0 11 4.5 22.5t14.5 31.5l23 49q-6 -1 -20 -1q-81 0 -153 34
q-10 7 -6 19l32 141q0 5 5.5 5t6.5 -5q37 -170 142 -170q49 0 79.5 34.5t30.5 91.5q0 48 -27.5 83t-79.5 75q-38 29 -60 49t-37 47t-15 60q0 14 3 29q16 75 79.5 115t143.5 40q59 0 118 -24q14 -7 11 -17z" />
    <glyph glyph-name="Scircumflex" unicode="&#x15c;" horiz-adv-x="470" 
d="M214 660q-3 0 -5 2.5t0 4.5l116 115q5 5 9 5q6 0 9 -5l83 -115l1 -2q0 -2 -3 -4t-5 -1l-94 38l-110 -38h-1zM39 22q-10 7 -6 19l32 141q0 5 5.5 5t6.5 -5q37 -170 142 -170q49 0 79.5 34.5t30.5 91.5q0 48 -27.5 83t-79.5 75q-38 29 -60 49t-37 47t-15 60q0 14 3 29
q16 75 79.5 115t143.5 40q59 0 118 -24q14 -7 11 -17l-15 -130q-1 -3 -5.5 -3t-5.5 3q-16 70 -51 110t-79 40q-34 0 -56 -18.5t-32 -44t-10 -49.5q0 -30 14 -54t33 -41.5t57 -47.5q59 -46 90 -84t31 -90q0 -17 -2 -26q-14 -76 -77 -124t-165 -48q-81 0 -153 34z" />
    <glyph glyph-name="Scommaaccent" unicode="&#x218;" horiz-adv-x="470" 
d="M465 595l-15 -130q-1 -3 -5.5 -3t-5.5 3q-16 70 -51 110t-79 40q-34 0 -56 -18.5t-32 -44t-10 -49.5q0 -30 14 -54t33 -41.5t57 -47.5q59 -46 90 -84t31 -90q0 -17 -2 -26q-14 -76 -77 -124t-165 -48q-81 0 -153 34q-10 7 -6 19l32 141q0 5 5.5 5t6.5 -5
q37 -170 142 -170q49 0 79.5 34.5t30.5 91.5q0 48 -27.5 83t-79.5 75q-38 29 -60 49t-37 47t-15 60q0 14 3 29q16 75 79.5 115t143.5 40q59 0 118 -24q14 -7 11 -17zM239.5 -86q14.5 -17 14.5 -45q0 -44 -28 -81.5t-73 -62.5l-2 -1q-4 0 -6 4.5t1 6.5q52 31 59 67q2 8 2 20
q-7 -3 -19 -3q-26 0 -39.5 16.5t-13.5 38.5q0 24 16 40.5t45 16.5t43.5 -17z" />
    <glyph glyph-name="uni1E60" unicode="&#x1e60;" horiz-adv-x="470" 
d="M292.5 728.5q-15.5 15.5 -15.5 42.5q0 25 15.5 39.5t41.5 14.5t40.5 -14.5t14.5 -39.5q0 -27 -14.5 -42.5t-40.5 -15.5t-41.5 15.5zM39 22q-10 7 -6 19l32 141q0 5 5.5 5t6.5 -5q37 -170 142 -170q49 0 79.5 34.5t30.5 91.5q0 48 -27.5 83t-79.5 75q-38 29 -60 49t-37 47
t-15 60q0 14 3 29q16 75 79.5 115t143.5 40q59 0 118 -24q14 -7 11 -17l-15 -130q-1 -3 -5.5 -3t-5.5 3q-16 70 -51 110t-79 40q-34 0 -56 -18.5t-32 -44t-10 -49.5q0 -30 14 -54t33 -41.5t57 -47.5q59 -46 90 -84t31 -90q0 -17 -2 -26q-14 -76 -77 -124t-165 -48
q-81 0 -153 34z" />
    <glyph glyph-name="uni1E62" unicode="&#x1e62;" horiz-adv-x="470" 
d="M39 22q-10 7 -6 19l32 141q0 5 5.5 5t6.5 -5q37 -170 142 -170q49 0 79.5 34.5t30.5 91.5q0 48 -27.5 83t-79.5 75q-38 29 -60 49t-37 47t-15 60q0 14 3 29q16 75 79.5 115t143.5 40q59 0 118 -24q14 -7 11 -17l-15 -130q-1 -3 -5.5 -3t-5.5 3q-16 70 -51 110t-79 40
q-34 0 -56 -18.5t-32 -44t-10 -49.5q0 -30 14 -54t33 -41.5t57 -47.5q59 -46 90 -84t31 -90q0 -17 -2 -26q-14 -76 -77 -124t-165 -48q-81 0 -153 34zM152.5 -188q-15.5 15 -15.5 43q0 24 15.5 39t41.5 15t40.5 -15t14.5 -39q0 -28 -14.5 -43t-40.5 -15t-41.5 15z" />
    <glyph glyph-name="uni1E9E" unicode="&#x1e9e;" 
d="M292 22q-6 4 -4 19l14 118q0 5 4.5 5.5t6.5 -4.5q13 -38 37.5 -70.5t53 -51.5t52.5 -19q36 0 55 37.5t19 79.5q0 100 -125 195q-5 5 -5 7t4 8l132 171q-49 32 -107.5 51.5t-96.5 19.5q-30 0 -48.5 -12.5t-30 -43t-21.5 -88.5l-65 -363q-4 -28 -4 -33q0 -22 11 -29t41 -7
q4 0 4 -6t-4 -6l-112 1l-118 -1q-4 0 -4 6t4 6q30 0 45 5t23 19.5t14 44.5l53 301q13 68 55 126.5t106.5 93t140.5 34.5q39 0 75.5 -8t86.5 -24q6 -2 12 -2q20 0 41 27l4 2q3 0 5 -2t1 -4l-170 -217q76 -54 112 -106.5t36 -106.5q0 -53 -28 -101t-78.5 -77t-113.5 -29
q-69 0 -113 34z" />
    <glyph glyph-name="uni018F" unicode="&#x18f;" horiz-adv-x="591" 
d="M527 571.5q56 -64.5 56 -165.5q0 -39 -8 -82q-18 -104 -71.5 -180t-128.5 -116t-157 -40q-63 0 -103 22t-58.5 56t-18.5 71q0 10 2 26q1 7 4 9.5t9 2.5l368 2q16 51 26 111q12 71 12 130q0 93 -31.5 145t-94.5 52q-51 0 -106.5 -37.5t-110.5 -114.5q-2 -2 -5 -2t-5.5 2
t-1.5 4l62 183q2 3 4 3q3 0 6 -2t2 -4q-3 -10 -3 -17q0 -13 13 -13q2 0 10 2q49 9 80 13t61 4q132 0 188 -64.5zM413 156l-263 -3q-4 -63 24 -101.5t83 -38.5q103 0 156 143z" />
    <glyph glyph-name="T" unicode="T" horiz-adv-x="553" 
d="M111 6q0 6 2 6q37 0 55.5 5t27.5 19.5t15 44.5l81 463q4 24 4 30q0 16 -8 22t-27 6h-12q-31 0 -65 -21.5t-61 -57t-39 -77.5q-1 -3 -6.5 -2t-4.5 4q8 29 24 96t23 103q1 3 7 2.5t5 -3.5q-3 -21 39 -21q74 -3 183 -3q51 0 113 2l63 1q30 0 45 5t21 20q2 3 7 2.5t4 -4.5
q-9 -32 -24.5 -103.5t-18.5 -96.5q-1 -4 -7 -3.5t-5 4.5q3 17 3 32q0 52 -29 86.5t-75 34.5h-11q-26 0 -34.5 -11.5t-14.5 -48.5l-81 -461q-4 -24 -4 -31q0 -23 16.5 -30.5t61.5 -7.5q2 0 2 -6t-2 -6q-35 0 -55 1l-81 1l-78 -1q-20 -1 -57 -1q-2 0 -2 6z" />
    <glyph glyph-name="Tbar" unicode="&#x166;" horiz-adv-x="553" 
d="M603 652.5q5 -0.5 4 -4.5q-9 -32 -24.5 -103.5t-18.5 -96.5q-1 -4 -7 -3.5t-5 4.5q3 17 3 32q0 52 -29 86.5t-75 34.5h-11q-26 0 -34.5 -11.5t-14.5 -48.5l-36 -205h86q2 0 3.5 -4.5t1.5 -9.5t-1.5 -9.5t-3.5 -4.5h-91l-40 -228q-4 -24 -4 -31q0 -23 16.5 -30.5
t61.5 -7.5q2 0 2 -6t-2 -6q-35 0 -55 1l-81 1l-78 -1q-20 -1 -57 -1q-2 0 -2 6t2 6q37 0 55.5 5t27.5 19.5t15 44.5l40 228h-91q-4 0 -4 14t4 14h96l36 207q4 24 4 30q0 16 -8 22t-27 6h-12q-31 0 -65 -21.5t-61 -57t-39 -77.5q-1 -3 -6.5 -2t-4.5 4q8 29 24 96t23 103
q1 3 7 2.5t5 -3.5q-3 -21 39 -21q74 -3 183 -3q51 0 113 2l63 1q30 0 45 5t21 20q2 3 7 2.5z" />
    <glyph glyph-name="Tcaron" unicode="&#x164;" horiz-adv-x="553" 
d="M268 791v1q0 2 3 4.5t5 1.5l94 -39l110 39q2 1 5.5 -2.5t0.5 -4.5l-116 -116q-4 -4 -10 -4q-5 0 -8 4zM111 6q0 6 2 6q37 0 55.5 5t27.5 19.5t15 44.5l81 463q4 24 4 30q0 16 -8 22t-27 6h-12q-31 0 -65 -21.5t-61 -57t-39 -77.5q-1 -3 -6.5 -2t-4.5 4q8 29 24 96t23 103
q1 3 7 2.5t5 -3.5q-3 -21 39 -21q74 -3 183 -3q51 0 113 2l63 1q30 0 45 5t21 20q2 3 7 2.5t4 -4.5q-9 -32 -24.5 -103.5t-18.5 -96.5q-1 -4 -7 -3.5t-5 4.5q3 17 3 32q0 52 -29 86.5t-75 34.5h-11q-26 0 -34.5 -11.5t-14.5 -48.5l-81 -461q-4 -24 -4 -31q0 -23 16.5 -30.5
t61.5 -7.5q2 0 2 -6t-2 -6q-35 0 -55 1l-81 1l-78 -1q-20 -1 -57 -1q-2 0 -2 6z" />
    <glyph glyph-name="uni0162" unicode="&#x162;" horiz-adv-x="553" 
d="M603 652.5q5 -0.5 4 -4.5q-9 -32 -24.5 -103.5t-18.5 -96.5q-1 -4 -7 -3.5t-5 4.5q3 17 3 32q0 52 -29 86.5t-75 34.5h-11q-26 0 -34.5 -11.5t-14.5 -48.5l-81 -461q-4 -24 -4 -31q0 -23 16.5 -30.5t61.5 -7.5q2 0 2 -6t-2 -6q-33 0 -51 1l-75 1q-9 -29 -9 -45
q0 -17 6 -27.5t24 -33.5q34 -43 34 -71q0 -19 -13.5 -42.5t-40.5 -40.5t-67 -17q-34 0 -57 13t-23 34q0 20 12.5 30t29.5 10q18 0 25.5 -9.5t13.5 -27.5q6 -16 11.5 -23.5t17.5 -7.5q11 0 17.5 6.5t8.5 17.5q1 17 -12.5 39.5t-38.5 54.5q-8 9 -8 24q0 11 4.5 23t14.5 31
l31 62l-72 -1q-20 -1 -54 -1q-2 0 -2 6t2 6q37 0 55.5 5t27.5 19.5t15 44.5l81 463q4 24 4 30q0 16 -8 22t-27 6h-12q-31 0 -65 -21.5t-61 -57t-39 -77.5q-1 -3 -6.5 -2t-4.5 4q8 29 24 96t23 103q1 3 7 2.5t5 -3.5q-3 -21 39 -21q74 -3 183 -3q51 0 113 2l63 1q30 0 45 5
t21 20q2 3 7 2.5z" />
    <glyph glyph-name="uni021A" unicode="&#x21a;" horiz-adv-x="553" 
d="M603 652.5q5 -0.5 4 -4.5q-9 -32 -24.5 -103.5t-18.5 -96.5q-1 -4 -7 -3.5t-5 4.5q3 17 3 32q0 52 -29 86.5t-75 34.5h-11q-26 0 -34.5 -11.5t-14.5 -48.5l-81 -461q-4 -24 -4 -31q0 -23 16.5 -30.5t61.5 -7.5q2 0 2 -6t-2 -6q-35 0 -55 1l-81 1l-78 -1q-20 -1 -57 -1
q-2 0 -2 6t2 6q37 0 55.5 5t27.5 19.5t15 44.5l81 463q4 24 4 30q0 16 -8 22t-27 6h-12q-31 0 -65 -21.5t-61 -57t-39 -77.5q-1 -3 -6.5 -2t-4.5 4q8 29 24 96t23 103q1 3 7 2.5t5 -3.5q-3 -21 39 -21q74 -3 183 -3q51 0 113 2l63 1q30 0 45 5t21 20q2 3 7 2.5zM269.5 -86
q14.5 -17 14.5 -45q0 -44 -28 -81.5t-73 -62.5l-2 -1q-4 0 -6 4.5t1 6.5q52 31 59 67q2 8 2 20q-7 -3 -19 -3q-26 0 -39.5 16.5t-13.5 38.5q0 24 16 40.5t45 16.5t43.5 -17z" />
    <glyph glyph-name="uni1E6C" unicode="&#x1e6c;" horiz-adv-x="553" 
d="M111 6q0 6 2 6q37 0 55.5 5t27.5 19.5t15 44.5l81 463q4 24 4 30q0 16 -8 22t-27 6h-12q-31 0 -65 -21.5t-61 -57t-39 -77.5q-1 -3 -6.5 -2t-4.5 4q8 29 24 96t23 103q1 3 7 2.5t5 -3.5q-3 -21 39 -21q74 -3 183 -3q51 0 113 2l63 1q30 0 45 5t21 20q2 3 7 2.5t4 -4.5
q-9 -32 -24.5 -103.5t-18.5 -96.5q-1 -4 -7 -3.5t-5 4.5q3 17 3 32q0 52 -29 86.5t-75 34.5h-11q-26 0 -34.5 -11.5t-14.5 -48.5l-81 -461q-4 -24 -4 -31q0 -23 16.5 -30.5t61.5 -7.5q2 0 2 -6t-2 -6q-35 0 -55 1l-81 1l-78 -1q-20 -1 -57 -1q-2 0 -2 6zM182.5 -188
q-15.5 15 -15.5 43q0 24 15.5 39t41.5 15t40.5 -15t14.5 -39q0 -28 -14.5 -43t-40.5 -15t-41.5 15z" />
    <glyph glyph-name="uni1E6E" unicode="&#x1e6e;" horiz-adv-x="553" 
d="M111 6q0 6 2 6q37 0 55.5 5t27.5 19.5t15 44.5l81 463q4 24 4 30q0 16 -8 22t-27 6h-12q-31 0 -65 -21.5t-61 -57t-39 -77.5q-1 -3 -6.5 -2t-4.5 4q8 29 24 96t23 103q1 3 7 2.5t5 -3.5q-3 -21 39 -21q74 -3 183 -3q51 0 113 2l63 1q30 0 45 5t21 20q2 3 7 2.5t4 -4.5
q-9 -32 -24.5 -103.5t-18.5 -96.5q-1 -4 -7 -3.5t-5 4.5q3 17 3 32q0 52 -29 86.5t-75 34.5h-11q-26 0 -34.5 -11.5t-14.5 -48.5l-81 -461q-4 -24 -4 -31q0 -23 16.5 -30.5t61.5 -7.5q2 0 2 -6t-2 -6q-35 0 -55 1l-81 1l-78 -1q-20 -1 -57 -1q-2 0 -2 6zM119 -117
q-3 6 -3 14t3 14t7 6h228q5 0 8 -6t3 -14t-3 -14t-8 -6h-228q-4 0 -7 6z" />
    <glyph glyph-name="U" unicode="U" horiz-adv-x="620" 
d="M562 535q0 37 -17 57.5t-49 20.5q-3 0 -2.5 6t2.5 6l44 -1q34 -2 54 -2t52 2l38 1q4 0 3.5 -6t-3.5 -6q-36 0 -61.5 -32.5t-34.5 -86.5l-53 -302q-17 -95 -88 -150.5t-170 -55.5q-91 0 -144 46t-53 126q0 23 4 43l62 346q4 26 4 33q0 20 -12 26.5t-43 6.5q-3 0 -3 6t2 6
l49 -1q40 -2 64 -2q28 0 72 2l44 1q2 0 2 -6t-2 -6q-41 0 -56 -15.5t-23 -59.5l-55 -309q-6 -37 -6 -67q0 -71 33.5 -105t96.5 -34q76 0 127 46.5t65 128.5l54 303q3 18 3 34z" />
    <glyph glyph-name="Uacute" unicode="&#xda;" horiz-adv-x="620" 
d="M315 678q-4 0 -5.5 4.5t1.5 6.5q31 22 87 70q13 12 39 34q5 4 35.5 -4.5t54 -19.5t11.5 -13q-118 -30 -222 -78h-1zM562 535q0 37 -17 57.5t-49 20.5q-3 0 -2.5 6t2.5 6l44 -1q34 -2 54 -2t52 2l38 1q4 0 3.5 -6t-3.5 -6q-36 0 -61.5 -32.5t-34.5 -86.5l-53 -302
q-17 -95 -88 -150.5t-170 -55.5q-91 0 -144 46t-53 126q0 23 4 43l62 346q4 26 4 33q0 20 -12 26.5t-43 6.5q-3 0 -3 6t2 6l49 -1q40 -2 64 -2q28 0 72 2l44 1q2 0 2 -6t-2 -6q-41 0 -56 -15.5t-23 -59.5l-55 -309q-6 -37 -6 -67q0 -71 33.5 -105t96.5 -34q76 0 127 46.5
t65 128.5l54 303q3 18 3 34z" />
    <glyph glyph-name="Ubreve" unicode="&#x16c;" horiz-adv-x="620" 
d="M347 690q-28 25 -28 72q0 6 24 11t44 5q15 0 15 -3q3 -25 21 -38.5t42 -13.5q19 0 37.5 12t30.5 36q3 3 6 3q4 0 8 -2t3 -4q-22 -49 -59 -76t-74 -27q-42 0 -70 25zM562 535q0 37 -17 57.5t-49 20.5q-3 0 -2.5 6t2.5 6l44 -1q34 -2 54 -2t52 2l38 1q4 0 3.5 -6t-3.5 -6
q-36 0 -61.5 -32.5t-34.5 -86.5l-53 -302q-17 -95 -88 -150.5t-170 -55.5q-91 0 -144 46t-53 126q0 23 4 43l62 346q4 26 4 33q0 20 -12 26.5t-43 6.5q-3 0 -3 6t2 6l49 -1q40 -2 64 -2q28 0 72 2l44 1q2 0 2 -6t-2 -6q-41 0 -56 -15.5t-23 -59.5l-55 -309q-6 -37 -6 -67
q0 -71 33.5 -105t96.5 -34q76 0 127 46.5t65 128.5l54 303q3 18 3 34z" />
    <glyph glyph-name="uni01D3" unicode="&#x1d3;" horiz-adv-x="620" 
d="M328 791v1q0 2 3 4.5t5 1.5l94 -39l110 39q2 1 5.5 -2.5t0.5 -4.5l-116 -116q-4 -4 -10 -4q-5 0 -8 4zM562 535q0 37 -17 57.5t-49 20.5q-3 0 -2.5 6t2.5 6l44 -1q34 -2 54 -2t52 2l38 1q4 0 3.5 -6t-3.5 -6q-36 0 -61.5 -32.5t-34.5 -86.5l-53 -302q-17 -95 -88 -150.5
t-170 -55.5q-91 0 -144 46t-53 126q0 23 4 43l62 346q4 26 4 33q0 20 -12 26.5t-43 6.5q-3 0 -3 6t2 6l49 -1q40 -2 64 -2q28 0 72 2l44 1q2 0 2 -6t-2 -6q-41 0 -56 -15.5t-23 -59.5l-55 -309q-6 -37 -6 -67q0 -71 33.5 -105t96.5 -34q76 0 127 46.5t65 128.5l54 303
q3 18 3 34z" />
    <glyph glyph-name="Ucircumflex" unicode="&#xdb;" horiz-adv-x="620" 
d="M318 660q-3 0 -5 2.5t0 4.5l116 115q5 5 9 5q6 0 9 -5l83 -115l1 -2q0 -2 -3 -4t-5 -1l-94 38l-110 -38h-1zM562 535q0 37 -17 57.5t-49 20.5q-3 0 -2.5 6t2.5 6l44 -1q34 -2 54 -2t52 2l38 1q4 0 3.5 -6t-3.5 -6q-36 0 -61.5 -32.5t-34.5 -86.5l-53 -302
q-17 -95 -88 -150.5t-170 -55.5q-91 0 -144 46t-53 126q0 23 4 43l62 346q4 26 4 33q0 20 -12 26.5t-43 6.5q-3 0 -3 6t2 6l49 -1q40 -2 64 -2q28 0 72 2l44 1q2 0 2 -6t-2 -6q-41 0 -56 -15.5t-23 -59.5l-55 -309q-6 -37 -6 -67q0 -71 33.5 -105t96.5 -34q76 0 127 46.5
t65 128.5l54 303q3 18 3 34z" />
    <glyph glyph-name="Udieresis" unicode="&#xdc;" horiz-adv-x="620" 
d="M310.5 717.5q-14.5 14.5 -14.5 40.5q0 24 15 38t40 14t38.5 -14t13.5 -38q0 -26 -13.5 -40.5t-38.5 -14.5q-26 0 -40.5 14.5zM485 717.5q-14 14.5 -14 40.5q0 24 14.5 37.5t39.5 13.5t38.5 -13.5t13.5 -37.5q0 -26 -13.5 -40.5t-38.5 -14.5q-26 0 -40 14.5zM562 535
q0 37 -17 57.5t-49 20.5q-3 0 -2.5 6t2.5 6l44 -1q34 -2 54 -2t52 2l38 1q4 0 3.5 -6t-3.5 -6q-36 0 -61.5 -32.5t-34.5 -86.5l-53 -302q-17 -95 -88 -150.5t-170 -55.5q-91 0 -144 46t-53 126q0 23 4 43l62 346q4 26 4 33q0 20 -12 26.5t-43 6.5q-3 0 -3 6t2 6l49 -1
q40 -2 64 -2q28 0 72 2l44 1q2 0 2 -6t-2 -6q-41 0 -56 -15.5t-23 -59.5l-55 -309q-6 -37 -6 -67q0 -71 33.5 -105t96.5 -34q76 0 127 46.5t65 128.5l54 303q3 18 3 34z" />
    <glyph glyph-name="uni01D7" unicode="&#x1d7;" horiz-adv-x="620" 
d="M349 807q-4 0 -5 4.5t2 6.5q30 22 84 69q39 33 41 35q6 5 36.5 -3.5t54 -20t11.5 -13.5q-62 -15 -113.5 -33.5t-108.5 -43.5zM317 694.5q-14 14.5 -14 40.5q0 24 14.5 37.5t39.5 13.5q24 0 37.5 -13.5t13.5 -37.5q0 -26 -13.5 -40.5t-37.5 -14.5q-26 0 -40 14.5z
M476 694.5q-14 14.5 -14 40.5q0 24 14.5 37.5t39.5 13.5q24 0 37.5 -13.5t13.5 -37.5q0 -26 -13.5 -40.5t-37.5 -14.5q-26 0 -40 14.5zM562 535q0 37 -17 57.5t-49 20.5q-3 0 -2.5 6t2.5 6l44 -1q34 -2 54 -2t52 2l38 1q4 0 3.5 -6t-3.5 -6q-36 0 -61.5 -32.5t-34.5 -86.5
l-53 -302q-17 -95 -88 -150.5t-170 -55.5q-91 0 -144 46t-53 126q0 23 4 43l62 346q4 26 4 33q0 20 -12 26.5t-43 6.5q-3 0 -3 6t2 6l49 -1q40 -2 64 -2q28 0 72 2l44 1q2 0 2 -6t-2 -6q-41 0 -56 -15.5t-23 -59.5l-55 -309q-6 -37 -6 -67q0 -71 33.5 -105t96.5 -34
q76 0 127 46.5t65 128.5l54 303q3 18 3 34z" />
    <glyph glyph-name="uni01D9" unicode="&#x1d9;" horiz-adv-x="620" 
d="M342.5 802.5q-3.5 3.5 -0.5 4.5l116 116q5 5 9 5q6 0 9 -5l83 -116q1 0 1 -2t-3 -4t-5 -1l-94 39l-110 -39q-2 -1 -5.5 2.5zM317 694.5q-14 14.5 -14 40.5q0 24 14.5 37.5t39.5 13.5q24 0 37.5 -13.5t13.5 -37.5q0 -26 -13.5 -40.5t-37.5 -14.5q-26 0 -40 14.5z
M476 694.5q-14 14.5 -14 40.5q0 24 14.5 37.5t39.5 13.5q24 0 37.5 -13.5t13.5 -37.5q0 -26 -13.5 -40.5t-37.5 -14.5q-26 0 -40 14.5zM562 535q0 37 -17 57.5t-49 20.5q-3 0 -2.5 6t2.5 6l44 -1q34 -2 54 -2t52 2l38 1q4 0 3.5 -6t-3.5 -6q-36 0 -61.5 -32.5t-34.5 -86.5
l-53 -302q-17 -95 -88 -150.5t-170 -55.5q-91 0 -144 46t-53 126q0 23 4 43l62 346q4 26 4 33q0 20 -12 26.5t-43 6.5q-3 0 -3 6t2 6l49 -1q40 -2 64 -2q28 0 72 2l44 1q2 0 2 -6t-2 -6q-41 0 -56 -15.5t-23 -59.5l-55 -309q-6 -37 -6 -67q0 -71 33.5 -105t96.5 -34
q76 0 127 46.5t65 128.5l54 303q3 18 3 34z" />
    <glyph glyph-name="uni01DB" unicode="&#x1db;" horiz-adv-x="620" 
d="M450.5 835.5q-38.5 12.5 -102.5 31.5q-12 3 7 12.5t49.5 17.5t45.5 8q7 0 9 -2q25 -28 54 -55l37 -36q1 -1 1 -3q0 -3 -3.5 -5t-7.5 -1q-51 20 -89.5 32.5zM317 694.5q-14 14.5 -14 40.5q0 24 14.5 37.5t39.5 13.5q24 0 37.5 -13.5t13.5 -37.5q0 -26 -13.5 -40.5
t-37.5 -14.5q-26 0 -40 14.5zM476 694.5q-14 14.5 -14 40.5q0 24 14.5 37.5t39.5 13.5q24 0 37.5 -13.5t13.5 -37.5q0 -26 -13.5 -40.5t-37.5 -14.5q-26 0 -40 14.5zM562 535q0 37 -17 57.5t-49 20.5q-3 0 -2.5 6t2.5 6l44 -1q34 -2 54 -2t52 2l38 1q4 0 3.5 -6t-3.5 -6
q-36 0 -61.5 -32.5t-34.5 -86.5l-53 -302q-17 -95 -88 -150.5t-170 -55.5q-91 0 -144 46t-53 126q0 23 4 43l62 346q4 26 4 33q0 20 -12 26.5t-43 6.5q-3 0 -3 6t2 6l49 -1q40 -2 64 -2q28 0 72 2l44 1q2 0 2 -6t-2 -6q-41 0 -56 -15.5t-23 -59.5l-55 -309q-6 -37 -6 -67
q0 -71 33.5 -105t96.5 -34q76 0 127 46.5t65 128.5l54 303q3 18 3 34z" />
    <glyph glyph-name="uni01D5" unicode="&#x1d5;" horiz-adv-x="620" 
d="M321 835q-3 6 -3 14t3 14t7 6h228q5 0 8 -6t3 -14t-3 -14t-8 -6h-228q-4 0 -7 6zM307 694.5q-14 14.5 -14 40.5q0 24 14.5 37.5t39.5 13.5q24 0 37.5 -13.5t13.5 -37.5q0 -26 -13.5 -40.5t-37.5 -14.5q-26 0 -40 14.5zM466 694.5q-14 14.5 -14 40.5q0 24 14.5 37.5
t39.5 13.5q24 0 37.5 -13.5t13.5 -37.5q0 -26 -13.5 -40.5t-37.5 -14.5q-26 0 -40 14.5zM562 535q0 37 -17 57.5t-49 20.5q-3 0 -2.5 6t2.5 6l44 -1q34 -2 54 -2t52 2l38 1q4 0 3.5 -6t-3.5 -6q-36 0 -61.5 -32.5t-34.5 -86.5l-53 -302q-17 -95 -88 -150.5t-170 -55.5
q-91 0 -144 46t-53 126q0 23 4 43l62 346q4 26 4 33q0 20 -12 26.5t-43 6.5q-3 0 -3 6t2 6l49 -1q40 -2 64 -2q28 0 72 2l44 1q2 0 2 -6t-2 -6q-41 0 -56 -15.5t-23 -59.5l-55 -309q-6 -37 -6 -67q0 -71 33.5 -105t96.5 -34q76 0 127 46.5t65 128.5l54 303q3 18 3 34z" />
    <glyph glyph-name="uni1EE4" unicode="&#x1ee4;" horiz-adv-x="620" 
d="M562 535q0 37 -17 57.5t-49 20.5q-3 0 -2.5 6t2.5 6l44 -1q34 -2 54 -2t52 2l38 1q4 0 3.5 -6t-3.5 -6q-36 0 -61.5 -32.5t-34.5 -86.5l-53 -302q-17 -95 -88 -150.5t-170 -55.5q-91 0 -144 46t-53 126q0 23 4 43l62 346q4 26 4 33q0 20 -12 26.5t-43 6.5q-3 0 -3 6t2 6
l49 -1q40 -2 64 -2q28 0 72 2l44 1q2 0 2 -6t-2 -6q-41 0 -56 -15.5t-23 -59.5l-55 -309q-6 -37 -6 -67q0 -71 33.5 -105t96.5 -34q76 0 127 46.5t65 128.5l54 303q3 18 3 34zM212.5 -188q-15.5 15 -15.5 43q0 24 15.5 39t41.5 15t40.5 -15t14.5 -39q0 -28 -14.5 -43
t-40.5 -15t-41.5 15z" />
    <glyph glyph-name="Ugrave" unicode="&#xd9;" horiz-adv-x="620" 
d="M291 756q-12 2 11.5 13.5t54 20t35.5 3.5l47 -40q44 -38 78 -64q3 -1 3 -4t-2 -5t-5 -1q-112 50 -222 77zM562 535q0 37 -17 57.5t-49 20.5q-3 0 -2.5 6t2.5 6l44 -1q34 -2 54 -2t52 2l38 1q4 0 3.5 -6t-3.5 -6q-36 0 -61.5 -32.5t-34.5 -86.5l-53 -302
q-17 -95 -88 -150.5t-170 -55.5q-91 0 -144 46t-53 126q0 23 4 43l62 346q4 26 4 33q0 20 -12 26.5t-43 6.5q-3 0 -3 6t2 6l49 -1q40 -2 64 -2q28 0 72 2l44 1q2 0 2 -6t-2 -6q-41 0 -56 -15.5t-23 -59.5l-55 -309q-6 -37 -6 -67q0 -71 33.5 -105t96.5 -34q76 0 127 46.5
t65 128.5l54 303q3 18 3 34z" />
    <glyph glyph-name="uni1EE6" unicode="&#x1ee6;" horiz-adv-x="620" 
d="M416.5 650.5q-5.5 -0.5 -6.5 2.5q-2 16 -2 22q0 16 3.5 28.5t10.5 32.5q7 17 10.5 29t3.5 26q0 35 -28 35q-14 0 -36 -10h-2q-3 0 -5.5 3t0.5 6q36 28 82 28q32 0 51 -14t19 -39q0 -21 -13 -38.5t-39 -43.5q-22 -22 -32.5 -36t-10.5 -29q0 -2 -5.5 -2.5zM562 535
q0 37 -17 57.5t-49 20.5q-3 0 -2.5 6t2.5 6l44 -1q34 -2 54 -2t52 2l38 1q4 0 3.5 -6t-3.5 -6q-36 0 -61.5 -32.5t-34.5 -86.5l-53 -302q-17 -95 -88 -150.5t-170 -55.5q-91 0 -144 46t-53 126q0 23 4 43l62 346q4 26 4 33q0 20 -12 26.5t-43 6.5q-3 0 -3 6t2 6l49 -1
q40 -2 64 -2q28 0 72 2l44 1q2 0 2 -6t-2 -6q-41 0 -56 -15.5t-23 -59.5l-55 -309q-6 -37 -6 -67q0 -71 33.5 -105t96.5 -34q76 0 127 46.5t65 128.5l54 303q3 18 3 34z" />
    <glyph glyph-name="Uhorn" unicode="&#x1af;" horiz-adv-x="621" 
d="M535 192q-17 -95 -88 -150.5t-170 -55.5q-91 0 -144 46t-53 126q0 23 4 43l62 346q4 26 4 33q0 20 -12 26.5t-43 6.5q-3 0 -3 6t2 6l49 -1q40 -2 64 -2q28 0 72 2l44 1q2 0 2 -6t-2 -6q-41 0 -56 -15.5t-23 -59.5l-55 -309q-6 -36 -6 -65q0 -72 33.5 -106.5t94.5 -34.5
q78 0 129 46.5t65 128.5l54 303q3 18 3 34q0 37 -17 57.5t-49 20.5q-3 0 -2.5 6t2.5 6l44 -1q34 -2 54 -2q43 0 70 10.5t28 32.5q1 8 -5 24q-6 14 -6 25q0 7 1 10q4 20 18.5 31t31.5 11q19 0 29 -13t10 -34q0 -9 -1 -14q-5 -26 -22 -44.5t-35.5 -28t-50.5 -23.5
q-29 -13 -46 -35.5t-28 -79.5z" />
    <glyph glyph-name="uni1EE8" unicode="&#x1ee8;" horiz-adv-x="621" 
d="M313 678q-4 0 -5.5 4.5t1.5 6.5q31 22 87 70q13 12 39 34q5 4 35.5 -4.5t54 -19.5t11.5 -13q-118 -30 -222 -78h-1zM535 192q-17 -95 -88 -150.5t-170 -55.5q-91 0 -144 46t-53 126q0 23 4 43l62 346q4 26 4 33q0 20 -12 26.5t-43 6.5q-3 0 -3 6t2 6l49 -1q40 -2 64 -2
q28 0 72 2l44 1q2 0 2 -6t-2 -6q-41 0 -56 -15.5t-23 -59.5l-55 -309q-6 -36 -6 -65q0 -72 33.5 -106.5t94.5 -34.5q78 0 129 46.5t65 128.5l54 303q3 18 3 34q0 37 -17 57.5t-49 20.5q-3 0 -2.5 6t2.5 6l44 -1q34 -2 54 -2q43 0 70 10.5t28 32.5q1 8 -5 24q-6 14 -6 25
q0 7 1 10q4 20 18.5 31t31.5 11q19 0 29 -13t10 -34q0 -9 -1 -14q-5 -26 -22 -44.5t-35.5 -28t-50.5 -23.5q-29 -13 -46 -35.5t-28 -79.5z" />
    <glyph glyph-name="uni1EF0" unicode="&#x1ef0;" horiz-adv-x="621" 
d="M535 192q-17 -95 -88 -150.5t-170 -55.5q-91 0 -144 46t-53 126q0 23 4 43l62 346q4 26 4 33q0 20 -12 26.5t-43 6.5q-3 0 -3 6t2 6l49 -1q40 -2 64 -2q28 0 72 2l44 1q2 0 2 -6t-2 -6q-41 0 -56 -15.5t-23 -59.5l-55 -309q-6 -36 -6 -65q0 -72 33.5 -106.5t94.5 -34.5
q78 0 129 46.5t65 128.5l54 303q3 18 3 34q0 37 -17 57.5t-49 20.5q-3 0 -2.5 6t2.5 6l44 -1q34 -2 54 -2q43 0 70 10.5t28 32.5q1 8 -5 24q-6 14 -6 25q0 7 1 10q4 20 18.5 31t31.5 11q19 0 29 -13t10 -34q0 -9 -1 -14q-5 -26 -22 -44.5t-35.5 -28t-50.5 -23.5
q-29 -13 -46 -35.5t-28 -79.5zM194.5 -188q-15.5 15 -15.5 43q0 24 15.5 39t41.5 15t40.5 -15t14.5 -39q0 -28 -14.5 -43t-40.5 -15t-41.5 15z" />
    <glyph glyph-name="uni1EEA" unicode="&#x1eea;" horiz-adv-x="621" 
d="M289 756q-12 2 11.5 13.5t54 20t35.5 3.5l47 -40q44 -38 78 -64q3 -1 3 -4t-2 -5t-5 -1q-112 50 -222 77zM535 192q-17 -95 -88 -150.5t-170 -55.5q-91 0 -144 46t-53 126q0 23 4 43l62 346q4 26 4 33q0 20 -12 26.5t-43 6.5q-3 0 -3 6t2 6l49 -1q40 -2 64 -2q28 0 72 2
l44 1q2 0 2 -6t-2 -6q-41 0 -56 -15.5t-23 -59.5l-55 -309q-6 -36 -6 -65q0 -72 33.5 -106.5t94.5 -34.5q78 0 129 46.5t65 128.5l54 303q3 18 3 34q0 37 -17 57.5t-49 20.5q-3 0 -2.5 6t2.5 6l44 -1q34 -2 54 -2q43 0 70 10.5t28 32.5q1 8 -5 24q-6 14 -6 25q0 7 1 10
q4 20 18.5 31t31.5 11q19 0 29 -13t10 -34q0 -9 -1 -14q-5 -26 -22 -44.5t-35.5 -28t-50.5 -23.5q-29 -13 -46 -35.5t-28 -79.5z" />
    <glyph glyph-name="uni1EEC" unicode="&#x1eec;" horiz-adv-x="621" 
d="M414.5 650.5q-5.5 -0.5 -6.5 2.5q-2 16 -2 22q0 16 3.5 28.5t10.5 32.5q7 17 10.5 29t3.5 26q0 35 -28 35q-14 0 -36 -10h-2q-3 0 -5.5 3t0.5 6q36 28 82 28q32 0 51 -14t19 -39q0 -21 -13 -38.5t-39 -43.5q-22 -22 -32.5 -36t-10.5 -29q0 -2 -5.5 -2.5zM535 192
q-17 -95 -88 -150.5t-170 -55.5q-91 0 -144 46t-53 126q0 23 4 43l62 346q4 26 4 33q0 20 -12 26.5t-43 6.5q-3 0 -3 6t2 6l49 -1q40 -2 64 -2q28 0 72 2l44 1q2 0 2 -6t-2 -6q-41 0 -56 -15.5t-23 -59.5l-55 -309q-6 -36 -6 -65q0 -72 33.5 -106.5t94.5 -34.5
q78 0 129 46.5t65 128.5l54 303q3 18 3 34q0 37 -17 57.5t-49 20.5q-3 0 -2.5 6t2.5 6l44 -1q34 -2 54 -2q43 0 70 10.5t28 32.5q1 8 -5 24q-6 14 -6 25q0 7 1 10q4 20 18.5 31t31.5 11q19 0 29 -13t10 -34q0 -9 -1 -14q-5 -26 -22 -44.5t-35.5 -28t-50.5 -23.5
q-29 -13 -46 -35.5t-28 -79.5z" />
    <glyph glyph-name="uni1EEE" unicode="&#x1eee;" horiz-adv-x="621" 
d="M294 709q-2 0 -4.5 2.5t-1.5 4.5q22 34 46 57.5t53 23.5q11 0 47 -10q18 -6 38 -10.5t36 -4.5q21 0 34.5 6t28.5 21q0 1 2 1t4 -3t1 -5q-30 -48 -49.5 -64t-45.5 -16q-19 0 -56 11q-17 5 -35 9t-34 4q-24 0 -34.5 -5t-28.5 -22h-1zM535 192q-17 -95 -88 -150.5
t-170 -55.5q-91 0 -144 46t-53 126q0 23 4 43l62 346q4 26 4 33q0 20 -12 26.5t-43 6.5q-3 0 -3 6t2 6l49 -1q40 -2 64 -2q28 0 72 2l44 1q2 0 2 -6t-2 -6q-41 0 -56 -15.5t-23 -59.5l-55 -309q-6 -36 -6 -65q0 -72 33.5 -106.5t94.5 -34.5q78 0 129 46.5t65 128.5l54 303
q3 18 3 34q0 37 -17 57.5t-49 20.5q-3 0 -2.5 6t2.5 6l44 -1q34 -2 54 -2q43 0 70 10.5t28 32.5q1 8 -5 24q-6 14 -6 25q0 7 1 10q4 20 18.5 31t31.5 11q19 0 29 -13t10 -34q0 -9 -1 -14q-5 -26 -22 -44.5t-35.5 -28t-50.5 -23.5q-29 -13 -46 -35.5t-28 -79.5z" />
    <glyph glyph-name="Uhungarumlaut" unicode="&#x170;" horiz-adv-x="620" 
d="M288 666q-3 0 -4 4.5t1 7.5l38 43q41 44 64 78q2 4 12 4q15 0 37.5 -6t35.5 -14t5 -15q-19 -10 -35 -18t-29 -15q-80 -37 -123 -68zM428 666q-2 0 -3.5 4.5t1.5 7.5q-3 -3 40 46q39 42 61 75q2 3 11 3q15 0 38 -6t36.5 -14t5.5 -14q-72 -34 -110.5 -53.5t-77.5 -47.5z
M562 535q0 37 -17 57.5t-49 20.5q-3 0 -2.5 6t2.5 6l44 -1q34 -2 54 -2t52 2l38 1q4 0 3.5 -6t-3.5 -6q-36 0 -61.5 -32.5t-34.5 -86.5l-53 -302q-17 -95 -88 -150.5t-170 -55.5q-91 0 -144 46t-53 126q0 23 4 43l62 346q4 26 4 33q0 20 -12 26.5t-43 6.5q-3 0 -3 6t2 6
l49 -1q40 -2 64 -2q28 0 72 2l44 1q2 0 2 -6t-2 -6q-41 0 -56 -15.5t-23 -59.5l-55 -309q-6 -37 -6 -67q0 -71 33.5 -105t96.5 -34q76 0 127 46.5t65 128.5l54 303q3 18 3 34z" />
    <glyph glyph-name="Umacron" unicode="&#x16a;" horiz-adv-x="620" 
d="M280 718.5q-3 5.5 -3 13.5q0 7 3 12.5t7 5.5h251q5 0 8 -5.5t3 -12.5q0 -8 -3 -13.5t-8 -5.5h-251q-4 0 -7 5.5zM562 535q0 37 -17 57.5t-49 20.5q-3 0 -2.5 6t2.5 6l44 -1q34 -2 54 -2t52 2l38 1q4 0 3.5 -6t-3.5 -6q-36 0 -61.5 -32.5t-34.5 -86.5l-53 -302
q-17 -95 -88 -150.5t-170 -55.5q-91 0 -144 46t-53 126q0 23 4 43l62 346q4 26 4 33q0 20 -12 26.5t-43 6.5q-3 0 -3 6t2 6l49 -1q40 -2 64 -2q28 0 72 2l44 1q2 0 2 -6t-2 -6q-41 0 -56 -15.5t-23 -59.5l-55 -309q-6 -37 -6 -67q0 -71 33.5 -105t96.5 -34q76 0 127 46.5
t65 128.5l54 303q3 18 3 34z" />
    <glyph glyph-name="Uogonek" unicode="&#x172;" horiz-adv-x="620" 
d="M687.5 619q-0.5 -6 -3.5 -6q-36 0 -61.5 -32.5t-34.5 -86.5l-53 -302q-14 -79 -66 -131t-129 -69q-33 -42 -50.5 -78.5t-17.5 -77.5q0 -30 12.5 -49t37.5 -19t47 20l1 1q3 0 5.5 -4t0.5 -6q-29 -29 -54 -41.5t-53 -12.5q-40 0 -63 23.5t-23 60.5q0 45 32.5 87t94.5 92
q-22 -2 -33 -2q-91 0 -144 46t-53 126q0 23 4 43l62 346q4 26 4 33q0 20 -12 26.5t-43 6.5q-3 0 -3 6t2 6l49 -1q40 -2 64 -2q28 0 72 2l44 1q2 0 2 -6t-2 -6q-41 0 -56 -15.5t-23 -59.5l-55 -309q-6 -37 -6 -67q0 -71 33.5 -105t96.5 -34q76 0 127 46.5t65 128.5l54 303
q3 18 3 34q0 37 -17 57.5t-49 20.5q-3 0 -2.5 6t2.5 6l44 -1q34 -2 54 -2t52 2l38 1q4 0 3.5 -6z" />
    <glyph glyph-name="Uring" unicode="&#x16e;" horiz-adv-x="620" 
d="M341 683.5q-29 23.5 -29 56.5q0 36 36 56.5t80 20.5t75.5 -23t31.5 -57q0 -35 -35.5 -56t-80.5 -21q-49 0 -78 23.5zM454.5 685q6.5 11 6.5 35q0 33 -15.5 58t-37.5 25q-23 0 -23 -44q0 -32 13.5 -58.5t35.5 -26.5q14 0 20.5 11zM562 535q0 37 -17 57.5t-49 20.5
q-3 0 -2.5 6t2.5 6l44 -1q34 -2 54 -2t52 2l38 1q4 0 3.5 -6t-3.5 -6q-36 0 -61.5 -32.5t-34.5 -86.5l-53 -302q-17 -95 -88 -150.5t-170 -55.5q-91 0 -144 46t-53 126q0 23 4 43l62 346q4 26 4 33q0 20 -12 26.5t-43 6.5q-3 0 -3 6t2 6l49 -1q40 -2 64 -2q28 0 72 2l44 1
q2 0 2 -6t-2 -6q-41 0 -56 -15.5t-23 -59.5l-55 -309q-6 -37 -6 -67q0 -71 33.5 -105t96.5 -34q76 0 127 46.5t65 128.5l54 303q3 18 3 34z" />
    <glyph glyph-name="Utilde" unicode="&#x168;" horiz-adv-x="620" 
d="M296 709q-2 0 -4.5 2.5t-1.5 4.5q22 34 46 57.5t53 23.5q11 0 47 -10q18 -6 38 -10.5t36 -4.5q21 0 34.5 6t28.5 21q0 1 2 1t4 -3t1 -5q-30 -48 -49.5 -64t-45.5 -16q-19 0 -56 11q-17 5 -35 9t-34 4q-24 0 -34.5 -5t-28.5 -22h-1zM562 535q0 37 -17 57.5t-49 20.5
q-3 0 -2.5 6t2.5 6l44 -1q34 -2 54 -2t52 2l38 1q4 0 3.5 -6t-3.5 -6q-36 0 -61.5 -32.5t-34.5 -86.5l-53 -302q-17 -95 -88 -150.5t-170 -55.5q-91 0 -144 46t-53 126q0 23 4 43l62 346q4 26 4 33q0 20 -12 26.5t-43 6.5q-3 0 -3 6t2 6l49 -1q40 -2 64 -2q28 0 72 2l44 1
q2 0 2 -6t-2 -6q-41 0 -56 -15.5t-23 -59.5l-55 -309q-6 -37 -6 -67q0 -71 33.5 -105t96.5 -34q76 0 127 46.5t65 128.5l54 303q3 18 3 34z" />
    <glyph glyph-name="V" unicode="V" horiz-adv-x="599" 
d="M679 619q0 -6 -4 -6q-34 0 -62 -21t-62 -86l-263 -505q-3 -5 -13 -5q-12 0 -14 5l-131 541q-10 40 -23 55.5t-38 15.5q-3 0 -3 6t3 6l48 -1q32 -2 47 -2q35 0 79 2l45 1q3 0 3 -6t-3 -6q-28 0 -43 -9t-15 -31q0 -9 3 -21l99 -412l187 369q15 30 15 51q0 25 -18 39t-48 14
q-3 0 -3 6t3 6l47 -1q38 -2 72 -2q19 0 45 2l43 1q4 0 4 -6z" />
    <glyph glyph-name="W" unicode="W" horiz-adv-x="833" 
d="M912 619q0 -6 -3 -6q-34 0 -62 -21t-62 -86l-263 -505q-3 -5 -13 -5q-12 0 -14 5l-66 272l-141 -272q-3 -5 -13 -5q-12 0 -14 5l-131 541q-10 40 -23 55.5t-38 15.5q-3 0 -3 6t3 6l48 -1q32 -2 47 -2q30 0 64 2l36 1q4 0 4 -6t-4 -6q-16 0 -27 -9t-11 -30q0 -10 3 -22
l101 -416l90 176l-56 230q-10 41 -20 56t-29 15q-3 0 -3 6t3 6l41 -1q28 -2 42 -2q23 0 49 2l28 1q4 0 4 -6t-4 -6q-11 0 -15 -3t-4 -14q0 -15 7 -44l31 -128l43 85q26 52 26 77q0 27 -31 27q-2 0 -2 6t2 6l28 -1q26 -2 45 -2q15 0 37 2l35 1q4 0 4 -6t-4 -6q-19 0 -34 -7.5
t-33 -30.5t-42 -69l-64 -124l59 -247l190 374q16 31 16 57q0 22 -12 34.5t-35 12.5q-3 0 -3 6t3 6l39 -1q32 -2 60 -2q19 0 45 2l43 1q3 0 3 -6z" />
    <glyph glyph-name="Wacute" unicode="&#x1e82;" horiz-adv-x="833" 
d="M436 678q-4 0 -5 4.5t2 6.5q30 22 84 69q39 33 41 35q6 5 36.5 -3.5t54 -20t11.5 -13.5q-62 -15 -113.5 -33.5t-108.5 -43.5zM912 619q0 -6 -3 -6q-34 0 -62 -21t-62 -86l-263 -505q-3 -5 -13 -5q-12 0 -14 5l-66 272l-141 -272q-3 -5 -13 -5q-12 0 -14 5l-131 541
q-10 40 -23 55.5t-38 15.5q-3 0 -3 6t3 6l48 -1q32 -2 47 -2q30 0 64 2l36 1q4 0 4 -6t-4 -6q-16 0 -27 -9t-11 -30q0 -10 3 -22l101 -416l90 176l-56 230q-10 41 -20 56t-29 15q-3 0 -3 6t3 6l41 -1q28 -2 42 -2q23 0 49 2l28 1q4 0 4 -6t-4 -6q-11 0 -15 -3t-4 -14
q0 -15 7 -44l31 -128l43 85q26 52 26 77q0 27 -31 27q-2 0 -2 6t2 6l28 -1q26 -2 45 -2q15 0 37 2l35 1q4 0 4 -6t-4 -6q-19 0 -34 -7.5t-33 -30.5t-42 -69l-64 -124l59 -247l190 374q16 31 16 57q0 22 -12 34.5t-35 12.5q-3 0 -3 6t3 6l39 -1q32 -2 60 -2q19 0 45 2l43 1
q3 0 3 -6z" />
    <glyph glyph-name="Wcircumflex" unicode="&#x174;" horiz-adv-x="833" 
d="M393 660q-3 0 -5 2.5t0 4.5l116 115q5 5 9 5q6 0 9 -5l83 -115l1 -2q0 -2 -3 -4t-5 -1l-94 38l-110 -38h-1zM912 619q0 -6 -3 -6q-34 0 -62 -21t-62 -86l-263 -505q-3 -5 -13 -5q-12 0 -14 5l-66 272l-141 -272q-3 -5 -13 -5q-12 0 -14 5l-131 541q-10 40 -23 55.5
t-38 15.5q-3 0 -3 6t3 6l48 -1q32 -2 47 -2q30 0 64 2l36 1q4 0 4 -6t-4 -6q-16 0 -27 -9t-11 -30q0 -10 3 -22l101 -416l90 176l-56 230q-10 41 -20 56t-29 15q-3 0 -3 6t3 6l41 -1q28 -2 42 -2q23 0 49 2l28 1q4 0 4 -6t-4 -6q-11 0 -15 -3t-4 -14q0 -15 7 -44l31 -128
l43 85q26 52 26 77q0 27 -31 27q-2 0 -2 6t2 6l28 -1q26 -2 45 -2q15 0 37 2l35 1q4 0 4 -6t-4 -6q-19 0 -34 -7.5t-33 -30.5t-42 -69l-64 -124l59 -247l190 374q16 31 16 57q0 22 -12 34.5t-35 12.5q-3 0 -3 6t3 6l39 -1q32 -2 60 -2q19 0 45 2l43 1q3 0 3 -6z" />
    <glyph glyph-name="Wdieresis" unicode="&#x1e84;" horiz-adv-x="833" 
d="M392 717.5q-14 14.5 -14 40.5q0 24 14.5 37.5t39.5 13.5q24 0 37.5 -13.5t13.5 -37.5q0 -26 -13.5 -40.5t-37.5 -14.5q-26 0 -40 14.5zM551 717.5q-14 14.5 -14 40.5q0 24 14.5 37.5t39.5 13.5q24 0 37.5 -13.5t13.5 -37.5q0 -26 -13.5 -40.5t-37.5 -14.5q-26 0 -40 14.5
zM912 619q0 -6 -3 -6q-34 0 -62 -21t-62 -86l-263 -505q-3 -5 -13 -5q-12 0 -14 5l-66 272l-141 -272q-3 -5 -13 -5q-12 0 -14 5l-131 541q-10 40 -23 55.5t-38 15.5q-3 0 -3 6t3 6l48 -1q32 -2 47 -2q30 0 64 2l36 1q4 0 4 -6t-4 -6q-16 0 -27 -9t-11 -30q0 -10 3 -22
l101 -416l90 176l-56 230q-10 41 -20 56t-29 15q-3 0 -3 6t3 6l41 -1q28 -2 42 -2q23 0 49 2l28 1q4 0 4 -6t-4 -6q-11 0 -15 -3t-4 -14q0 -15 7 -44l31 -128l43 85q26 52 26 77q0 27 -31 27q-2 0 -2 6t2 6l28 -1q26 -2 45 -2q15 0 37 2l35 1q4 0 4 -6t-4 -6q-19 0 -34 -7.5
t-33 -30.5t-42 -69l-64 -124l59 -247l190 374q16 31 16 57q0 22 -12 34.5t-35 12.5q-3 0 -3 6t3 6l39 -1q32 -2 60 -2q19 0 45 2l43 1q3 0 3 -6z" />
    <glyph glyph-name="Wgrave" unicode="&#x1e80;" horiz-adv-x="833" 
d="M394 768.5q19 9.5 49.5 17.5t45.5 8q7 0 9 -2q25 -28 54 -55l37 -36q1 -1 1 -3q0 -3 -3.5 -5t-7.5 -1q-51 20 -89.5 32.5t-102.5 31.5q-12 3 7 12.5zM912 619q0 -6 -3 -6q-34 0 -62 -21t-62 -86l-263 -505q-3 -5 -13 -5q-12 0 -14 5l-66 272l-141 -272q-3 -5 -13 -5
q-12 0 -14 5l-131 541q-10 40 -23 55.5t-38 15.5q-3 0 -3 6t3 6l48 -1q32 -2 47 -2q30 0 64 2l36 1q4 0 4 -6t-4 -6q-16 0 -27 -9t-11 -30q0 -10 3 -22l101 -416l90 176l-56 230q-10 41 -20 56t-29 15q-3 0 -3 6t3 6l41 -1q28 -2 42 -2q23 0 49 2l28 1q4 0 4 -6t-4 -6
q-11 0 -15 -3t-4 -14q0 -15 7 -44l31 -128l43 85q26 52 26 77q0 27 -31 27q-2 0 -2 6t2 6l28 -1q26 -2 45 -2q15 0 37 2l35 1q4 0 4 -6t-4 -6q-19 0 -34 -7.5t-33 -30.5t-42 -69l-64 -124l59 -247l190 374q16 31 16 57q0 22 -12 34.5t-35 12.5q-3 0 -3 6t3 6l39 -1
q32 -2 60 -2q19 0 45 2l43 1q3 0 3 -6z" />
    <glyph glyph-name="X" unicode="X" horiz-adv-x="580" 
d="M632 619q0 -6 -5 -6q-32 0 -73 -27.5t-85 -83.5l-117 -149l103 -270q15 -39 33.5 -55t49.5 -16q4 0 4 -6t-4 -6q-26 0 -40 1l-54 1l-78 -1q-21 -1 -53 -1q-4 0 -3.5 6t3.5 6q18 0 33 7.5t15 21.5q0 2 -2 10l-83 219l-130 -167q-28 -35 -28 -58q0 -33 57 -33q4 0 4 -6
t-4 -6q-31 0 -52 1l-77 1l-40 -1q-13 -1 -38 -1q-4 0 -4 6t4 6q32 0 73 27.5t85 83.5l139 175l-93 244q-14 38 -31 54.5t-42 16.5q-3 0 -3 6t3 6q12 0 38 -2l36 -1q30 0 78 2l50 1q3 0 3 -6t-3 -6q-14 0 -25 -7t-11 -20q0 -5 3 -13l73 -191l108 140q29 38 29 59q0 16 -16 24
t-42 8q-4 0 -4 6t4 6l51 -1q52 -2 79 -2q14 0 40 2l37 1q5 0 5 -6z" />
    <glyph glyph-name="Y" unicode="Y" horiz-adv-x="535" 
d="M608 619q0 -6 -3 -6q-63 0 -136 -109l-126 -191l-41 -232q-4 -19 -4 -34q0 -21 13.5 -28t51.5 -7q3 0 3 -6t-3 -6q-32 0 -50 1l-72 1l-74 -1q-18 -1 -50 -1q-4 0 -4 6t4 6q33 0 49 5t24.5 19.5t13.5 44.5l37 220l-102 241q-16 37 -32.5 54t-36.5 17q-4 0 -4 6t4 6l47 -1
q34 -2 50 -2q23 0 69 2l46 1q4 0 4 -6t-4 -6q-26 0 -37.5 -4.5t-11.5 -16.5q0 -10 4 -19l96 -230l117 183q17 26 17 47q0 18 -12.5 29t-34.5 11q-4 0 -4 6t4 6l49 -1q44 -2 69 -2q15 0 35 2l32 1q3 0 3 -6z" />
    <glyph glyph-name="Yacute" unicode="&#xdd;" horiz-adv-x="535" 
d="M297 678q-4 0 -5 4.5t2 6.5q30 22 84 69q39 33 41 35q6 5 36.5 -3.5t54 -20t11.5 -13.5q-62 -15 -113.5 -33.5t-108.5 -43.5zM608 619q0 -6 -3 -6q-63 0 -136 -109l-126 -191l-41 -232q-4 -19 -4 -34q0 -21 13.5 -28t51.5 -7q3 0 3 -6t-3 -6q-32 0 -50 1l-72 1l-74 -1
q-18 -1 -50 -1q-4 0 -4 6t4 6q33 0 49 5t24.5 19.5t13.5 44.5l37 220l-102 241q-16 37 -32.5 54t-36.5 17q-4 0 -4 6t4 6l47 -1q34 -2 50 -2q23 0 69 2l46 1q4 0 4 -6t-4 -6q-26 0 -37.5 -4.5t-11.5 -16.5q0 -10 4 -19l96 -230l117 183q17 26 17 47q0 18 -12.5 29t-34.5 11
q-4 0 -4 6t4 6l49 -1q44 -2 69 -2q15 0 35 2l32 1q3 0 3 -6z" />
    <glyph glyph-name="Ycircumflex" unicode="&#x176;" horiz-adv-x="535" 
d="M254 660q-3 0 -5 2.5t0 4.5l116 115q5 5 9 5q6 0 9 -5l83 -115l1 -2q0 -2 -3 -4t-5 -1l-94 38l-110 -38h-1zM608 619q0 -6 -3 -6q-63 0 -136 -109l-126 -191l-41 -232q-4 -19 -4 -34q0 -21 13.5 -28t51.5 -7q3 0 3 -6t-3 -6q-32 0 -50 1l-72 1l-74 -1q-18 -1 -50 -1
q-4 0 -4 6t4 6q33 0 49 5t24.5 19.5t13.5 44.5l37 220l-102 241q-16 37 -32.5 54t-36.5 17q-4 0 -4 6t4 6l47 -1q34 -2 50 -2q23 0 69 2l46 1q4 0 4 -6t-4 -6q-26 0 -37.5 -4.5t-11.5 -16.5q0 -10 4 -19l96 -230l117 183q17 26 17 47q0 18 -12.5 29t-34.5 11q-4 0 -4 6t4 6
l49 -1q44 -2 69 -2q15 0 35 2l32 1q3 0 3 -6z" />
    <glyph glyph-name="Ydieresis" unicode="&#x178;" horiz-adv-x="535" 
d="M253 717.5q-14 14.5 -14 40.5q0 24 14.5 37.5t39.5 13.5q24 0 37.5 -13.5t13.5 -37.5q0 -26 -13.5 -40.5t-37.5 -14.5q-26 0 -40 14.5zM412 717.5q-14 14.5 -14 40.5q0 24 14.5 37.5t39.5 13.5q24 0 37.5 -13.5t13.5 -37.5q0 -26 -13.5 -40.5t-37.5 -14.5q-26 0 -40 14.5
zM608 619q0 -6 -3 -6q-63 0 -136 -109l-126 -191l-41 -232q-4 -19 -4 -34q0 -21 13.5 -28t51.5 -7q3 0 3 -6t-3 -6q-32 0 -50 1l-72 1l-74 -1q-18 -1 -50 -1q-4 0 -4 6t4 6q33 0 49 5t24.5 19.5t13.5 44.5l37 220l-102 241q-16 37 -32.5 54t-36.5 17q-4 0 -4 6t4 6l47 -1
q34 -2 50 -2q23 0 69 2l46 1q4 0 4 -6t-4 -6q-26 0 -37.5 -4.5t-11.5 -16.5q0 -10 4 -19l96 -230l117 183q17 26 17 47q0 18 -12.5 29t-34.5 11q-4 0 -4 6t4 6l49 -1q44 -2 69 -2q15 0 35 2l32 1q3 0 3 -6z" />
    <glyph glyph-name="uni1E8E" unicode="&#x1e8e;" horiz-adv-x="535" 
d="M332.5 728.5q-15.5 15.5 -15.5 42.5q0 25 15.5 39.5t41.5 14.5t40.5 -14.5t14.5 -39.5q0 -27 -14.5 -42.5t-40.5 -15.5t-41.5 15.5zM608 619q0 -6 -3 -6q-63 0 -136 -109l-126 -191l-41 -232q-4 -19 -4 -34q0 -21 13.5 -28t51.5 -7q3 0 3 -6t-3 -6q-32 0 -50 1l-72 1
l-74 -1q-18 -1 -50 -1q-4 0 -4 6t4 6q33 0 49 5t24.5 19.5t13.5 44.5l37 220l-102 241q-16 37 -32.5 54t-36.5 17q-4 0 -4 6t4 6l47 -1q34 -2 50 -2q23 0 69 2l46 1q4 0 4 -6t-4 -6q-26 0 -37.5 -4.5t-11.5 -16.5q0 -10 4 -19l96 -230l117 183q17 26 17 47q0 18 -12.5 29
t-34.5 11q-4 0 -4 6t4 6l49 -1q44 -2 69 -2q15 0 35 2l32 1q3 0 3 -6z" />
    <glyph glyph-name="uni1EF4" unicode="&#x1ef4;" horiz-adv-x="535" 
d="M608 619q0 -6 -3 -6q-63 0 -136 -109l-126 -191l-41 -232q-4 -19 -4 -34q0 -21 13.5 -28t51.5 -7q3 0 3 -6t-3 -6q-32 0 -50 1l-72 1l-74 -1q-18 -1 -50 -1q-4 0 -4 6t4 6q33 0 49 5t24.5 19.5t13.5 44.5l37 220l-102 241q-16 37 -32.5 54t-36.5 17q-4 0 -4 6t4 6l47 -1
q34 -2 50 -2q23 0 69 2l46 1q4 0 4 -6t-4 -6q-26 0 -37.5 -4.5t-11.5 -16.5q0 -10 4 -19l96 -230l117 183q17 26 17 47q0 18 -12.5 29t-34.5 11q-4 0 -4 6t4 6l49 -1q44 -2 69 -2q15 0 35 2l32 1q3 0 3 -6zM264.5 -106q14.5 -15 14.5 -39q0 -28 -14.5 -43t-40.5 -15
t-41.5 15t-15.5 43q0 24 15.5 39t41.5 15t40.5 -15z" />
    <glyph glyph-name="Ygrave" unicode="&#x1ef2;" horiz-adv-x="535" 
d="M255 768.5q19 9.5 49.5 17.5t45.5 8q7 0 9 -2q25 -28 54 -55l37 -36q1 -1 1 -3q0 -3 -3.5 -5t-7.5 -1q-51 20 -89.5 32.5t-102.5 31.5q-12 3 7 12.5zM608 619q0 -6 -3 -6q-63 0 -136 -109l-126 -191l-41 -232q-4 -19 -4 -34q0 -21 13.5 -28t51.5 -7q3 0 3 -6t-3 -6
q-32 0 -50 1l-72 1l-74 -1q-18 -1 -50 -1q-4 0 -4 6t4 6q33 0 49 5t24.5 19.5t13.5 44.5l37 220l-102 241q-16 37 -32.5 54t-36.5 17q-4 0 -4 6t4 6l47 -1q34 -2 50 -2q23 0 69 2l46 1q4 0 4 -6t-4 -6q-26 0 -37.5 -4.5t-11.5 -16.5q0 -10 4 -19l96 -230l117 183
q17 26 17 47q0 18 -12.5 29t-34.5 11q-4 0 -4 6t4 6l49 -1q44 -2 69 -2q15 0 35 2l32 1q3 0 3 -6z" />
    <glyph glyph-name="uni1EF6" unicode="&#x1ef6;" horiz-adv-x="535" 
d="M306 816q-3 0 -5.5 3t0.5 6q36 28 82 28q32 0 51 -14t19 -39q0 -21 -13 -38.5t-39 -43.5q-22 -22 -32.5 -36t-10.5 -29q0 -2 -5.5 -2.5t-6.5 2.5q-2 16 -2 22q0 16 3.5 28.5t10.5 32.5q7 17 10.5 29t3.5 26q0 35 -28 35q-14 0 -36 -10h-2zM608 619q0 -6 -3 -6
q-63 0 -136 -109l-126 -191l-41 -232q-4 -19 -4 -34q0 -21 13.5 -28t51.5 -7q3 0 3 -6t-3 -6q-32 0 -50 1l-72 1l-74 -1q-18 -1 -50 -1q-4 0 -4 6t4 6q33 0 49 5t24.5 19.5t13.5 44.5l37 220l-102 241q-16 37 -32.5 54t-36.5 17q-4 0 -4 6t4 6l47 -1q34 -2 50 -2q23 0 69 2
l46 1q4 0 4 -6t-4 -6q-26 0 -37.5 -4.5t-11.5 -16.5q0 -10 4 -19l96 -230l117 183q17 26 17 47q0 18 -12.5 29t-34.5 11q-4 0 -4 6t4 6l49 -1q44 -2 69 -2q15 0 35 2l32 1q3 0 3 -6z" />
    <glyph glyph-name="uni0232" unicode="&#x232;" horiz-adv-x="535" 
d="M252 718q-3 6 -3 14t3 14t7 6h228q5 0 8 -6t3 -14t-3 -14t-8 -6h-228q-4 0 -7 6zM608 619q0 -6 -3 -6q-63 0 -136 -109l-126 -191l-41 -232q-4 -19 -4 -34q0 -21 13.5 -28t51.5 -7q3 0 3 -6t-3 -6q-32 0 -50 1l-72 1l-74 -1q-18 -1 -50 -1q-4 0 -4 6t4 6q33 0 49 5
t24.5 19.5t13.5 44.5l37 220l-102 241q-16 37 -32.5 54t-36.5 17q-4 0 -4 6t4 6l47 -1q34 -2 50 -2q23 0 69 2l46 1q4 0 4 -6t-4 -6q-26 0 -37.5 -4.5t-11.5 -16.5q0 -10 4 -19l96 -230l117 183q17 26 17 47q0 18 -12.5 29t-34.5 11q-4 0 -4 6t4 6l49 -1q44 -2 69 -2
q15 0 35 2l32 1q3 0 3 -6z" />
    <glyph glyph-name="uni1EF8" unicode="&#x1ef8;" horiz-adv-x="535" 
d="M235 685q-2 0 -4 3t-1 5q22 34 46 57.5t54 23.5q10 0 26 -4.5t21 -5.5q49 -15 73 -15q22 0 35.5 6t28.5 21h1q3 0 5 -2.5t1 -4.5q-30 -49 -49.5 -65t-45.5 -16q-16 0 -56 12q-4 1 -26.5 7t-42.5 6q-23 0 -33.5 -4.5t-19 -12t-11.5 -10.5q0 -1 -2 -1zM608 619q0 -6 -3 -6
q-63 0 -136 -109l-126 -191l-41 -232q-4 -19 -4 -34q0 -21 13.5 -28t51.5 -7q3 0 3 -6t-3 -6q-32 0 -50 1l-72 1l-74 -1q-18 -1 -50 -1q-4 0 -4 6t4 6q33 0 49 5t24.5 19.5t13.5 44.5l37 220l-102 241q-16 37 -32.5 54t-36.5 17q-4 0 -4 6t4 6l47 -1q34 -2 50 -2q23 0 69 2
l46 1q4 0 4 -6t-4 -6q-26 0 -37.5 -4.5t-11.5 -16.5q0 -10 4 -19l96 -230l117 183q17 26 17 47q0 18 -12.5 29t-34.5 11q-4 0 -4 6t4 6l49 -1q44 -2 69 -2q15 0 35 2l32 1q3 0 3 -6z" />
    <glyph glyph-name="Z" unicode="Z" horiz-adv-x="557" 
d="M6 0q-4 0 -5 4.5t1 8.5l467 587q5 5 4.5 6.5t-6.5 1.5q-111 0 -171.5 -11t-101 -40.5t-82.5 -91.5l-4 -2q-3 0 -5 2t-1 4l73 186q1 1 4 1t6 -1.5t2 -3.5q-2 -5 -2 -12q0 -9 9.5 -11.5t37.5 -2.5h354q4 0 5.5 -5t-0.5 -8l-462 -585q-4 -5 -3.5 -6.5t5.5 -1.5h102
q102 0 164.5 29.5t112.5 105.5q2 4 7.5 3t4.5 -5l-39 -144q0 -3 -3 -6.5t-6 -3.5q-142 2 -468 2z" />
    <glyph glyph-name="Zacute" unicode="&#x179;" horiz-adv-x="557" 
d="M305 678q-4 0 -5 4.5t2 6.5q30 22 84 69q39 33 41 35q6 5 36.5 -3.5t54 -20t11.5 -13.5q-62 -15 -113.5 -33.5t-108.5 -43.5zM6 0q-4 0 -5 4.5t1 8.5l467 587q5 5 4.5 6.5t-6.5 1.5q-111 0 -171.5 -11t-101 -40.5t-82.5 -91.5l-4 -2q-3 0 -5 2t-1 4l73 186q1 1 4 1
t6 -1.5t2 -3.5q-2 -5 -2 -12q0 -9 9.5 -11.5t37.5 -2.5h354q4 0 5.5 -5t-0.5 -8l-462 -585q-4 -5 -3.5 -6.5t5.5 -1.5h102q102 0 164.5 29.5t112.5 105.5q2 4 7.5 3t4.5 -5l-39 -144q0 -3 -3 -6.5t-6 -3.5q-142 2 -468 2z" />
    <glyph glyph-name="Zcaron" unicode="&#x17d;" horiz-adv-x="557" 
d="M272 791v1q0 2 3 4.5t5 1.5l94 -39l110 39q2 1 5.5 -2.5t0.5 -4.5l-116 -116q-4 -4 -10 -4q-5 0 -8 4zM6 0q-4 0 -5 4.5t1 8.5l467 587q5 5 4.5 6.5t-6.5 1.5q-111 0 -171.5 -11t-101 -40.5t-82.5 -91.5l-4 -2q-3 0 -5 2t-1 4l73 186q1 1 4 1t6 -1.5t2 -3.5q-2 -5 -2 -12
q0 -9 9.5 -11.5t37.5 -2.5h354q4 0 5.5 -5t-0.5 -8l-462 -585q-4 -5 -3.5 -6.5t5.5 -1.5h102q102 0 164.5 29.5t112.5 105.5q2 4 7.5 3t4.5 -5l-39 -144q0 -3 -3 -6.5t-6 -3.5q-142 2 -468 2z" />
    <glyph glyph-name="Zdotaccent" unicode="&#x17b;" horiz-adv-x="557" 
d="M340.5 728.5q-15.5 15.5 -15.5 42.5q0 25 15.5 39.5t41.5 14.5t40.5 -14.5t14.5 -39.5q0 -27 -14.5 -42.5t-40.5 -15.5t-41.5 15.5zM6 0q-4 0 -5 4.5t1 8.5l467 587q5 5 4.5 6.5t-6.5 1.5q-111 0 -171.5 -11t-101 -40.5t-82.5 -91.5l-4 -2q-3 0 -5 2t-1 4l73 186q1 1 4 1
t6 -1.5t2 -3.5q-2 -5 -2 -12q0 -9 9.5 -11.5t37.5 -2.5h354q4 0 5.5 -5t-0.5 -8l-462 -585q-4 -5 -3.5 -6.5t5.5 -1.5h102q102 0 164.5 29.5t112.5 105.5q2 4 7.5 3t4.5 -5l-39 -144q0 -3 -3 -6.5t-6 -3.5q-142 2 -468 2z" />
    <glyph glyph-name="uni1E92" unicode="&#x1e92;" horiz-adv-x="557" 
d="M6 0q-4 0 -5 4.5t1 8.5l467 587q5 5 4.5 6.5t-6.5 1.5q-111 0 -171.5 -11t-101 -40.5t-82.5 -91.5l-4 -2q-3 0 -5 2t-1 4l73 186q1 1 4 1t6 -1.5t2 -3.5q-2 -5 -2 -12q0 -9 9.5 -11.5t37.5 -2.5h354q4 0 5.5 -5t-0.5 -8l-462 -585q-4 -5 -3.5 -6.5t5.5 -1.5h102
q102 0 164.5 29.5t112.5 105.5q2 4 7.5 3t4.5 -5l-39 -144q0 -3 -3 -6.5t-6 -3.5q-142 2 -468 2zM216.5 -188q-15.5 15 -15.5 43q0 24 15.5 39t41.5 15t40.5 -15t14.5 -39q0 -28 -14.5 -43t-40.5 -15t-41.5 15z" />
    <glyph glyph-name="J.acute" horiz-adv-x="317" 
d="M185 678q-4 0 -5 4.5t2 6.5q30 22 84 69q39 33 41 35q6 5 36.5 -3.5t54 -20t11.5 -13.5q-62 -15 -113.5 -33.5t-108.5 -43.5zM-30 -189q-3 5 0 7q45 27 71 81t42 141l89 504q3 20 3 32q0 22 -11.5 29.5t-41.5 7.5q-3 0 -3 6t3 6l45 -1q40 -2 65 -2q29 0 69 2l44 1
q3 0 3 -6t-3 -6q-27 0 -41 -6t-20.5 -20t-12.5 -45l-84 -475q-14 -78 -39.5 -126.5t-66 -78.5t-106.5 -55q-2 -1 -5 4z" />
    <glyph glyph-name="Q.cv01" 
d="M1073 -174q4 0 6 -4t-1 -6q-38 -40 -80.5 -60t-98.5 -20q-70 0 -151 17.5t-207 52.5q-108 31 -178.5 46.5t-126.5 15.5q-41 0 -66 -8l-2 -1q-4 0 -7.5 7t-0.5 9l197 122q-37 -9 -76 -9q-71 0 -122.5 32.5t-78.5 89.5t-27 129q0 30 7 74q16 92 66.5 165.5t125.5 115.5
t159 42q72 0 124.5 -32t80.5 -88.5t28 -129.5q0 -38 -7 -73q-15 -84 -58 -151t-104 -111l-6 -4l-12 -7l-183 -119q27 8 57 8q54 0 112 -13.5t159 -43.5q119 -36 202 -54.5t170 -18.5q37 0 57 6t40 20zM165 270q0 -110 41.5 -183t117.5 -73q71 0 125.5 66.5t73.5 179.5
q8 44 8 97q0 111 -42 183t-117 72q-72 0 -126 -66.5t-73 -179.5q-8 -53 -8 -96z" />
    <glyph glyph-name="Q.cv02" 
d="M1041 -182.5q2 -4.5 -1 -6.5q-91 -31 -178 -31q-259 0 -552 209q-10 -1 -29 -1q-71 0 -122.5 32.5t-78.5 89.5t-27 129q0 30 7 74q16 92 66.5 165.5t125.5 115.5t159 42q72 0 124.5 -32t80.5 -88.5t28 -129.5q0 -38 -7 -73q-18 -100 -73.5 -175t-133.5 -114
q123 -103 256 -159t251 -56q47 0 98 12q4 1 6 -3.5zM165 270q0 -110 41.5 -183t117.5 -73q71 0 125.5 66.5t73.5 179.5q8 44 8 97q0 111 -42 183t-117 72q-72 0 -126 -66.5t-73 -179.5q-8 -53 -8 -96z" />
    <glyph glyph-name="Q.cv03" horiz-adv-x="674" 
d="M1105 -163q2 0 4 -3.5t0 -5.5q-44 -41 -92.5 -61t-113.5 -20q-70 0 -152 19.5t-211 58.5q-123 37 -190 53q-101 -57 -189 -57q-85 0 -85 52q0 40 51 59.5t117 19.5q76 0 110 -6q18 -2 26 -4q65 60 110.5 142t59.5 172q5 37 5 67q0 76 -24 141.5t-69 105t-106 39.5
q-68 0 -118.5 -53t-70.5 -167q-7 -39 -7 -82q0 -69 20 -124.5t58 -87.5t89 -32q16 0 36 3.5t32 9.5h1q4 0 7 -7t-1 -8q-47 -22 -103 -22q-72 0 -126 29.5t-83.5 84t-29.5 126.5q0 34 8 77q17 87 67 150.5t119 96.5t145 33q80 0 138.5 -37.5t89 -101.5t30.5 -143
q0 -29 -7 -73q-17 -98 -76.5 -189.5t-143.5 -159.5q66 -14 174 -45q131 -37 220.5 -56.5t174.5 -19.5q41 0 61 5.5t42 19.5q1 1 3 1zM308 -112l-34 6q-63 9 -103 9q-29 0 -49 -7t-20 -23q0 -14 15.5 -23t46.5 -9q69 0 144 47z" />
    <glyph glyph-name="Q.cv04" 
d="M158.5 20.5q-51.5 32.5 -78.5 89.5t-27 129q0 30 7 74q16 92 66.5 165.5t125.5 115.5t159 42q72 0 124.5 -32t80.5 -88.5t28 -129.5q0 -38 -7 -73q-17 -98 -71 -172t-129.5 -113.5t-155.5 -39.5q-71 0 -122.5 32.5zM449.5 80.5q54.5 66.5 73.5 179.5q8 44 8 97
q0 111 -42 183t-117 72q-72 0 -126 -66.5t-73 -179.5q-8 -53 -8 -96q0 -110 41.5 -183t117.5 -73q71 0 125.5 66.5zM694.5 -254.5q-81.5 21.5 -197.5 61.5q-104 35 -168.5 52.5t-117.5 17.5q-45 0 -86 -29h-1q-2 0 -4.5 4.5t-0.5 5.5q37 31 90.5 51t110.5 20
q54 0 117.5 -17.5t162.5 -53.5q117 -41 195 -62t152 -21q36 0 59 7t50 26q1 1 3 1q5 0 7.5 -4.5t-1.5 -6.5q-94 -74 -217 -74q-72 0 -153.5 21.5z" />
    <glyph glyph-name="Aacute.loclHUN" horiz-adv-x="605" 
d="M357 667q-4 0 -5.5 4t0.5 7q54 67 90 127q2 7 29 -0.5t49 -19.5t12 -17q-91 -41 -172 -100zM577 6q0 -6 -4 -6q-16 0 -50 2q-38 2 -61 2q-22 0 -58 -2q-32 -2 -48 -2q-4 0 -4 6t4 6q30 0 43 9t13 31q0 16 -4 32l-43 211h-144l-91 -166q-26 -47 -26 -73q0 -23 19 -33.5
t58 -10.5q4 0 3.5 -6t-4.5 -6q-13 0 -51 2q-46 2 -71 2q-21 0 -49 -2t-43 -2q-4 0 -4 6t4 6q28 0 66 32t71 92l279 498q2 3 8 3q3 0 6 -1t4 -3l109 -549q6 -33 10.5 -46t16.5 -19.5t37 -6.5q4 0 4 -6zM237 323h123l-33 164z" />
    <glyph glyph-name="Eacute.loclHUN" horiz-adv-x="531" 
d="M321 667q-4 0 -5.5 4t0.5 7q54 67 90 127q2 7 29 -0.5t49 -19.5t12 -17q-91 -41 -172 -100zM525 616l-21 -134q0 -3 -4 -3q-3 0 -5.5 1.5t-2.5 2.5q-4 55 -39 88t-90 33h-18q-29 0 -42 -4.5t-18.5 -16.5t-10.5 -40l-36 -204h113q46 0 70.5 17.5t33.5 58.5q1 5 7 4.5
t5 -5.5q-4 -28 -12 -62q0 -4 -5 -27q-3 -18 -7 -47q-2 -11 -4 -25t-5 -31q-1 -4 -7 -3.5t-5 4.5q2 14 2 20q0 33 -21 50.5t-59 17.5h-111l-40 -226q-3 -18 -3 -30q0 -20 11 -27t40 -7h26q58 0 114 37.5t93 100.5q1 3 7 1.5t4 -3.5q-16 -52 -34 -142q-2 -9 -5 -12t-11 -3
h-415q-3 0 -3 6t3 6q28 0 41.5 5t20 19t12.5 45l81 463q4 19 4 34q0 21 -11.5 28t-41.5 7q-2 0 -2 6t2 6h393q8 0 6 -9z" />
    <glyph glyph-name="Iacute.loclHUN" horiz-adv-x="336" 
d="M212 667q-4 0 -5.5 4t0.5 7q54 67 90 127q2 7 29 -0.5t49 -19.5t12 -17q-91 -41 -172 -100zM22 6q0 6 3 6q27 0 40.5 5t20.5 19t12 45l82 463q4 17 4 33q0 21 -12 28.5t-42 7.5q-3 0 -3 6t3 6l46 -1q40 -2 64 -2q30 0 70 2l43 1q3 0 3 -6t-3 -6q-27 0 -41 -6t-20.5 -20
t-11.5 -45l-82 -461q-4 -19 -4 -34q0 -21 12 -28t42 -7q2 0 2 -6t-2 -6q-28 0 -45 1l-67 1l-65 -1q-17 -1 -46 -1q-3 0 -3 6z" />
    <glyph glyph-name="Oacute.loclHUN" 
d="M370 667q-4 0 -5.5 4t0.5 7q54 67 90 127q2 7 29 -0.5t49 -19.5t12 -17q-91 -41 -172 -100zM158.5 20.5q-51.5 32.5 -78.5 89.5t-27 129q0 30 7 74q16 92 66.5 165.5t125.5 115.5t159 42q72 0 124.5 -32t80.5 -88.5t28 -129.5q0 -38 -7 -73q-17 -98 -71 -172
t-129.5 -113.5t-155.5 -39.5q-71 0 -122.5 32.5zM449.5 80.5q54.5 66.5 73.5 179.5q8 44 8 97q0 111 -42 183t-117 72q-72 0 -126 -66.5t-73 -179.5q-8 -53 -8 -96q0 -110 41.5 -183t117.5 -73q71 0 125.5 66.5z" />
    <glyph glyph-name="Uacute.loclHUN" horiz-adv-x="620" 
d="M384 667q-4 0 -5.5 4t0.5 7q54 67 90 127q2 7 29 -0.5t49 -19.5t12 -17q-91 -41 -172 -100zM562 535q0 37 -17 57.5t-49 20.5q-3 0 -2.5 6t2.5 6l44 -1q34 -2 54 -2t52 2l38 1q4 0 3.5 -6t-3.5 -6q-36 0 -61.5 -32.5t-34.5 -86.5l-53 -302q-17 -95 -88 -150.5t-170 -55.5
q-91 0 -144 46t-53 126q0 23 4 43l62 346q4 26 4 33q0 20 -12 26.5t-43 6.5q-3 0 -3 6t2 6l49 -1q40 -2 64 -2q28 0 72 2l44 1q2 0 2 -6t-2 -6q-41 0 -56 -15.5t-23 -59.5l-55 -309q-6 -37 -6 -67q0 -71 33.5 -105t96.5 -34q76 0 127 46.5t65 128.5l54 303q3 18 3 34z" />
    <glyph glyph-name="I.loclNLD" horiz-adv-x="336" 
d="M22 6q0 6 3 6q27 0 40.5 5t20.5 19t12 45l82 463q4 17 4 33q0 21 -12 28.5t-42 7.5q-3 0 -3 6t3 6l46 -1q40 -2 64 -2q30 0 70 2l43 1q3 0 3 -6t-3 -6q-27 0 -41 -6t-20.5 -20t-11.5 -45l-82 -461q-4 -19 -4 -34q0 -21 12 -28t42 -7q2 0 2 -6t-2 -6q-28 0 -45 1l-67 1
l-65 -1q-17 -1 -46 -1q-3 0 -3 6z" />
    <glyph glyph-name="J.loclNLD" horiz-adv-x="317" 
d="M-30 -189q-3 5 0 7q45 27 71 81t42 141l89 504q3 20 3 32q0 22 -11.5 29.5t-41.5 7.5q-3 0 -3 6t3 6l45 -1q40 -2 65 -2q29 0 69 2l44 1q3 0 3 -6t-3 -6q-27 0 -41 -6t-20.5 -20t-12.5 -45l-84 -475q-14 -78 -39.5 -126.5t-66 -78.5t-106.5 -55q-2 -1 -5 4z" />
    <glyph glyph-name="Cacute.loclPLK" horiz-adv-x="588" 
d="M437 687q-4 0 -8 1.5t-4 3.5l-3 122q0 4 26.5 9t49.5 5q31 0 26 -9l-80 -130q-2 -2 -7 -2zM117 60.5q-64 72.5 -64 180.5q0 32 7 72q18 99 75 172.5t136.5 112t164.5 38.5q40 0 82.5 -8.5t66.5 -20.5q6 -4 7.5 -8t0.5 -15l-16 -134q0 -3 -5 -3t-6 3q-17 75 -61.5 117
t-109.5 42q-87 0 -146.5 -70t-76.5 -193q-6 -42 -6 -82q0 -73 19 -131t55.5 -91.5t85.5 -33.5q50 0 102 37t110 115q1 2 4 2t5.5 -1.5t1.5 -3.5l-27 -115q-3 -12 -6 -16.5t-12 -6.5q-90 -31 -184 -31q-139 0 -203 72.5z" />
    <glyph glyph-name="Nacute.loclPLK" 
d="M417 687q-4 0 -8 1.5t-4 3.5l-3 122q0 4 26.5 9t49.5 5q31 0 26 -9l-80 -130q-2 -2 -7 -2zM712 619q0 -6 -2 -6q-38 0 -65.5 -28t-36.5 -76l-92 -516q0 -3 -5.5 -5.5t-11.5 -2.5q-9 0 -12 6l-288 526l-72 -401q-2 -10 -2 -28q0 -36 18 -56t50 -20q2 0 2 -6t-2 -6
q-26 0 -40 1l-57 1l-54 -1q-15 -1 -44 -1q-3 0 -3 6t3 6q38 0 65.5 28t35.5 76l79 438q-19 33 -37 46t-39 13q-3 0 -3 6t3 6l47 -1q15 -1 40 -1q24 0 41.5 1t23.5 1t9 -3.5t7 -14.5q2 -4 6.5 -13.5t10.5 -20.5l229 -417l64 353q3 17 3 30q0 35 -18 54.5t-50 19.5q-3 0 -3 6
t3 6l36 -1q36 -2 61 -2q18 0 54 2l44 1q2 0 2 -6z" />
    <glyph glyph-name="Oacute.loclPLK" 
d="M415 687q-4 0 -8 1.5t-4 3.5l-3 122q0 4 26.5 9t49.5 5q31 0 26 -9l-80 -130q-2 -2 -7 -2zM158.5 20.5q-51.5 32.5 -78.5 89.5t-27 129q0 30 7 74q16 92 66.5 165.5t125.5 115.5t159 42q72 0 124.5 -32t80.5 -88.5t28 -129.5q0 -38 -7 -73q-17 -98 -71 -172
t-129.5 -113.5t-155.5 -39.5q-71 0 -122.5 32.5zM449.5 80.5q54.5 66.5 73.5 179.5q8 44 8 97q0 111 -42 183t-117 72q-72 0 -126 -66.5t-73 -179.5q-8 -53 -8 -96q0 -110 41.5 -183t117.5 -73q71 0 125.5 66.5z" />
    <glyph glyph-name="Sacute.loclPLK" horiz-adv-x="470" 
d="M325 687q-4 0 -8 1.5t-4 3.5l-3 122q0 4 26.5 9t49.5 5q31 0 26 -9l-80 -130q-2 -2 -7 -2zM39 22q-10 7 -6 19l32 141q0 5 5.5 5t6.5 -5q37 -170 142 -170q49 0 79.5 34.5t30.5 91.5q0 48 -27.5 83t-79.5 75q-38 29 -60 49t-37 47t-15 60q0 14 3 29q16 75 79.5 115
t143.5 40q59 0 118 -24q14 -7 11 -17l-15 -130q-1 -3 -5.5 -3t-5.5 3q-16 70 -51 110t-79 40q-34 0 -56 -18.5t-32 -44t-10 -49.5q0 -30 14 -54t33 -41.5t57 -47.5q59 -46 90 -84t31 -90q0 -17 -2 -26q-14 -76 -77 -124t-165 -48q-81 0 -153 34z" />
    <glyph glyph-name="Zacute.loclPLK" horiz-adv-x="557" 
d="M373 687q-4 0 -8 1.5t-4 3.5l-3 122q0 4 26.5 9t49.5 5q31 0 26 -9l-80 -130q-2 -2 -7 -2zM6 0q-4 0 -5 4.5t1 8.5l467 587q5 5 4.5 6.5t-6.5 1.5q-111 0 -171.5 -11t-101 -40.5t-82.5 -91.5l-4 -2q-3 0 -5 2t-1 4l73 186q1 1 4 1t6 -1.5t2 -3.5q-2 -5 -2 -12
q0 -9 9.5 -11.5t37.5 -2.5h354q4 0 5.5 -5t-0.5 -8l-462 -585q-4 -5 -3.5 -6.5t5.5 -1.5h102q102 0 164.5 29.5t112.5 105.5q2 4 7.5 3t4.5 -5l-39 -144q0 -3 -3 -6.5t-6 -3.5q-142 2 -468 2z" />
    <glyph glyph-name="Q.long" 
d="M1041 -182.5q2 -4.5 -1 -6.5q-91 -31 -178 -31q-259 0 -552 209q-10 -1 -29 -1q-71 0 -122.5 32.5t-78.5 89.5t-27 129q0 30 7 74q16 92 66.5 165.5t125.5 115.5t159 42q72 0 124.5 -32t80.5 -88.5t28 -129.5q0 -38 -7 -73q-18 -100 -73.5 -175t-133.5 -114
q123 -103 256 -159t251 -56q47 0 98 12q4 1 6 -3.5zM165 270q0 -110 41.5 -183t117.5 -73q71 0 125.5 66.5t73.5 179.5q8 44 8 97q0 111 -42 183t-117 72q-72 0 -126 -66.5t-73 -179.5q-8 -53 -8 -96z" />
    <glyph glyph-name="F.short" horiz-adv-x="485" 
d="M522 616l-8 -51l-13 -83q-1 -3 -5 -3q-2 0 -4.5 1.5t-2.5 2.5q-5 56 -40 88.5t-90 32.5h-17q-29 0 -42 -4.5t-18.5 -16.5t-11.5 -40l-38 -216h92q45 0 70 18t34 59q0 3 6 3q2 0 4.5 -1.5t1.5 -3.5q-4 -28 -12 -62q0 -4 -5 -27l-4 -26q-4 -29 -12 -76q-1 -4 -7 -3.5
t-5 4.5q2 14 2 20q0 33 -21 50t-59 17h-90l-38 -214q-3 -16 -3 -27q0 -27 18.5 -36.5t68.5 -9.5q2 0 2 -6t-2 -6q-21 0 -36 1l-113 1l-64 -1q-16 -1 -45 -1q-2 0 -2 6t2 6q28 0 42 5t21 19.5t12 44.5l82 463q4 26 4 33q0 21 -12 28.5t-41 7.5q-3 0 -3 6t3 6h393q8 0 6 -9z
" />
    <glyph glyph-name="R.short" horiz-adv-x="557" 
d="M562 6q0 -6 -4 -6h-145q-6 0 -25.5 41.5t-41 112.5t-36.5 156q-30 -6 -62 -6q-8 0 -12 1l-40 -224q-3 -19 -3 -32q0 -22 11.5 -29.5t43.5 -7.5q4 0 4 -6t-3 -6q-31 0 -48 1l-68 1l-67 -1q-18 -1 -50 -1q-3 0 -3 6t3 6q30 0 45.5 5.5t23.5 20t13 43.5l82 463q4 19 4 34
q0 21 -12.5 28t-44.5 7q-3 0 -3 6t3 6l49 -1q42 -2 66 -2q17 0 31.5 1t25.5 2q29 3 50 3q173 0 173 -107q0 -13 -3 -30q-9 -50 -42.5 -90t-83.5 -64q28 -128 55 -199.5t53.5 -98.5t56.5 -27q4 0 4 -6zM268 331q65 0 100 32.5t46 105.5q4 23 4 45q0 48 -21.5 70.5t-57.5 22.5
q-24 0 -33.5 -3.5t-15.5 -16t-12 -45.5l-37 -208q13 -3 27 -3z" />
    <glyph glyph-name="Racute.short" horiz-adv-x="557" 
d="M246 678q-4 0 -5.5 4.5t1.5 6.5q31 22 87 70q13 12 39 34q5 4 35.5 -4.5t54 -19.5t11.5 -13q-118 -30 -222 -78h-1zM562 6q0 -6 -4 -6h-145q-6 0 -25.5 41.5t-41 112.5t-36.5 156q-30 -6 -62 -6q-8 0 -12 1l-40 -224q-3 -19 -3 -32q0 -22 11.5 -29.5t43.5 -7.5q4 0 4 -6
t-3 -6q-31 0 -48 1l-68 1l-67 -1q-18 -1 -50 -1q-3 0 -3 6t3 6q30 0 45.5 5.5t23.5 20t13 43.5l82 463q4 19 4 34q0 21 -12.5 28t-44.5 7q-3 0 -3 6t3 6l49 -1q42 -2 66 -2q17 0 31.5 1t25.5 2q29 3 50 3q173 0 173 -107q0 -13 -3 -30q-9 -50 -42.5 -90t-83.5 -64
q28 -128 55 -199.5t53.5 -98.5t56.5 -27q4 0 4 -6zM268 331q65 0 100 32.5t46 105.5q4 23 4 45q0 48 -21.5 70.5t-57.5 22.5q-24 0 -33.5 -3.5t-15.5 -16t-12 -45.5l-37 -208q13 -3 27 -3z" />
    </font>
</defs>
</svg>
