<?xml version="1.0" standalone="no"?>
<!DOCTYPE svg PUBLIC "-//W3C//DTD SVG 1.1//EN" "http://www.w3.org/Graphics/SVG/1.1/DTD/svg11.dtd" >
<svg xmlns="http://www.w3.org/2000/svg" xmlns:xlink="http://www.w3.org/1999/xlink" version="1.1">
<metadata>
Created by FontForge 20170812 at Sun Mar 11 22:26:37 2012
 By www-data
Copyright (c) 2011 Milena B Brandao (milenabbrandao@gmail.com), with Reserved Font Name "Fredoka"
</metadata>
<defs>
<font id="FredokaOne-Regular" horiz-adv-x="775" >
  <font-face 
    font-family="Fredoka One"
    font-weight="400"
    font-stretch="normal"
    units-per-em="1000"
    panose-1="2 0 0 0 0 0 0 0 0 0"
    ascent="800"
    descent="-200"
    x-height="527"
    cap-height="733"
    bbox="-132 -236 1183 974"
    underline-thickness="50"
    underline-position="-100"
    unicode-range="U+0020-FB03"
  />
<missing-glyph horiz-adv-x="500" 
 />
    <glyph glyph-name="f_f" unicode="ff" horiz-adv-x="803" 
d="M701 527q69 0 81 -38q6 -19 6 -50t-6.5 -49.5t-20.5 -26.5q-21 -12 -61 -12l-64 4v-268q0 -38 -9.5 -56.5t-29 -24.5t-50.5 -6t-49.5 6.5t-26.5 21t-9.5 26.5t-1.5 35v265q-48 -3 -79 -3l-98 4v-268q0 -38 -9.5 -56.5t-29 -24.5t-50.5 -6t-49.5 6.5t-26.5 21t-9.5 26.5
t-1.5 35v265q-19 -3 -41 -3t-36.5 17t-14.5 58t5 59.5t14 26.5q16 13 40 13l33 -4v53q0 77 55 139.5t159 62.5q23 0 34.5 -1.5t26.5 -8.5q27 -14 27 -78q0 -48 -17 -68q-14 -17 -44 -18q-9 -1 -28 -1q-37 0 -37 -25v-55q54 4 93 4l84 -4v53q0 77 55 139.5t159 62.5
q24 0 35 -1.5t26 -8.5q27 -14 27 -78q0 -48 -17 -68q-14 -17 -43 -18q-10 -1 -29 -1q-37 0 -37 -25v-55z" />
    <glyph glyph-name="fi" unicode="fi" horiz-adv-x="709" 
d="M348 526q69 0 81 -38q6 -19 6 -50t-6.5 -49.5t-20.5 -26.5q-21 -12 -61 -12l-64 4v-268q0 -38 -9.5 -56.5t-29 -24.5t-50.5 -6t-49.5 6.5t-26.5 21t-9.5 26.5t-1.5 35v265h-36q-26 2 -37 12q-19 19 -19 73q0 82 59 82h33v53q0 77 55 139.5t159 62.5q23 0 34.5 -1.5
t26.5 -9.5q27 -13 27 -77q0 -48 -17 -69q-14 -16 -44 -18h-28q-37 0 -37 -25v-55zM494 439q0 23 1.5 34.5t8.5 26.5q14 26 78 26q48 0 68 -17q17 -14 18 -43q1 -10 1 -29v-350q0 -23 -1.5 -34.5t-9.5 -26.5q-13 -26 -77 -26q-63 0 -77 27q-7 15 -8.5 26t-1.5 35v351z
M632 604q-19 -6 -50.5 -6t-50.5 6t-26.5 21t-9 26.5t-1.5 34.5t1.5 34.5t8.5 25.5q14 27 78 27q63 0 76 -27q8 -15 9.5 -26.5t1.5 -34.5t-1.5 -34.5t-9 -26t-26.5 -20.5z" />
    <glyph glyph-name="fl" unicode="fl" horiz-adv-x="774" 
d="M348 526q69 0 81 -38q6 -19 6 -50t-6.5 -49.5t-20.5 -26.5q-21 -12 -61 -12l-64 4v-268q0 -38 -9.5 -56.5t-29 -24.5t-50.5 -6t-49.5 6.5t-26.5 21t-9.5 26.5t-1.5 35v265h-36q-26 2 -37 12q-19 19 -19 73q0 82 59 82h33v53q0 77 55 139.5t159 62.5q23 0 34.5 -1.5
t26.5 -9.5q27 -13 27 -77q0 -48 -17 -69q-14 -16 -44 -18h-28q-37 0 -37 -25v-55zM487 687q0 23 1.5 34.5t9.5 26.5q13 27 77 27q61 0 76 -27q8 -15 9.5 -27t1.5 -35v-463q0 -36 6 -45.5t26.5 -9.5t27.5 -1.5t18 -8.5q19 -13 19 -71q0 -63 -19 -77q-27 -18 -125 -6
q-77 10 -101 51q-27 49 -27 156v476z" />
    <glyph glyph-name="f_f_i" unicode="ffi" horiz-adv-x="1059" 
d="M701 527q69 0 81 -38q6 -19 6 -50t-6.5 -49.5t-20.5 -26.5q-21 -12 -61 -12l-64 4v-268q0 -38 -9.5 -56.5t-29 -24.5t-50.5 -6t-49.5 6.5t-26.5 21t-9.5 26.5t-1.5 35v265q-49 -3 -80 -3l-97 4v-268q0 -38 -9.5 -56.5t-29 -24.5t-50.5 -6t-49.5 6.5t-26.5 21t-9.5 26.5
t-1.5 35v265q-20 -3 -41.5 -3t-36 17t-14.5 58t5 59.5t14 26.5q16 13 40 13l33 -4v53q0 77 55 139.5t159 62.5q23 0 34.5 -1.5t26.5 -8.5q27 -14 27 -78q0 -48 -17 -68q-14 -17 -44 -18q-9 -1 -28 -1q-37 0 -37 -25v-55q53 4 92 4l85 -4v53q0 77 55 139.5t159 62.5
q24 0 35 -1.5t26 -8.5q27 -14 27 -78q0 -48 -17 -68q-14 -17 -43 -18q-10 -1 -29 -1q-37 0 -37 -25v-55zM932 594q-31 0 -50 6t-26.5 21t-9 26.5t-1.5 34.5t1.5 34.5t9.5 25.5q13 26 77 26q62 0 75 -26q8 -15 9.5 -26.5t1.5 -34.5t-1.5 -34.5t-9 -26t-26.5 -20.5t-50 -6z
M882 517q19 6 50.5 6t50 -6t26 -21t9 -26.5t1.5 -35.5v-348q0 -23 -1.5 -34t-9 -25.5t-26.5 -20.5t-50 -6t-50 6t-26.5 20.5t-9 26t-1.5 34.5v349q0 23 1.5 34.5t9 26t26.5 20.5z" />
    <glyph glyph-name="f_t" unicode="ft" horiz-adv-x="814" 
d="M711 350l-65 4v-138q0 -27 8.5 -39t32 -12t36 -1.5t25.5 -9.5q24 -13 24 -67q0 -63 -28 -77q-15 -7 -26.5 -8.5t-33.5 -1.5q-98 0 -155 55t-57 151v148q-54 -3 -92 -3l-97 4v-268q0 -38 -9.5 -56.5t-29 -24.5t-50.5 -6t-49.5 6.5t-26.5 21t-9.5 26.5t-1.5 35v265
q-20 -3 -41.5 -3t-36 17t-14.5 58t5 59.5t14 26.5q16 13 40 13l33 -4v53q0 77 55 139.5t159 62.5q23 0 34.5 -1.5t26.5 -8.5q27 -14 27 -78q0 -48 -17 -68q-14 -17 -44 -18q-9 -1 -28 -1q-37 0 -37 -25v-55q55 4 96 4l93 -4v103q0 23 1.5 34t8.5 24q14 25 78 25q68 0 80 -37
q6 -16 6 -51v-98q44 4 66.5 4t34 -1.5t25.5 -9.5q27 -13 27 -77q0 -63 -27 -77q-15 -7 -26.5 -8.5t-34.5 -1.5z" />
    <glyph glyph-name="t_t" unicode="tt" horiz-adv-x="794" 
d="M691 350l-65 4v-138q0 -27 8.5 -39t32 -12t36 -1.5t25.5 -9.5q24 -13 24 -67q0 -63 -28 -77q-15 -7 -26.5 -8.5t-33.5 -1.5q-100 0 -156 52t-56 154v148q-48 -4 -80 -4l-91 4v-138q0 -27 8.5 -39t32 -12t36 -1.5t26.5 -9.5q23 -13 23 -67q0 -63 -28 -77
q-15 -7 -26.5 -8.5t-33.5 -1.5q-100 0 -156 52t-56 154v148q-20 -3 -41.5 -3t-36 17t-14.5 58t5 59.5t14 26.5q16 13 40 13l33 -4v103q0 23 1.5 34t9.5 24q13 25 77 25q68 0 81 -37q5 -16 5 -51v-95q47 1 89 1l82 -1v100q0 23 1.5 34t8.5 24q14 25 78 25q68 0 80 -37
q6 -16 6 -51v-98q44 4 66.5 4t34 -1.5t25.5 -9.5q27 -13 27 -77q0 -63 -27 -77q-15 -7 -26.5 -8.5t-34.5 -1.5z" />
    <glyph glyph-name="l_l" unicode="ll" horiz-adv-x="626" 
d="M224 177q33 0 49 -17t16 -70t-17 -70.5t-49 -17.5q-101 0 -142 48.5t-41 161.5v477q0 23 1.5 34.5t8.5 26.5q14 26 78 26q61 0 76 -28q8 -14 9.5 -25.5t1.5 -34.5v-480q0 -31 9 -31zM493 183q8 -6 41 -6t55 -17t22 -70t-23.5 -70.5t-65.5 -17.5q-212 0 -212 210l-1 477
q0 23 1.5 34.5t9.5 26.5q15 26 78 26q61 0 76 -28q11 -22 11 -60v-480q0 -19 8 -25z" />
    <glyph glyph-name="j_j" unicode="jj" horiz-adv-x="521" 
d="M125 596q-31 0 -49 6t-25.5 20.5t-9 26t-1.5 34.5t1.5 34t9 25t26 20t49.5 6t49.5 -6t26 -20.5t9 -25.5t1.5 -34t-1.5 -34.5t-9 -25.5t-26.5 -20t-50 -6zM212 439v-413q0 -60 -24 -110t-62 -82q-79 -65 -173 -65q-23 0 -34 1.5t-25 9.5q-26 13 -26 72t21 74t51.5 15
t48 5.5t34.5 28t17 58.5v407q0 24 1.5 34t8.5 25q12 26 77 26q61 0 75 -27q7 -14 8.5 -25t1.5 -34zM394 595q-25 0 -41.5 5t-25.5 11.5t-13 20.5q-5 16 -5 44.5t1.5 39.5t9 25t26 20t49.5 6t49.5 -6t26 -20.5t9 -25.5t1.5 -32.5t-1 -29.5t-5 -22t-13 -20t-26 -11t-42 -5z
M345 518.5q19 5.5 50.5 5.5t49.5 -6t25.5 -20.5t9 -25.5t1.5 -34v-413q0 -124 -49.5 -190.5t-138.5 -66.5q-23 0 -34 1.5t-25 8.5q-26 14 -26 77q0 85 65 85q22 0 29 15t7 77v407q0 24 1.5 34t8.5 25t26 20.5z" />
    <glyph glyph-name=".notdef" horiz-adv-x="500" 
 />
    <glyph glyph-name=".null" horiz-adv-x="0" 
 />
    <glyph glyph-name="nonmarkingreturn" horiz-adv-x="333" 
 />
    <glyph glyph-name="space" unicode=" " horiz-adv-x="253" 
 />
    <glyph glyph-name="exclam" unicode="!" horiz-adv-x="267" 
d="M80.5 179q20.5 7 64 7t63 -19t19.5 -60v-16q0 -24 -1.5 -35.5t-9.5 -27.5q-16 -29 -76.5 -29t-80 19.5t-19.5 75.5q0 39 10 58.5t30.5 26.5zM133 264q-32 0 -51 5t-26.5 18t-9 23t-1.5 31v317q0 21 1.5 31.5t9.5 23.5t27 18.5t51 5.5t51 -5.5t26.5 -19t9 -24t1.5 -31.5
v-317q0 -21 -1.5 -31t-9.5 -22.5t-27 -17.5t-51 -5z" />
    <glyph glyph-name="quotedbl" unicode="&#x22;" horiz-adv-x="429" 
d="M161 472q-22 -91 -57.5 -91t-57 91t-21.5 163q0 63 17 79q21 19 55.5 19t52 -7.5t24.5 -23.5q9 -25 9 -82t-22 -148zM382 472q-22 -91 -57.5 -91t-57 91t-21.5 163q0 77 34 91q17 7 45.5 7t45.5 -7.5t23 -23.5q10 -25 10 -82t-22 -148z" />
    <glyph glyph-name="numbersign" unicode="#" horiz-adv-x="749" 
d="M631 541h51q19 0 27.5 -1.5t16.5 -10.5t8 -26.5t-3.5 -38t-15.5 -35.5t-23 -17t-33 -2h-50l-18 -110h51q19 0 27.5 -1.5t16.5 -10.5t8 -26.5t-3 -34.5t-9.5 -31t-17.5 -20q-16 -8 -45 -8h-50q-10 -62 -12 -77l-2 -11q-4 -22 -6.5 -31t-10.5 -22q-16 -23 -74 -23t-58 37
q0 1 8 52l12 75h-149q-10 -62 -12 -77l-2 -11q-4 -22 -6.5 -31t-10.5 -22q-16 -23 -74 -23t-58 37q0 1 8 52l12 75h-66q-42 0 -50 18q-3 8 -3 23.5t3.5 36t16 35.5t23.5 17t33 2h65l18 110h-66q-43 0 -50 17q-3 9 -3 24t3.5 35.5t16 35.5t23.5 17t33 2h65l17 103
q1 6 2.5 19.5t3 19t4.5 15.5t8.5 14t14.5 10q14 9 51 9t51.5 -10.5t14.5 -31.5q0 -3 -5 -35l-19 -113h149l17 103q1 6 2.5 19.5t3 19t4.5 15.5t8.5 14t14.5 10q14 9 51 9t51.5 -10.5t14.5 -31.5q0 -3 -5 -35zM448 300l18 110h-148l-19 -110h149z" />
    <glyph glyph-name="dollar" unicode="$" horiz-adv-x="475" 
d="M450 243q0 -78 -45 -125t-109 -62v-64q0 -35 -6.5 -49t-19 -19t-33.5 -5t-33.5 5t-17.5 18q-7 17 -7 51v62q-41 9 -74 30t-46 37l-13 17q-21 27 -21 47t34 53q20 19 42.5 19t62.5 -40q31 -38 70 -38q74 0 74 61q0 22 -28 34t-68 21.5t-80 25.5t-68 55t-28 99t38 108
t105 62v56q0 34 6 49q10 24 53 24q27 0 40.5 -11.5t15.5 -24.5t2 -38v-56q28 -6 51 -17t32 -18l9 -8l4 -3q25 -23 25 -38t-23.5 -50t-51.5 -35q-18 0 -30.5 9t-19.5 15t-13 10q-17 11 -43 11t-43 -12.5t-17 -34.5t20.5 -35.5t50.5 -18t66 -15t66 -24.5t50.5 -49.5
t20.5 -88.5z" />
    <glyph glyph-name="percent" unicode="%" horiz-adv-x="838" 
d="M506 321q45 51 125.5 51t123.5 -50t43 -138.5t-43 -137t-122 -48.5t-125.5 50.5t-46.5 136t45 136.5zM629 118q61 0 61 68q0 36 -14.5 51t-46 15t-45.5 -15.5t-14 -51.5t14.5 -51.5t44.5 -15.5zM85 685q45 51 125 51t123.5 -50t43.5 -138t-43.5 -136.5t-122 -48.5
t-125 50t-46.5 135.5t45 136.5zM208 483q60 0 60 67q0 36 -14 51t-45.5 15t-46 -15.5t-14.5 -51t15 -51t45 -15.5zM577 761q13 23 25.5 23t36.5 -13t24 -28q0 -7 -7 -19l-387 -731l-2 -3q-11 -20 -23 -20t-36 12.5t-24 24.5t7 24z" />
    <glyph glyph-name="ampersand" unicode="&#x26;" horiz-adv-x="748" 
d="M646 -1q-87 0 -172 45q-95 -52 -192 -52q-257 0 -257 214q0 111 115 206q-40 89 -40 161q0 100 60 148t161 48t153 -48t52 -131q0 -70 -57 -126q-42 -42 -118 -93q59 -78 128 -132q28 43 39 88q10 44 90 44q34 0 51.5 -9t20 -18.5t1.5 -24.5q-4 -76 -62 -151q15 -3 28 -3
q78 0 78 -79q0 -55 -18 -71t-61 -16zM258 585q0 -36 17 -81q47 30 70.5 50t23.5 38q0 44 -49 44q-62 0 -62 -51zM289 140q25 0 45 4q-58 52 -110 124q-23 -29 -23 -60q0 -68 88 -68z" />
    <glyph glyph-name="quotesingle" unicode="'" horiz-adv-x="208" 
d="M161 472q-22 -91 -57.5 -91t-57 91t-21.5 163q0 63 17 79q21 19 55.5 19t52 -7.5t24.5 -23.5q9 -25 9 -82t-22 -148z" />
    <glyph glyph-name="parenleft" unicode="(" horiz-adv-x="384" 
d="M262.5 -76.5q21.5 -22.5 40.5 -22.5t27.5 -1t19 -7t15 -20t4.5 -37t-4.5 -36.5t-15.5 -19.5q-17 -8 -45 -8q-68 0 -122.5 47.5t-86.5 122.5q-65 154 -65 330q0 175 62 328q32 78 87 126.5t126 48.5q30 0 43 -7q21 -13 21 -58q0 -47 -18 -56q-14 -8 -41 -8h-6
q-39 0 -80 -89q-19 -43 -31.5 -117.5t-12.5 -166.5t12 -166t30.5 -117.5t40 -66z" />
    <glyph glyph-name="parenright" unicode=")" horiz-adv-x="384" 
d="M53.5 -100q8.5 1 27.5 1t40.5 22.5t40.5 66.5q42 99 42 284q0 91 -12.5 165.5t-31.5 117.5q-41 89 -80 89h-6q-27 0 -39 6q-20 11 -20 55.5t16 56t48 11.5q71 0 126 -48.5t87 -126.5q62 -153 62 -328q0 -176 -65 -330q-32 -75 -86.5 -122.5t-122.5 -47.5q-51 0 -60 28
q-5 13 -5 36t4.5 37t15 20t19 7z" />
    <glyph glyph-name="asterisk" unicode="*" horiz-adv-x="503" 
d="M480 579q8 -27 8 -43.5t-10 -29.5t-21 -18t-33 -13l-42 -13l33 -46l8 -12q13 -22 13 -33q0 -29 -39 -57t-56 -28t-28 7q-15 10 -32 34l-29 40l-37 -50q-22 -33 -44.5 -33t-63 29t-40.5 57q0 17 21 46l33 46l-42 13q-36 7 -54 29q-10 13 -10 31t7 40q22 66 58 66
q14 0 27 -4.5l13 -4.5l51 -16v52q0 34 8.5 50t26 21t46.5 5t46.5 -5.5t24.5 -18.5q10 -19 10 -57v-47l49 16q32 10 42 10q35 0 56 -63z" />
    <glyph glyph-name="plus" unicode="+" horiz-adv-x="527" 
d="M343 353h81q35 0 51 -8.5t21.5 -25.5t5.5 -45.5t-5 -45.5t-17 -24q-18 -9 -51 -9h-86v-81q0 -35 -8.5 -51t-25.5 -21.5t-45.5 -5.5t-45.5 5.5t-24 18.5q-9 19 -9 55v80h-87q-33 0 -48 8t-20 25.5t-5 45.5t5.5 45.5t19.5 24.5q19 9 55 9h80v81q0 35 8 51t25.5 21.5
t45.5 5.5t45.5 -5.5t24.5 -18.5q9 -19 9 -55v-80z" />
    <glyph glyph-name="comma" unicode="," horiz-adv-x="238" 
d="M66 179.5q20 6.5 64 6.5t63.5 -19.5t19.5 -75.5q0 -21 -3 -39q-9 -85 -56 -148t-110 -63q-7 0 -12.5 10.5t-5.5 27t4.5 26.5t11.5 12.5t14.5 8t20.5 26.5t15 48q-32 4 -49.5 21.5t-17 57t2 51t10 27.5t28.5 22.5z" />
    <glyph glyph-name="hyphen" unicode="-" horiz-adv-x="433" 
d="M335 139h-238q-56 0 -67 34q-5 18 -5 46t6 45t19 24q18 9 48 9h238q56 0 66 -33q6 -18 6 -46t-5.5 -45.5t-17.5 -24.5q-18 -9 -50 -9z" />
    <glyph glyph-name="period" unicode="." horiz-adv-x="237" 
d="M195 165q17 -17 17 -70v-4q0 -24 -1.5 -35.5t-10.5 -27.5q-15 -29 -75.5 -29t-80 19t-19.5 72v4q0 23 1.5 35t9.5 27q15 30 75.5 30t83.5 -21z" />
    <glyph glyph-name="slash" unicode="/" horiz-adv-x="526" 
d="M176 -8q-8 -17 -12.5 -25t-15 -15.5t-27.5 -7.5t-50 15t-44.5 26.5t-11.5 25.5t12 50l322 673q19 38 34 44q8 4 23.5 4t50.5 -16q54 -26 54 -57q0 -13 -14 -50z" />
    <glyph glyph-name="zero" unicode="0" horiz-adv-x="608" 
d="M182.5 716.5q52.5 27.5 121.5 27.5t120.5 -27t81 -67t47.5 -94q30 -90 30 -191q0 -181 -78 -287q-29 -40 -80.5 -66t-119.5 -26t-120.5 26.5t-82 65.5t-48.5 93q-29 86 -29 195q0 100 23.5 171t52.5 111.5t81.5 68zM303 164q103 0 103 196v6q0 201 -102 201t-102 -201.5
t101 -201.5z" />
    <glyph glyph-name="one" unicode="1" horiz-adv-x="407" 
d="M218 708q26 26 56.5 26t47.5 -5t26 -11.5t14 -21.5q5 -17 5 -53v-557q0 -23 -1.5 -34.5t-9.5 -26.5q-14 -27 -78 -27q-62 0 -77 26q-8 15 -9.5 27.5t-1.5 36.5v357l-13 -12q-41 -31 -70 -31t-60.5 35t-31.5 62t36 59l164 148z" />
    <glyph glyph-name="two" unicode="2" horiz-adv-x="609" 
d="M506 176q41 0 58.5 -9.5t23.5 -29t6 -51t-6.5 -50.5t-21.5 -26q-22 -12 -62 -12h-391q-36 0 -62 27t-26 63q0 54 37.5 99.5t90.5 78t106 64t90.5 71.5t37.5 85q0 9 -7 25.5t-15.5 27t-26.5 19.5t-50 9t-55.5 -23.5t-26.5 -46.5l-4 -23v-6q0 -22 -1.5 -33t-9.5 -25
q-15 -24 -78 -24q-70 0 -83 38q-5 16 -5 51q0 104 74.5 186.5t195 82.5t195.5 -83.5t75 -190.5q0 -57 -25 -108t-60 -82q-74 -66 -132 -89l-25 -10v-5h183z" />
    <glyph glyph-name="three" unicode="3" horiz-adv-x="608" 
d="M496 674q71 -70 71 -157.5t-78 -126.5v-7q10 -5 29.5 -21.5t31.5 -32.5q33 -42 33 -96q0 -107 -80 -176.5t-201 -69.5q-120 0 -200 70q-30 27 -53 71q-8 16 -11 26l-2 10q-11 33 -11 54q0 58 98 58q40 0 53 -10q17 -13 30 -52q10 -32 55 -48q19 -6 42 -6q53 0 78 21.5
t25 48.5t-24.5 47.5t-58 20.5t-45.5 2t-26 10q-27 13 -27 77q0 70 37 83q17 5 52 5q76 0 76 39q0 21 -20 40t-55.5 19t-56.5 -12t-26 -24l-6 -12q-23 -50 -66 -50q-25 0 -55 18q-50 29 -50 67q0 16 23 68q4 9 22 31.5t41.5 39.5t66 31t94.5 14q123 0 194 -70z" />
    <glyph glyph-name="four" unicode="4" horiz-adv-x="592" 
d="M412.5 728.5q19.5 5.5 51 5.5t50.5 -6.5t27 -21t9.5 -26.5t1.5 -35v-556q0 -39 -9.5 -57.5t-29 -24.5t-48.5 -6t-46 5t-26 12t-13 20q-6 17 -6 52v122h-271q-70 0 -83 38q-5 16 -5 43t3 40l83 335q6 23 10.5 35t18 23t34.5 11t46 -7q70 -19 70 -64q0 -16 -7 -42
q-1 -2 -1 -3l-61 -244h163v273q0 23 1.5 34t9.5 25t27.5 19.5z" />
    <glyph glyph-name="five" unicode="5" horiz-adv-x="530" 
d="M156 735l152 -1h94q24 0 35 -1.5t26 -9.5q27 -14 27 -80q0 -60 -25 -73q-14 -8 -24.5 -9.5t-32.5 -1.5h-175q-2 -12 -10 -76q11 2 35 2q95 0 171 -71.5t76 -175t-72 -178t-179 -74.5q-93 0 -168 47q-17 11 -25 19l-8 7q-38 33 -38 60t37 65q30 33 58 33t67 -32
q18 -21 62.5 -21t66 19t21.5 52.5t-23.5 53t-53.5 19.5t-48 -18q-27 -23 -54.5 -23t-63 19t-46.5 30.5t-11 24.5t20 161t21 154t7 21t14.5 27t26 21.5t40.5 9.5z" />
    <glyph glyph-name="six" unicode="6" horiz-adv-x="560" 
d="M535 224q0 -101 -72.5 -169t-175.5 -68q-130 0 -196 83.5t-66 215.5q0 191 108.5 319t296.5 128q38 0 55.5 -9.5t23.5 -28.5t6 -48t-5 -46t-12 -26t-20 -13q-17 -6 -58 -6t-79.5 -14t-60.5 -34q-44 -41 -54 -74l-5 -14q37 17 74 17q99 0 169.5 -65.5t70.5 -147.5z
M283 151q77 0 77 67q0 23 -17.5 43t-56 20t-59 -18.5t-20.5 -37.5t2.5 -29t9.5 -22q14 -23 64 -23z" />
    <glyph glyph-name="seven" unicode="7" horiz-adv-x="561" 
d="M458 732q70 0 82 -38q6 -16 6 -56t-26 -99.5t-62.5 -117.5t-73.5 -117q-88 -143 -88 -230q0 -22 -2 -32.5t-10 -22t-26.5 -15.5t-50.5 -4t-50.5 4t-26.5 16t-9.5 22.5t-1.5 33.5q0 65 22 133.5t53 122.5t62 99.5t53 78t22 45.5h-228q-40 0 -58 10t-24 29t-6 50t6 50
t19 26q21 12 58 12h360z" />
    <glyph glyph-name="eight" unicode="8" horiz-adv-x="582" 
d="M557 235q0 -112 -81.5 -180.5t-184.5 -68.5t-184.5 68t-81.5 181q0 42 20.5 81.5t40.5 57.5l21 19q-7 6 -17 16t-26.5 43.5t-16.5 69.5q0 98 74 162t172 64t170 -65t72 -166q0 -30 -14.5 -61t-29.5 -47l-15 -16q9 -7 22.5 -20.5t36 -54.5t22.5 -83zM341 560.5
q-17 17.5 -50.5 17.5t-49.5 -17t-16 -37.5t17.5 -38.5t50 -18t49 18t16.5 38t-17 37.5zM292 155q44 0 66 24t22 51.5t-22.5 51.5t-66 24t-66.5 -23.5t-23 -51.5t23 -52t67 -24z" />
    <glyph glyph-name="nine" unicode="9" horiz-adv-x="560" 
d="M25 508q0 101 72 169t175 68q131 0 197 -83.5t66 -215.5q0 -191 -108 -319t-295 -128h-6q-38 0 -54 10q-28 17 -28 79q0 70 38 82q17 6 58 6t79.5 14t59.5 34q43 41 55 74l5 14q-38 -17 -75 -17q-98 0 -168.5 65.5t-70.5 147.5zM276 581q-77 0 -77 -67q0 -23 17.5 -43
t56.5 -20t59.5 18.5t20.5 37t-2.5 29t-10.5 22.5q-15 23 -64 23z" />
    <glyph glyph-name="colon" unicode=":" horiz-adv-x="238" 
d="M193.5 485q19.5 -20 19.5 -75q-1 -24 -2.5 -35.5t-10.5 -27.5q-15 -29 -75.5 -29t-80 19.5t-19.5 75.5q0 58 21 74q25 18 76.5 18t71 -20zM193.5 166.5q19.5 -19.5 19.5 -75.5q-1 -24 -2.5 -35.5t-10.5 -27.5q-15 -29 -75.5 -29t-80 19.5t-19.5 75.5q0 58 21 74
q25 18 76.5 18t71 -19.5z" />
    <glyph glyph-name="semicolon" unicode=";" horiz-adv-x="237" 
d="M195 484q17 -18 17 -70v-4q0 -24 -1.5 -35.5t-10.5 -27.5q-15 -29 -75.5 -29t-80 19t-19.5 72v4q0 23 1.5 35t9.5 28q15 29 75.5 29t83.5 -21zM195 165q17 -17 17 -70v-4q0 -110 -58 -188q-47 -63 -110 -63q-7 0 -12.5 10.5t-5.5 27.5t4.5 26.5t11.5 12t14 8t20.5 27
t15.5 48.5q-33 4 -50 20.5t-17 69.5v4q0 23 1.5 35t9.5 27q15 30 75.5 30t83.5 -21z" />
    <glyph glyph-name="less" unicode="&#x3c;" horiz-adv-x="627" 
d="M54 275q-39 19 -39 69t40 70q343 203 394 234t61 34q11 5 26 5q27 0 56 -49q19 -31 19 -46.5t-7 -26.5q-9 -16 -41 -37q-298 -176 -310 -184l310 -184q19 -11 27 -18q22 -18 22 -39q0 -20 -17.5 -48.5t-31.5 -40.5t-29 -12q-20 0 -52 19z" />
    <glyph glyph-name="equal" unicode="=" horiz-adv-x="478" 
d="M383 254h-289q-52 0 -62 32q-6 17 -6 43.5t5.5 43t17.5 22.5q18 9 46 9h289q53 0 64 -32q5 -16 5 -43t-5 -43.5t-17 -23t-20.5 -7.5t-27.5 -1zM383 42h-289q-53 0 -64 32q-5 17 -5 43.5t5.5 43t17.5 22.5q19 9 47 9h289q52 0 62 -32q6 -16 6 -43t-5 -43.5t-17 -23
t-20.5 -7.5t-26.5 -1z" />
    <glyph glyph-name="greater" unicode="&#x3e;" horiz-adv-x="627" 
d="M571 414q40 -20 40 -70t-39 -69l-427 -254q-51 -33 -82 -7q-14 12 -29 36q-20 33 -20 48t6 26q11 17 43 36l311 184l-310 184q-18 11 -27 18q-22 19 -22 41q0 20 17 48q31 52 58 52q24 0 54 -19z" />
    <glyph glyph-name="question" unicode="?" horiz-adv-x="512" 
d="M173 335l1 8q0 43 24.5 68t53.5 33t53.5 27t24.5 51.5t-18.5 50.5t-55.5 18t-54.5 -11.5t-21.5 -23.5l-3 -12q-9 -26 -21 -39.5t-31 -13.5t-50 12q-60 23 -60 57q0 15 6 30.5t10 26t21.5 36.5t40 45.5t63.5 36t91 16.5q106 0 173 -68t67 -158q0 -43 -15.5 -79.5
t-37.5 -57.5q-44 -42 -82 -56l-16 -5q0 -17 -1.5 -26t-9 -19.5t-25 -15t-46.5 -4.5t-46.5 5t-24.5 17t-8.5 21.5t-1.5 29.5zM197.5 179q20.5 7 64.5 7t63.5 -19.5t19.5 -75.5q0 -40 -10 -59.5t-30.5 -26t-63.5 -6.5t-66 21q-17 17 -17 58v16q0 23 1.5 35t9.5 27.5t28.5 22.5
z" />
    <glyph glyph-name="at" unicode="@" horiz-adv-x="908" 
d="M847.5 443.5q35.5 -78.5 35.5 -166t-24 -148t-63 -96.5q-79 -74 -174 -74q-66 0 -110 40t-44 109q0 8 2 24q-33 -36 -91 -36t-103.5 49.5t-45.5 119.5q0 89 66 150.5t127.5 61.5t85.5 -40q5 20 19.5 30.5t48 10.5t46 -10.5t12.5 -24t-2 -29.5l-34 -256q-7 -41 -7 -53
t7.5 -16.5t23.5 -4.5t31 4t34.5 16.5t34.5 32.5q36 48 36 128t-26 133t-71 84q-92 62 -221.5 62t-210 -73.5t-80.5 -199.5t62.5 -201t193.5 -75h19q24 0 33.5 -11.5t9.5 -42.5t-4.5 -44.5t-15.5 -18.5q-14 -8 -43 -8q-176 0 -278 108.5t-102 291.5q0 122 58 214.5t150.5 138
t194 45.5t181 -24.5t141.5 -73t97.5 -127zM374 239.5q16 -16.5 42 -16.5t46.5 19.5t23.5 43.5v6q0 23 -14.5 40.5t-42.5 17.5t-48 -19.5t-23 -44.5v-7q0 -23 16 -39.5z" />
    <glyph glyph-name="A" unicode="A" horiz-adv-x="765" 
d="M463 681l270 -558q17 -34 17 -51q0 -36 -58 -65q-34 -17 -53.5 -17t-32 9t-18 19t-15.5 30l-52 108h-277l-52 -108q-10 -20 -15.5 -29t-18 -18.5t-32 -9.5t-53.5 17q-58 28 -58 64q0 17 17 51l270 559q11 23 33.5 37t47.5 14q54 0 80 -52zM382 441l-66 -137h133z" />
    <glyph glyph-name="B" unicode="B" horiz-adv-x="646" 
d="M562 393q59 -70 59 -157q-2 -100 -68.5 -167.5t-161.5 -67.5h-263q-70 0 -82 38q-6 17 -6 52v555q0 24 1.5 35t9.5 26q14 27 78 27h252q92 0 154 -64q65 -65 65 -156q0 -66 -38 -121zM444 246q0 24 -5.5 38t-18.5 20q-20 8 -56 8t-54 14t-18 57.5t18.5 57.5t61.5 14
q40 0 48 21q3 11 3 36t-16.5 35t-49.5 10h-140v-379h164q63 0 63 68z" />
    <glyph glyph-name="C" unicode="C" horiz-adv-x="679" 
d="M498 192l18 13q34 20 48 20q31 0 67 -56q22 -35 22 -56t-13.5 -35t-31.5 -25t-34.5 -21t-67.5 -26t-98.5 -16t-96 12.5t-100 42t-92.5 72t-67.5 109t-26.5 144.5t26 141.5t66.5 105t92.5 69.5q98 54 197 54q47 0 95.5 -14.5t73.5 -29.5l24 -14q18 -11 28 -18
q26 -21 26 -47.5t-21 -55.5q-39 -54 -70 -54q-18 0 -51 22q-42 34 -112 34q-65 0 -128 -45q-30 -22 -50 -62t-20 -90.5t20 -90.5t51 -63q61 -44 127 -44q31 0 58.5 8t39.5 16z" />
    <glyph glyph-name="D" unicode="D" horiz-adv-x="704" 
d="M129 734l185 -1q145 0 255 -104.5t110 -257t-107.5 -261.5t-260.5 -109h-183q-61 0 -76 25q-12 21 -12 64v556q0 24 1.5 35t9.5 26q14 27 78 27zM444 231.5q58 53.5 58 134.5t-56.5 135.5t-132.5 54.5h-96v-378h97q72 0 130 53.5z" />
    <glyph glyph-name="E" unicode="E" horiz-adv-x="638" 
d="M217 177h308q23 0 34.5 -1.5t26.5 -9.5q27 -14 27 -78q0 -70 -37 -82q-17 -6 -52 -6h-396q-70 0 -82 38q-6 16 -6 51v556q0 51 19 69.5t72 18.5h394q23 0 34.5 -1.5t26.5 -9.5q27 -14 27 -78q0 -70 -37 -82q-17 -6 -52 -6h-307v-101h198q23 0 34.5 -1.5t26.5 -9.5
q27 -14 27 -78q0 -70 -38 -82q-17 -6 -52 -6h-196v-101z" />
    <glyph glyph-name="F" unicode="F" horiz-adv-x="637" 
d="M525 733q23 0 34.5 -1.5t26 -9.5t20.5 -27t6 -51t-6 -51t-21 -26.5t-26.5 -9t-35.5 -1.5h-306v-101h197q24 0 35.5 -1.5t26.5 -9.5q26 -15 26 -79q0 -70 -38 -83q-16 -5 -51 -5h-196v-189q0 -24 -1.5 -35t-9.5 -26q-14 -27 -78 -27q-70 0 -82 38q-6 16 -6 51v556
q0 51 19 69.5t72 18.5h394z" />
    <glyph glyph-name="G" unicode="G" horiz-adv-x="714" 
d="M422 442h176q54 -2 66 -28q10 -19 10 -56v-220q0 -32 -28 -61q-84 -87 -252 -87q-149 0 -259 112.5t-110 271.5t112 265.5t264 106.5q118 0 223 -78q27 -20 27 -44.5t-23 -56.5q-39 -53 -71 -53q-19 0 -61 27.5t-100 27.5q-76 0 -135 -53.5t-59 -140t60 -147t136 -60.5
q55 0 99 18v109h-79q-31 0 -44 8t-17 23.5t-4 42t4.5 42.5t16.5 22q18 9 48 9z" />
    <glyph glyph-name="H" unicode="H" horiz-adv-x="699" 
d="M520 727q19 6 48 6t46 -5t26 -12t14 -20q5 -17 5 -52v-555q0 -23 -1.5 -34.5t-9.5 -26.5q-14 -27 -78 -27q-70 0 -82 37q-6 17 -6 52v203h-265v-204q0 -23 -1.5 -34.5t-9.5 -26.5q-14 -27 -78 -27q-70 0 -82 37q-6 17 -6 52v555q0 23 1.5 34.5t9.5 26.5q14 27 78 27
q70 0 83 -37q5 -17 5 -52v-204h265v205q0 23 1.5 34.5t9.5 26.5t27 21z" />
    <glyph glyph-name="I" unicode="I" horiz-adv-x="257" 
d="M40 645q0 23 1.5 34.5t9.5 26.5q14 27 78 27q70 0 83 -37q5 -17 5 -52v-556q0 -24 -1.5 -35t-9.5 -26q-14 -27 -78 -27q-70 0 -82 38q-6 16 -6 51v556z" />
    <glyph glyph-name="J" unicode="J" horiz-adv-x="549" 
d="M471.5 726.5q18.5 -6.5 26.5 -21.5q11 -23 11 -62v-387q0 -105 -76 -185.5t-194 -80.5q-66 0 -117 29q-46 25 -64 45l-8 8q-35 37 -35 63.5t35 62.5t62 36t60 -33t71.5 -33t63.5 26t25 69v374q0 60 20 77q23 19 62 19t57.5 -6.5z" />
    <glyph glyph-name="K" unicode="K" horiz-adv-x="639" 
d="M354 368q153 -147 217 -221q33 -37 33 -62.5t-40 -60t-65.5 -34.5t-61.5 42l-220 251v-195q0 -24 -1.5 -35t-9.5 -26q-14 -27 -78 -27q-70 0 -82 38q-6 16 -6 51v556q0 23 1.5 34.5t9.5 26.5q14 27 78 27q70 0 83 -37q5 -17 5 -52v-191q136 153 220 251q35 41 61 41
t66 -34.5t40 -60t-30 -60.5q-58 -67 -180 -184z" />
    <glyph glyph-name="L" unicode="L" horiz-adv-x="587" 
d="M217 148h272q33 0 48 -7.5t20 -23.5t5 -42.5t-5 -42.5t-17 -22q-19 -10 -52 -10h-360q-70 0 -82 38q-6 16 -6 51v556q0 23 1.5 34.5t9.5 26.5q14 27 78 27q70 0 83 -37q5 -17 5 -52v-496z" />
    <glyph glyph-name="M" unicode="M" horiz-adv-x="870" 
d="M819 705q8 -15 9.5 -27t1.5 -35v-555q0 -69 -38 -81q-19 -6 -48 -6t-46 5t-26 12t-14 20q-5 17 -5 52v335q-25 -31 -73 -98.5t-61 -84.5t-18 -23.5t-24.5 -18t-42 -11.5t-41 10.5t-26.5 20.5l-8 11q-20 25 -79 106.5t-64 87.5v-337q0 -23 -1.5 -34.5t-9.5 -25.5
q-15 -27 -78 -27q-61 0 -76 27q-8 14 -9.5 26t-1.5 36v555q0 23 1.5 34.5t9.5 26.5q15 26 78 26q27 0 46.5 -6.5t25.5 -13.5l6 -6l227 -298q170 225 227 297q17 27 80.5 27t77.5 -27z" />
    <glyph glyph-name="N" unicode="N" horiz-adv-x="720" 
d="M542 726q19 6 47.5 6t46 -5t26 -12t12.5 -21q6 -16 6 -51v-555q0 -24 -1.5 -35t-9.5 -26q-14 -27 -78 -27q-39 0 -54 6t-25 19q-225 300 -296 392v-329q0 -24 -1.5 -35t-9.5 -26q-14 -27 -78 -27q-62 0 -76 27q-8 15 -9.5 27t-1.5 35v558q0 38 9.5 55.5t28.5 23.5t49 6
t47.5 -5.5t24.5 -12.5q4 -3 23 -26q211 -287 282 -379v338q0 38 9.5 55.5t28.5 23.5z" />
    <glyph glyph-name="O" unicode="O" 
d="M384 742q148 0 257 -107t109 -265.5t-104 -270t-256 -111.5t-258.5 110t-106.5 262q0 83 30 155.5t80 121.5t115 77t134 28zM259.5 220.5q57.5 -55.5 128.5 -55.5t128 54t57 145t-57.5 146t-128.5 55t-128 -55.5t-57 -144.5t57.5 -144.5z" />
    <glyph glyph-name="P" unicode="P" horiz-adv-x="632" 
d="M607 467q0 -65 -26 -117.5t-67 -83.5q-83 -64 -172 -64h-125v-113q0 -23 -1.5 -34.5t-9.5 -26.5q-14 -27 -78 -27q-70 0 -82 37q-6 17 -6 52v555q0 23 1.5 34.5t9.5 26.5q14 27 78 27h214q88 0 171 -64q41 -31 67 -84t26 -118zM402 401q29 22 29 66t-29 66.5t-60 22.5
h-125v-177h126q30 0 59 22z" />
    <glyph glyph-name="Q" unicode="Q" horiz-adv-x="830" 
d="M713 199q46 -31 66 -45q36 -27 36 -51.5t-30 -68.5t-61 -44q-19 0 -58 27q-5 3 -28 19t-36 24q-93 -72 -209 -72q-155 0 -261.5 110t-106.5 262q0 83 30 155.5t80 121.5t115 77t134 28q148 0 257 -107t109 -271q0 -83 -37 -165zM259.5 220.5q57.5 -55.5 128.5 -55.5
t128 54t57 145t-57.5 146t-128.5 55t-128 -55.5t-57 -144.5t57.5 -144.5z" />
    <glyph glyph-name="R" unicode="R" horiz-adv-x="631" 
d="M601 124q15 -36 15 -52q0 -38 -62 -64q-32 -14 -51.5 -14t-32 9.5t-18.5 19.5q-10 19 -78 181l-31 -2h-126v-113q0 -23 -1.5 -34.5t-9.5 -26.5q-14 -27 -78 -27q-70 0 -82 37q-6 17 -6 52v555q0 23 1.5 34.5t9.5 26.5q14 27 78 27h216q88 0 171 -64q40 -31 66 -84
t26 -118q0 -113 -75 -186q22 -53 68 -157zM217 379h128q29 0 58 22t29 66t-29 66.5t-60 22.5h-126v-177z" />
    <glyph glyph-name="S" unicode="S" horiz-adv-x="583" 
d="M51 103q-26 32 -26 57.5t43 67.5q25 24 53 24t78 -50q14 -17 40 -32.5t48 -15.5q93 0 93 76q0 23 -25.5 38.5t-63.5 22.5t-82 22.5t-82 36.5t-63.5 66.5t-25.5 109.5q0 88 65.5 153.5t178.5 65.5q60 0 109.5 -15.5t68.5 -31.5l25 -19q31 -29 31 -49t-24 -55
q-34 -50 -70 -50q-21 0 -52 20q-3 2 -11.5 10t-15.5 13q-21 13 -53.5 13t-54 -15.5t-21.5 -43t25.5 -44.5t63.5 -23t83 -18.5t83 -30.5t63.5 -62.5t25.5 -109.5t-26 -114.5t-68 -76.5q-81 -53 -173 -53q-47 0 -89 11.5t-68 28.5q-53 32 -74 62z" />
    <glyph glyph-name="T" unicode="T" horiz-adv-x="731" 
d="M88 734h556q32 0 47 -7.5t20 -23.5t5 -42t-5 -41.5t-17 -21.5q-18 -9 -51 -9h-191v-503q0 -23 -1.5 -34t-9 -25.5t-26.5 -20.5t-50 -6t-49.5 6t-26 20.5t-9 26t-1.5 34.5v502h-192q-32 0 -47 7.5t-20 23.5t-5 42t5 41.5t17 21.5q18 9 51 9z" />
    <glyph glyph-name="U" unicode="U" horiz-adv-x="726" 
d="M548 728q19 6 47.5 6t45.5 -5t26 -12t13 -21q6 -17 6 -52v-302q0 -132 -82 -240q-40 -51 -103 -82.5t-139.5 -31.5t-139 32t-101.5 84q-81 106 -81 240v301q0 24 1.5 35.5t9.5 26.5t27 21t51 6t51 -6t26 -21q12 -23 12 -63v-300q0 -61 30 -116q15 -28 45 -45t71 -17
q73 0 109 54t36 125v306q0 39 10 55t29 22z" />
    <glyph glyph-name="V" unicode="V" horiz-adv-x="783" 
d="M709 722q59 -29 59 -64q0 -16 -15 -48l-276 -560q-11 -22 -33.5 -35.5t-46.5 -13.5h-10q-25 0 -47.5 13.5t-33.5 35.5l-276 560q-15 32 -15 48q0 35 59 64q33 17 50.5 17t26.5 -4t17 -14q9 -12 16.5 -26.5t38.5 -83t66.5 -145.5t67 -145.5t35.5 -76.5l200 438q8 19 14 30
q18 27 44 27t59 -17z" />
    <glyph glyph-name="W" unicode="W" horiz-adv-x="999" 
d="M917 729q67 -24 67 -64q0 -13 -12 -49l-192 -555q-2 -7 -7 -17t-26.5 -26.5t-51 -16.5t-51 16.5t-28.5 32.5l-117 345q-111 -328 -113 -334t-9 -17t-16 -20q-23 -23 -55 -23t-52.5 15t-27.5 30l-7 15l-193 555q-11 33 -11 49q0 40 67 63q29 10 52.5 10t36 -16t22.5 -49
l110 -334l109 329q14 42 51 58q16 7 41.5 7t47.5 -16.5t28 -32.5l115 -347l110 336q8 23 13 34t18.5 21.5t33.5 10.5t47 -10z" />
    <glyph glyph-name="X" unicode="X" horiz-adv-x="741" 
d="M491 371l201 -221q34 -38 34 -64t-38.5 -61t-65 -35t-61.5 40l-190 218l-190 -218q-36 -40 -61.5 -40t-65 35.5t-39.5 60.5t35 64l201 221l-201 221q-35 37 -35 63t39 61.5t65.5 35.5t61.5 -40l190 -218l190 218q36 40 61.5 40t64.5 -35t39 -62t-34 -63z" />
    <glyph glyph-name="Y" unicode="Y" horiz-adv-x="686" 
d="M622 719q49 -34 49 -66q0 -19 -23 -53l-216 -323v-191q0 -23 -1.5 -34.5t-9.5 -26.5t-27 -21t-51 -6t-51 6t-27 21.5t-9.5 27t-1.5 35.5v189l-216 323q-23 34 -23 53q0 32 44 61.5t63 29.5t30 -8q17 -11 36 -41l155 -248l155 248q19 30 33 39.5t32.5 9.5t58.5 -25z" />
    <glyph glyph-name="Z" unicode="Z" horiz-adv-x="643" 
d="M531 171q39 0 56.5 -9.5t24 -27.5t6.5 -46t-5 -45t-12 -26t-21 -13q-16 -6 -51 -6h-416q-23 0 -44 12q-44 25 -44 79q0 26 12 42l310 429h-230q-24 0 -35.5 1.5t-27.5 8.5q-29 14 -29 75q0 64 27 78q15 8 26.5 9.5t35.5 1.5h402q23 0 44 -12t32.5 -32t11.5 -47t-12 -43
l-310 -429h249z" />
    <glyph glyph-name="bracketleft" unicode="[" horiz-adv-x="348" 
d="M202 -82h74q25 0 37 -8q20 -12 20 -65q0 -51 -18 -62q-15 -9 -40 -9h-154q-58 0 -71 26q-10 21 -10 61v826q0 39 8.5 56.5t26.5 23.5t47 6h154q25 0 37 -7q20 -13 20 -66q0 -51 -18 -62q-15 -9 -40 -9h-73v-711z" />
    <glyph glyph-name="backslash" unicode="\" horiz-adv-x="528" 
d="M351 -8l-323 673q-13 27 -13 42q0 32 56 59q35 16 50.5 16t23.5 -3.5t15 -11.5q7 -10 19 -33l320 -668q14 -37 14 -52.5t-12 -27.5t-44.5 -27t-52.5 -15t-31 11.5t-22 36.5z" />
    <glyph glyph-name="bracketright" unicode="]" horiz-adv-x="348" 
d="M226 773q59 0 72 -27q10 -20 10 -59v-826q0 -40 -8.5 -57.5t-26 -23.5t-46.5 -6h-154q-46 0 -54 30q-4 16 -4 41.5t4 41.5t13 22q15 9 40 9h74v711h-73q-46 0 -54 31q-4 15 -4 40.5t4 41.5t13 22q15 9 40 9h154z" />
    <glyph glyph-name="asciicircum" unicode="^" horiz-adv-x="526" 
d="M215 519q23 25 42 25h11q20 0 44 -25l147 -148q16 -15 21 -22.5t5 -15t-3 -20.5t-26 -36t-36 -26t-21 -3q-12 0 -37 25l-99 99l-98 -99q-15 -15 -22 -20t-15 -5t-21.5 3t-36.5 26t-26 36t-3 20q0 14 26 38z" />
    <glyph glyph-name="underscore" unicode="_" horiz-adv-x="826" 
d="M76 -228q-48 0 -56 29q-5 15 -5 40t4.5 40t14.5 21q17 8 43 8h673q48 0 56 -30q5 -15 5 -39.5t-4.5 -39.5t-14.5 -21q-15 -8 -43 -8h-673z" />
    <glyph glyph-name="grave" unicode="`" horiz-adv-x="482" 
d="M355 576q-6 -6 -17.5 -6t-32.5 6l-165 52q-26 9 -35 19t-9 25t8 42q17 51 39 57q8 2 12 2q10 0 74 -20t99 -31t42 -14q22 -11 22 -32t-8 -45t-15.5 -36.5t-13.5 -18.5z" />
    <glyph glyph-name="a" unicode="a" horiz-adv-x="596" 
d="M382 471q6 56 79 56q39 0 58 -6t26.5 -21t9 -26.5t1.5 -34.5v-350q0 -23 -1.5 -34.5t-8.5 -26.5q-14 -26 -68.5 -26t-73 13.5t-21.5 39.5q-37 -53 -123.5 -53t-160.5 79t-74 183.5t74.5 183t163.5 78.5q34 0 62 -12t39 -22.5t18 -20.5zM226 203.5q26 -26.5 63 -26.5
t61.5 27t24.5 59.5t-23.5 60.5t-63 28t-64 -28t-24.5 -61t26 -59.5z" />
    <glyph glyph-name="b" unicode="b" horiz-adv-x="592" 
d="M329 526q89 0 163.5 -79t74.5 -183.5t-74 -183t-159 -78.5t-121 48q-8 -49 -86 -49q-63 0 -77 27q-7 15 -8.5 26.5t-1.5 34.5v597q0 23 1.5 34.5t8.5 25.5q14 27 78 27q63 0 76 -27q8 -15 9.5 -26.5t1.5 -34.5v-208q40 49 114 49zM303 176q37 0 63 27t26 60t-24 60.5
t-64 27.5t-63.5 -28t-23.5 -60.5t24.5 -59.5t61.5 -27z" />
    <glyph glyph-name="c" unicode="c" horiz-adv-x="517" 
d="M233 197.5q28 -23.5 59.5 -23.5t59 18.5t44.5 18.5q30 0 73 -53q23 -29 23 -52q0 -38 -55 -71q-57 -40 -140 -40q-93 0 -179 67q-41 32 -67 85.5t-26 118t26 117t67 84.5q83 66 177 66q38 0 74 -10.5t53 -20.5l16 -10q18 -12 28 -19q26 -20 26 -45.5t-21 -57.5
q-36 -55 -69 -55q-19 0 -54 22q-18 17 -51.5 17t-62.5 -24t-29 -66.5t28 -66z" />
    <glyph glyph-name="d" unicode="d" horiz-adv-x="598" 
d="M420 767q19 6 50.5 6t50.5 -6t26.5 -21t9 -26.5t1.5 -34.5v-597q0 -23 -1.5 -34.5t-9.5 -25.5q-15 -27 -84.5 -27t-77.5 49q-42 -48 -117 -48q-90 0 -164 78.5t-74 183t74.5 183.5t163.5 79q74 0 115 -50v210q0 23 1.5 34.5t9 26t26.5 20.5zM294 176q37 0 61.5 27
t24.5 59.5t-23.5 60.5t-63.5 28t-64 -27.5t-24 -60.5t26 -60t63 -27z" />
    <glyph glyph-name="e" unicode="e" horiz-adv-x="573" 
d="M517.5 235.5q-30.5 -29.5 -67.5 -29.5h-237q0 -28 33 -47t66 -19q58 0 91 12l11 4q24 11 40 11q32 0 55 -45q13 -27 13 -46q0 -89 -213 -89q-74 0 -131.5 25.5t-89.5 67.5q-63 81 -63 181q0 126 81.5 201.5t203.5 75.5q139 0 204 -98q34 -52 34 -113.5t-30.5 -91z
M337 297q38 0 38 32q0 23 -17.5 37t-50 14t-64.5 -26.5t-32 -56.5h126z" />
    <glyph glyph-name="f" unicode="f" horiz-adv-x="450" 
d="M348 526q69 0 81 -38q6 -19 6 -50t-6.5 -49.5t-20.5 -26.5q-21 -12 -61 -12l-64 4v-268q0 -38 -9.5 -56.5t-29 -24.5t-50.5 -6t-49.5 6.5t-26.5 21t-9.5 26.5t-1.5 35v265h-36q-26 2 -37 12q-19 19 -19 73q0 82 59 82h33v53q0 77 55 139.5t159 62.5q23 0 34.5 -1.5
t26.5 -9.5q27 -13 27 -77q0 -48 -17 -69q-14 -16 -44 -18h-28q-37 0 -37 -25v-55z" />
    <glyph glyph-name="g" unicode="g" horiz-adv-x="585" 
d="M374 66q-38 -50 -121 -50t-155.5 76.5t-72.5 178.5t73 179t160 77q34 0 62 -12.5t38.5 -23t16.5 -19.5q3 28 20.5 42.5t56.5 14.5t57 -6t25.5 -20.5t9 -25.5t1.5 -34v-414q0 -115 -80 -185.5t-180 -70.5q-76 0 -145 37t-69 67q0 39 30 69q19 21 29.5 29t24.5 8t29 -12
q48 -37 104 -37q38 0 62 30t24 72v30zM221.5 212q25.5 -26 62 -26t60.5 26.5t24 58t-23 59t-62 27.5t-63 -27t-24 -59.5t25.5 -58.5z" />
    <glyph glyph-name="h" unicode="h" horiz-adv-x="605" 
d="M332 525q100 0 166.5 -76t66.5 -186v-176q0 -23 -1.5 -34.5t-9.5 -26.5q-13 -26 -77 -26q-61 0 -76 26q-8 15 -9.5 27t-1.5 36v175q0 41 -23 64t-58.5 23t-62.5 -21.5t-31 -48.5v-194q0 -23 -1.5 -34.5t-9.5 -26.5q-13 -26 -77 -26q-63 0 -77 27q-7 15 -8.5 26t-1.5 35
v598q0 23 1.5 34.5t8.5 25.5q14 27 78 27q63 0 76 -27q8 -15 9.5 -26.5t1.5 -34.5v-221q50 61 117 61z" />
    <glyph glyph-name="i" unicode="i" horiz-adv-x="255" 
d="M40 439q0 23 1.5 34.5t8.5 26.5q14 26 78 26q48 0 68 -17q17 -14 18 -43q1 -10 1 -29v-350q0 -23 -1.5 -34.5t-9.5 -26.5q-13 -26 -77 -26q-63 0 -77 27q-7 15 -8.5 26t-1.5 35v351zM178 604q-19 -6 -50.5 -6t-50.5 6t-26.5 21t-9 26.5t-1.5 34.5t1.5 34.5t8.5 25.5
q14 27 78 27q63 0 76 -27q8 -15 9.5 -26.5t1.5 -34.5t-1.5 -34.5t-9 -26t-26.5 -20.5z" />
    <glyph glyph-name="j" unicode="j" horiz-adv-x="252" 
d="M125 600q-31 0 -49 6t-25.5 20.5t-9 26t-1.5 34.5t1.5 34t8.5 25q14 26 77 26q60 0 75 -26q7 -13 8.5 -24t1.5 -33v-6q0 -22 -1.5 -33t-9.5 -25t-26.5 -19.5t-49.5 -5.5zM127 530q31 0 49 -6t25.5 -20.5t9 -26t1.5 -34.5v-412q0 -117 -81 -187t-178 -70q-23 0 -34 1.5
t-25 8.5q-26 14 -26 73t21.5 74t58 15t64.5 20t28 72v412q0 35 9.5 51.5t28 22.5t49.5 6z" />
    <glyph glyph-name="k" unicode="k" horiz-adv-x="536" 
d="M350 264l133 -110q25 -21 31.5 -32t6.5 -21q0 -24 -31 -65q-34 -42 -60 -42q-22 0 -61 29l-10 7q-23 19 -71 66.5t-73 67.5v-77q0 -23 -1.5 -34.5t-9.5 -26.5q-13 -26 -77 -26q-63 0 -77 27q-7 15 -8.5 26.5t-1.5 34.5v599q0 23 1.5 34.5t8.5 26.5q14 27 78 27
q48 0 68 -17q17 -14 18 -44q1 -9 1 -28v-317q18 15 54.5 51t54.5 51l12 8q35 27 60 27t57.5 -40.5t32.5 -63.5t-37 -54z" />
    <glyph glyph-name="l" unicode="l" horiz-adv-x="327" 
d="M40 687q0 23 1.5 34.5t8.5 26.5q14 27 78 27q61 0 76 -27q8 -15 9.5 -27t1.5 -35v-463q0 -36 6 -45.5t26.5 -9.5t27.5 -1.5t17 -8.5q20 -13 20 -71q0 -63 -20 -77q-26 -18 -124 -6q-77 10 -100 51q-28 49 -28 156v476z" />
    <glyph glyph-name="m" unicode="m" horiz-adv-x="851" 
d="M212 457q47 71 113 71q102 0 152 -87q11 15 26.5 31.5t49.5 36t70 19.5q80 0 134 -61.5t54 -203.5v-175q0 -23 -1.5 -34.5t-9.5 -26.5q-13 -27 -77 -27q-63 0 -77 28q-7 15 -8.5 26.5t-1.5 34.5v175q0 87 -62 87q-35 0 -47.5 -23t-12.5 -65v-175q0 -24 -1.5 -35t-9.5 -26
q-14 -27 -78 -27q-63 0 -77 28q-7 15 -8.5 26.5t-1.5 34.5v175q0 87 -62 87q-60 0 -60 -87v-177q0 -23 -1.5 -34.5t-9.5 -26.5q-15 -26 -78 -26t-77 27q-7 15 -8.5 26t-1.5 35v352q0 23 1.5 34.5t9.5 25.5q15 27 71 27t73 -18t17 -52z" />
    <glyph glyph-name="n" unicode="n" horiz-adv-x="606" 
d="M333 527q100 0 166.5 -76.5t66.5 -186.5v-176q0 -23 -1.5 -34.5t-8.5 -25.5q-14 -27 -78 -27q-71 0 -82 37q-6 17 -6 51v176q0 41 -23.5 64t-63 23t-64 -24t-24.5 -63v-177q0 -23 -1.5 -34.5t-9.5 -25.5q-13 -27 -77 -27q-63 0 -77 27q-7 15 -8.5 26.5t-1.5 34.5v354
q0 22 1.5 33.5t9.5 25.5q14 25 77 25q61 0 75 -23q10 -17 10 -41q4 7 18 20t27 21q34 23 75 23z" />
    <glyph glyph-name="o" unicode="o" horiz-adv-x="600" 
d="M109 461q84 78 192 78t191 -77.5t83 -197.5q0 -83 -43 -147.5t-104.5 -95t-127.5 -30.5t-128 32.5t-104.5 96t-42.5 143.5q0 120 84 198zM299 167q33 0 66 25t33 74t-31 73t-67 24t-67 -25t-31 -73.5t32 -73t65 -24.5z" />
    <glyph glyph-name="p" unicode="p" horiz-adv-x="582" 
d="M40 -143v584q0 23 1.5 34t8.5 25q14 27 67 27t71.5 -13.5t21.5 -39.5q38 52 119.5 52t154.5 -77t73 -179t-72.5 -179t-154.5 -77t-119 46v-202q0 -23 -1.5 -34t-9 -25.5t-25.5 -20.5t-49 -6t-49.5 6t-26 20t-9 25t-1.5 34zM215 269q0 -32 23.5 -58.5t60 -26.5t62 26
t25.5 59t-24 59.5t-62.5 26.5t-61.5 -27t-23 -59z" />
    <glyph glyph-name="q" unicode="q" horiz-adv-x="582" 
d="M372 474q6 53 78 53q38 0 56 -6t25.5 -20.5t9 -25.5t1.5 -34v-584q0 -23 -1.5 -34t-9 -25t-26 -20t-49.5 -6t-49 6t-25.5 20.5t-9 25.5t-1.5 34v202q-40 -46 -113 -46q-89 0 -161 77t-72 179t73 179t154.5 77t119.5 -52zM283 184q36 0 60 26.5t24 58t-23 59t-61.5 27.5
t-62.5 -26.5t-24 -59.5t25.5 -59t61.5 -26z" />
    <glyph glyph-name="r" unicode="r" horiz-adv-x="457" 
d="M429.5 500.5q12.5 -14.5 12.5 -46.5t-19 -70t-55 -38q-18 0 -34.5 8t-43.5 8t-50.5 -19t-23.5 -46v-210q0 -23 -1.5 -34.5t-9.5 -26.5q-15 -26 -78 -26q-48 0 -69 17q-16 14 -18 43v29v351q0 23 1.5 34.5t8.5 25.5q14 27 78 27q60 0 75 -23q11 -16 11 -33q5 7 14.5 17
t40.5 27t54.5 17t39.5 -2.5t35 -8.5t31.5 -20.5z" />
    <glyph glyph-name="s" unicode="s" horiz-adv-x="489" 
d="M44 47q-19 12 -19 38t38 79q11 17 35.5 17t66.5 -24.5t76 -24.5q61 0 61 24q0 19 -67 28q-63 9 -125 47q-29 18 -48 56.5t-19 91.5q0 158 217 158q71 0 146 -34q35 -16 35 -40t-22 -59t-45 -35q-12 0 -44.5 15t-70.5 15q-59 0 -59 -22q0 -30 68 -39q66 -7 128 -38
q29 -14 48.5 -48.5t19.5 -86.5t-19.5 -88.5t-54.5 -54.5q-64 -31 -160.5 -31t-185.5 56z" />
    <glyph glyph-name="t" unicode="t" horiz-adv-x="449" 
d="M346 350l-65 4v-138q0 -27 8.5 -39t32 -12t36 -1.5t26.5 -9.5q23 -13 23 -67q0 -63 -28 -77q-15 -7 -26.5 -8.5t-33.5 -1.5q-104 0 -158 47t-54 159v148q-19 -3 -41 -3t-36.5 17t-14.5 58t5 59.5t14 26.5q16 13 40 13l33 -4v103q0 23 1.5 34t9.5 24q13 25 77 25
q68 0 81 -37q5 -16 5 -51v-98q44 4 66.5 4t34 -1.5t26.5 -9.5q26 -13 26 -77q0 -63 -27 -77q-15 -7 -26.5 -8.5t-34.5 -1.5z" />
    <glyph glyph-name="u" unicode="u" horiz-adv-x="606" 
d="M274 2q-101 0 -167.5 76.5t-66.5 186.5v175q0 24 1.5 35t8.5 26q14 27 78 27q70 0 82 -38q6 -16 6 -51v-175q0 -41 23.5 -64t63 -23t64 24t24.5 63v177q0 23 1.5 34.5t9.5 26.5q13 26 77 26q63 0 77 -27q7 -15 8.5 -26.5t1.5 -34.5v-354q0 -22 -1.5 -33.5t-9.5 -25.5
q-15 -26 -77 -26q-61 0 -75 24q-10 17 -10 41q-4 -7 -18 -20t-27 -22q-34 -22 -74 -22z" />
    <glyph glyph-name="v" unicode="v" horiz-adv-x="638" 
d="M571 515q52 -31 52 -66q0 -20 -20 -55l-207 -355q-10 -17 -32 -30.5t-43.5 -13.5t-41 10.5t-27.5 21.5l-9 11l-208 356q-20 33 -20 54q0 36 52 67q38 22 60 22t34.5 -13.5t26.5 -40.5l131 -252l131 252q11 19 16.5 27.5t17.5 17t32 8.5t55 -21z" />
    <glyph glyph-name="w" unicode="w" horiz-adv-x="793" 
d="M714 523q64 -28 64 -69q0 -17 -16 -54.5t-27 -65.5l-110 -268q-15 -44 -50 -62q-15 -7 -38 -7t-44.5 17.5t-28.5 35.5l-8 17q-8 20 -59 156q-10 -24 -29.5 -78.5t-25 -68t-7 -18t-8.5 -16.5t-16 -21q-24 -24 -55 -24t-52 17.5t-28 35.5l-151 368q-10 30 -10 39
q0 40 57 63q32 13 52 13t32.5 -8.5t17.5 -17t8 -17.5q17 -40 71 -188l59 162q6 20 22 35q29 29 59 29t51.5 -16t29.5 -32l8 -17q50 -140 59 -160l61 166q24 64 72 64q19 0 40 -10z" />
    <glyph glyph-name="x" unicode="x" horiz-adv-x="567" 
d="M405 264l111 -112q36 -36 36 -61.5t-36 -61t-61 -35.5t-61 36l-110 111l-111 -111q-36 -36 -60.5 -36t-61 35.5t-36.5 61t36 61.5l111 112l-111 112q-36 36 -36 61.5t36.5 61.5t61 36t60.5 -36l111 -112l110 112q36 36 61 36t61 -36t36 -61.5t-36 -61.5z" />
    <glyph glyph-name="y" unicode="y" horiz-adv-x="604" 
d="M530 521q59 -26 59 -63q0 -18 -8 -34t-8 -17l-262 -586q-8 -19 -13.5 -29t-17.5 -19t-30 -9t-53 15q-59 26 -59 62q0 24 96 229l-199 335q-20 33 -20 49q0 32 54 64q34 20 53 20t31 -8t17.5 -16.5t55 -93t94.5 -157.5q5 16 54 123.5t52.5 114.5t11.5 17q13 17 36.5 17
t55.5 -14z" />
    <glyph glyph-name="z" unicode="z" horiz-adv-x="586" 
d="M303 176h171q40 0 57.5 -10t23.5 -29t6 -50t-6 -50t-21 -26.5t-26.5 -9t-34.5 -1.5h-361q-35 0 -61 26t-26 62t26 61.5t80 73.5t98 86.5t48 42.5h-141q-57 0 -72 19q-17 22 -17 58t5 53.5t12 26t20 13.5q17 5 52 5h325q35 0 61 -25t26 -62.5t-30 -66.5t-215 -197z" />
    <glyph glyph-name="braceleft" unicode="{" horiz-adv-x="381" 
d="M130 -28l1 93q0 64 -2 88q0 48 -60 48h-6q-34 0 -43 31q-5 16 -5 41t4.5 41t12.5 22q13 9 30 9h4q63 0 63 49q1 183 1 204q0 77 46.5 126t116.5 49q33 0 48 -7.5t20 -23t5 -40.5t-5 -40.5t-17 -21.5q-19 -11 -50 -11q-20 0 -20 -39v-170q0 -44 -15 -81t-29 -52l-15 -15
q6 -3 18.5 -18t20.5 -32q20 -45 19.5 -126t-0.5 -129v-24q0 -12 5 -19q7 -7 20.5 -7t23 -1.5t22.5 -7.5q22 -11 22 -62q0 -52 -23 -63q-18 -9 -49 -9q-70 0 -117 50t-47 129v19z" />
    <glyph glyph-name="bar" unicode="|" horiz-adv-x="217" 
d="M40 687q0 68 29 80q15 6 39.5 6t39.5 -6t21 -21q8 -19 8 -60v-832q0 -68 -29 -80q-15 -6 -39.5 -6t-39.5 6t-21 21q-8 20 -8 61v831z" />
    <glyph glyph-name="braceright" unicode="}" horiz-adv-x="381" 
d="M249 65l1 -93v-19q0 -79 -47 -129t-117 -50q-56 0 -66 30q-5 16 -5 42t5 41t17 21q18 9 35.5 9t20.5 0.5t8.5 7t5.5 18.5v24l-1 146q0 55 15 94.5t30 52.5l15 12q-7 6 -17 17t-26.5 49t-16.5 82l1 170q0 33 -11 38q-4 1 -16.5 1t-22 2t-21 8.5t-16.5 22t-5 40.5t5 40.5
t16 21.5q18 9 51 9q70 0 116.5 -49t46.5 -126l1 -204q0 -49 63 -49h4q35 0 44 -31q4 -16 4 -44.5t-9 -46t-18 -20t-22 -2.5h-6q-60 0 -60 -48q-2 -24 -2 -88z" />
    <glyph glyph-name="asciitilde" unicode="~" horiz-adv-x="651" 
d="M526 360q47 -32 47 -59q0 -15 -10 -31.5t-14 -23t-19 -23.5t-33 -30t-48.5 -23.5t-67 -10.5t-66 15.5t-49 31.5t-31 16t-19.5 -4q-13 -7 -13 -12q-31 -48 -57.5 -48t-61.5 29.5t-35 48.5q0 16 14.5 39.5t29.5 40t33 28.5q48 34 114 34q30 0 55.5 -9.5t38.5 -20.5
q34 -31 49 -31q25 0 33 11l3 4q31 46 56 46t51 -18z" />
    <glyph glyph-name="exclamdown" unicode="&#xa1;" horiz-adv-x="268" 
d="M59.5 342q-19.5 20 -19.5 76q0 58 22 74q24 18 75.5 18t71 -20t19.5 -75q0 -59 -22 -75q-24 -18 -75.5 -18t-71 20zM135 245q32 0 51 -5t26.5 -18t9 -23t1.5 -31v-317q0 -21 -1.5 -31.5t-9.5 -23.5t-27.5 -18.5t-51.5 -5.5t-51 5.5t-26.5 19t-9 24t-1.5 31.5v317
q0 21 1.5 31t9.5 22.5t27.5 17.5t51.5 5z" />
    <glyph glyph-name="cent" unicode="&#xa2;" horiz-adv-x="434" 
d="M196.5 231.5q23.5 -19.5 49.5 -19.5t47 15t37 15q25 0 60 -43q19 -23 19 -43q0 -31 -45 -58q-24 -17 -62 -26v-80q0 -34 -6 -48.5t-18.5 -19.5t-33.5 -5t-33.5 5t-17.5 18q-7 17 -7 51v81q-68 21 -114.5 76t-46.5 136.5t47 136.5t114 75v95q0 59 24 69q13 5 34 5t33.5 -5
t17.5 -18q7 -17 7 -52v-92q41 -10 84 -42q22 -15 22 -36.5t-17 -48.5q-29 -45 -57 -45q-16 0 -43 18q-16 14 -43.5 14t-51 -19.5t-23.5 -54.5t23.5 -54.5z" />
    <glyph glyph-name="sterling" unicode="&#xa3;" horiz-adv-x="675" 
d="M298 163h280q37 0 54 -8.5t22.5 -26.5t5.5 -47t-6 -46.5t-20 -24.5q-19 -10 -57 -10h-416q-32 0 -56.5 20t-24.5 62q0 24 16 44t32.5 47t16.5 68q0 14 -9 50h-60q-49 0 -57 29q-4 15 -4 38.5t4.5 38t16.5 20.5q15 8 47 8h23q-1 10 -1 29q0 76 31.5 141.5t102 102.5
t152.5 37q109 0 187 -53q22 -15 26 -20l10 -9q27 -33 27 -61.5t-29.5 -55t-60.5 -26.5t-53 28q-9 12 -40 23t-63 11q-73 0 -100.5 -35.5t-27.5 -80.5v-10q0 -15 3 -21h101q29 0 42 -7q21 -12 21 -61q0 -46 -19 -57q-15 -9 -43 -9h-69q6 -30 6 -60t-11 -68z" />
    <glyph glyph-name="currency" unicode="&#xa4;" horiz-adv-x="677" 
d="M572 191q7 -4 31 -33q49 -59 49 -84.5t-33.5 -47t-54.5 -21.5t-44 41q-4 4 -17 26q-15 30 -161 30h-20q-128 0 -148 -29l-16 -28q-15 -26 -25.5 -33t-24.5 -7t-42 15q-41 23 -41 51q0 17 16 42q33 58 66 79q-61 73 -61 195t61 197q-11 7 -33 31t-34 49.5t-12 39.5
q0 27 32 47.5t46.5 20.5t24 -7t14 -13.5t11.5 -18.5t14 -23t14 -16t47 -12.5t105 -7.5h12q141 0 156 30l15 25q16 26 27 33t25 7t41 -15q39 -23 39 -51q0 -16 -15 -42q-33 -56 -66 -78q61 -73 61 -195.5t-59 -196.5zM333 244q72 0 110.5 30.5t38.5 111t-37 112.5t-107 32
t-106 -32.5t-36 -109.5q0 -144 137 -144z" />
    <glyph glyph-name="yen" unicode="&#xa5;" horiz-adv-x="677" 
d="M527.5 729.5q11.5 7.5 31 7.5t61.5 -29t42 -60q0 -20 -25 -58l-154 -229h15q45 0 55 -9q18 -16 18 -40.5t-5 -36t-16 -15.5q-17 -7 -49 -7h-74v-66h71q45 0 55 -9q18 -16 18 -40t-5 -35.5t-16 -16.5q-17 -6 -49 -6h-74q0 -61 -41 -74q-18 -5 -47.5 -5t-48 5.5t-26.5 17.5
q-13 21 -13 56h-75q-22 0 -34 2t-23.5 14.5t-11.5 37.5t13 37.5t25 14t36 1.5h70v66h-75q-22 0 -34 2t-23.5 14.5t-11.5 34.5t6 34t19 16q19 7 49 7h14l-157 234q-23 35 -23 52q0 31 43 60.5t62 29.5t30.5 -7.5t18 -16t17.5 -24.5l153 -245l153 245q11 16 17.5 24.5t18 16z
" />
    <glyph glyph-name="brokenbar" unicode="&#xa6;" horiz-adv-x="215" 
d="M70 226q15 6 38.5 6t38.5 -6.5t20 -19.5q8 -20 8 -39v-305q0 -40 -7 -56.5t-22 -22.5t-39 -6t-38.5 6t-20.5 21q-8 19 -8 59v304q0 46 30 59zM108 773q24 0 38.5 -6t20.5 -21q8 -19 8 -59v-304q0 -45 -29 -57q-15 -7 -38.5 -7t-38.5 6.5t-21 18.5q-8 19 -8 39v305
q0 67 30 79q14 6 38 6z" />
    <glyph glyph-name="section" unicode="&#xa7;" horiz-adv-x="560" 
d="M490 140q45 -48 45 -133q0 -61 -25 -108.5t-64 -72.5q-80 -52 -167 -52q-90 0 -151 38q-50 32 -70 59l-8 11q-25 31 -25 51q0 31 41 69q24 23 50.5 23t66.5 -40l8 -8q13 -17 38.5 -31.5t46.5 -14.5q89 0 89 73q0 35 -65 53q-29 8 -63.5 16.5t-69.5 23t-64 36.5t-47 61.5
t-18 92.5q0 77 49 133q-49 51 -49 136.5t62.5 148.5t170.5 63q57 0 104.5 -15t66.5 -29l23 -19q30 -28 30 -46.5t-24 -52.5q-33 -49 -67 -49q-29 0 -60 29q-26 25 -74 25q-23 0 -43.5 -14.5t-20.5 -41t24.5 -43t61 -22t79 -17.5t79 -29.5t61 -59.5t24.5 -114t-45 -130z
M328 211q37 17 37 64q0 27 -32 41q-34 13 -73 23q-21 -3 -37.5 -17t-16.5 -42q0 -52 122 -69z" />
    <glyph glyph-name="dieresis" unicode="&#xa8;" horiz-adv-x="489" 
d="M129 595q-32 0 -51 6t-27 21.5t-9.5 27t-1 36t2 35t9 25.5t27 21t51.5 6t51 -6t27 -21.5t9.5 -27t1.5 -35t-1.5 -35t-9.5 -26.5t-27.5 -21t-51.5 -6zM399 595q-32 0 -51 6t-27 21.5t-9.5 27t-1.5 35.5t1.5 35.5t9.5 26t27.5 20.5t51.5 6t51 -6t27 -21.5t9.5 -27t1.5 -35
t-1.5 -35t-9.5 -26.5t-27.5 -21t-51.5 -6z" />
    <glyph glyph-name="copyright" unicode="&#xa9;" horiz-adv-x="711" 
d="M598 672q88 -85 88 -252q0 -60 -16 -124.5t-55.5 -108.5t-99 -67.5t-160.5 -23.5q-166 0 -240 72q-90 87 -90 255.5t84.5 246t248.5 77.5t240 -75zM535 228q64 55 64 188t-54.5 189.5t-185 56.5t-184.5 -49q-63 -57 -63 -191t56.5 -187.5t185 -53.5t181.5 47zM425 487
q-28 24 -64 24t-63 -24.5t-27 -66.5t28 -66t62 -24q28 0 47.5 14.5t32 14.5t17 -3t17.5 -18q19 -25 19 -43v-4q-1 -16 -20 -29q-51 -36 -107 -36q-82 0 -141.5 54.5t-59.5 147.5q0 71 55.5 129t135.5 58q73 0 118 -39q20 -17 20 -26q0 -34 -30 -58q-11 -9 -21.5 -9t-18.5 4z
" />
    <glyph glyph-name="ordfeminine" unicode="&#xaa;" horiz-adv-x="445" 
d="M280 673q6 40 57 40q50 0 61 -19q7 -15 7 -44v-250q0 -23 -2 -33.5t-16.5 -20t-44.5 -9.5q-56 0 -61 38q-25 -38 -88 -38t-115.5 57t-52.5 131.5t53 131t117 56.5q24 0 44 -9q30 -12 41 -31zM169 481.5q19 -18.5 45.5 -18.5t43.5 19.5t17 42.5t-16.5 43t-45 20t-46 -20
t-17.5 -44t19 -42.5z" />
    <glyph glyph-name="guillemotleft" unicode="&#xab;" horiz-adv-x="668" 
d="M311 147q2 -2 12.5 -12t14.5 -15q15 -16 15 -36t-31 -51t-53 -31t-53 31l-173 172q-28 28 -28 57t28 57l175 174q29 29 51.5 29t53 -30.5t30.5 -54.5q0 -17 -9.5 -27.5t-19 -19t-12.5 -12.5l-116 -116zM610 147q2 -2 12.5 -12t15.5 -15q14 -16 14 -36t-31 -51t-53 -31
t-53 31l-173 172q-28 30 -28 59t28 55l175 174q29 29 51.5 29t53.5 -31t31 -54q0 -18 -10 -28t-19 -18.5t-13 -12.5l-116 -116z" />
    <glyph glyph-name="logicalnot" unicode="&#xac;" horiz-adv-x="526" 
d="M473 436q25 -6 31.5 -21t6.5 -42v-182q0 -51 -29 -61q-15 -5 -39 -5t-38.5 5.5t-20.5 17.5q-8 20 -8 47v73h-294q-51 0 -62 37q-5 19 -5 49.5t5.5 49t18 26t21 9t25.5 1.5h354q24 0 34 -4z" />
    <glyph glyph-name="registered" unicode="&#xae;" horiz-adv-x="711" 
d="M477 383q24 -56 28 -65.5t8.5 -18.5t4.5 -21.5t-18.5 -28t-44 -15.5t-35.5 25q-13 26 -35 80q-10 -1 -29 -1h-30v-51q0 -16 -2 -24.5t-14 -16.5t-35.5 -8t-35.5 8.5t-13.5 16.5t-1.5 24v289q0 21 11.5 31.5t49.5 10.5h83q58 0 102 -37.5t44 -97.5t-37 -100zM399 450.5
q12 9.5 12.5 27t-12 28t-30.5 10.5h-43v-75h45q16 0 28 9.5zM598 672q88 -85 88 -252q0 -60 -16 -124.5t-55.5 -108.5t-99 -67.5t-160.5 -23.5q-166 0 -240 72q-90 87 -90 255.5t84.5 246t248.5 77.5t240 -75zM175 613q-63 -57 -63 -191t56.5 -187.5t184.5 -53.5t187 55.5
t59 184t-54.5 185t-185 56.5t-184.5 -49z" />
    <glyph glyph-name="degree" unicode="&#xb0;" horiz-adv-x="407" 
d="M79.5 716.5q54.5 51.5 124.5 51.5t124 -51t54 -131t-55.5 -129.5t-123 -49.5t-123 50.5t-55.5 129t54.5 130zM203 523q22 0 43 16t21 48.5t-20 48.5t-43 16t-43.5 -16.5t-20.5 -48.5t20.5 -48t42.5 -16z" />
    <glyph glyph-name="plusminus" unicode="&#xb1;" horiz-adv-x="505" 
d="M405 432q34 0 49.5 -8t20.5 -24.5t5 -43.5t-5 -43t-17 -22q-17 -9 -34.5 -9h-19.5h-76v-30q0 -34 -8 -49.5t-24.5 -20.5t-43.5 -5t-43 5.5t-23 17.5q-9 19 -9 53v29h-77q-43 0 -56 10q-19 17 -19 54.5t5.5 53.5t17.5 22q19 10 53 10h76v36q0 34 8 49.5t24.5 20.5t43.5 5
t43 -5.5t22 -17.5q10 -19 10 -53v-35h77zM396 1h-288q-53 0 -64 29q-5 14 -5 38.5t5.5 39.5t17.5 20q20 9 47 9h288q53 0 63 -29q6 -15 6 -39.5t-5 -39.5t-17 -21q-16 -7 -48 -7z" />
    <glyph glyph-name="twosuperior" unicode="&#xb2;" horiz-adv-x="455" 
d="M291 362h90q46 0 55 -32q4 -16 4 -42t-4.5 -41.5t-14.5 -21.5q-15 -9 -40 -9h-273q-29 0 -55.5 17.5t-26.5 59t25.5 72.5t62 52t73 41t62 47t25.5 59q0 15 -15.5 28.5t-36.5 13.5t-34 -14q-16 -18 -16 -46.5t-14.5 -46.5t-64.5 -18q-49 0 -59 25q-9 19 -9 46
q0 79 55.5 139t141 60t142.5 -58t57 -142q0 -38 -16 -72.5t-41 -58.5q-42 -41 -73 -58z" />
    <glyph glyph-name="threesuperior" unicode="&#xb3;" horiz-adv-x="457" 
d="M376 494q56 -41 56 -109.5t-55 -122.5t-152 -54q-40 0 -73.5 11t-52.5 27q-42 35 -52 58l-5 11q-17 34 -17 65q0 51 79 51q48 0 60 -29q13 -45 38 -56q11 -6 30 -6t33 10q21 16 21 36v4q0 13 -2 19t-15.5 12t-34.5 6t-28.5 1t-17.5 6q-18 9 -18 53q0 20 10 31t19.5 12.5
t25.5 1.5h4q46 0 46 45q0 17 -14.5 28t-32 11t-28 -6t-14.5 -12t-7.5 -16t-6 -15t-6.5 -10q-11 -14 -38.5 -14t-58.5 25q-22 20 -22 51.5t50.5 81.5t133.5 50t136.5 -49.5t53.5 -112.5t-45 -95z" />
    <glyph glyph-name="acute" unicode="&#xb4;" horiz-adv-x="605" 
d="M238 576q-14 -7 -30 -7q-30 0 -49 59q-8 24 -8 41t7 26q9 13 36 21l165 51q26 7 30 7q30 0 48 -59q8 -24 8 -40.5t-7 -25.5q-9 -13 -36 -21z" />
    <glyph glyph-name="mu" unicode="&#xb5;" horiz-adv-x="601" 
d="M389 69q-37 -62 -99 -62q-33 0 -51.5 11.5t-24.5 13.5v-166q0 -23 -1.5 -34.5t-9.5 -25.5t-27 -20t-50 -6t-49.5 6t-26 20.5t-9 26t-1.5 34.5v574q0 23 1.5 34t9 25.5t26.5 20.5t50 6t50 -6t26.5 -20.5t9 -26t1.5 -34.5v-174q0 -41 23 -63.5t62.5 -22.5t63.5 23.5
t24 63.5v174q0 23 1.5 34.5t9 26t26.5 20.5t50 6t50 -6t26.5 -21t9 -26.5t1.5 -34.5v-347q0 -23 -1.5 -34.5t-9.5 -25.5q-13 -26 -77 -26q-59 0 -74 23q-10 16 -10 39z" />
    <glyph glyph-name="paragraph" unicode="&#xb6;" horiz-adv-x="614" 
d="M208 613h280q49 0 60 -27q8 -19 8 -60v-672q0 -68 -29 -80q-15 -6 -39.5 -6t-39.5 6t-21 21q-8 20 -8 61v656h-74v-658q0 -68 -29 -80q-15 -6 -39.5 -6t-39.5 6t-21 21q-8 20 -8 61v408q-108 1 -143 42.5t-35 131.5q0 50 5 78t22.5 52.5t54 34.5t96.5 10z" />
    <glyph glyph-name="periodcentered" unicode="&#xb7;" horiz-adv-x="237" 
d="M195 381q17 -17 17 -70v-4q0 -24 -1.5 -35.5t-10.5 -27.5q-15 -29 -75.5 -29t-80 19t-19.5 72v4q0 23 1.5 35t9.5 27q15 30 75.5 30t83.5 -21z" />
    <glyph glyph-name="cedilla" unicode="&#xb8;" horiz-adv-x="559" 
d="M260 30q40 0 76 -29.5t36 -82t-39 -82.5q-31 -28 -69 -28t-61.5 16t-26.5 31v4q0 15 11 27q20 24 32.5 24t27.5 -11q4 -1 7 -2t9 -1t13.5 5.5t7.5 17.5t-8 18t-16.5 6t-13.5 -5q-16 -10 -29 -10t-31 25q-10 17 -9 28q3 27 33.5 38t49.5 11z" />
    <glyph glyph-name="onesuperior" unicode="&#xb9;" horiz-adv-x="321" 
d="M208 745q73 0 73 -61v-410q0 -45 -33 -54q-16 -4 -42 -4t-41.5 5t-21.5 16q-9 17 -9 39v233q-23 -16 -44.5 -16t-48 24.5t-26.5 52.5q0 22 15 36l11 12q111 100 115 104q23 23 52 23z" />
    <glyph glyph-name="ordmasculine" unicode="&#xba;" horiz-adv-x="439" 
d="M84.5 654q59.5 55 136 55t135 -55t58.5 -141t-60 -138.5t-133.5 -52.5t-134.5 54t-61 138.5t59.5 139.5zM173.5 463.5q22.5 -17.5 46 -17.5t46.5 17.5t23 52.5t-22 51.5t-47 16.5t-47 -17.5t-22 -51.5t22.5 -51.5z" />
    <glyph glyph-name="guillemotright" unicode="&#xbb;" horiz-adv-x="669" 
d="M358 147l115 115l-117 116q-2 2 -10.5 9.5t-11.5 10.5l-9 11q-10 12 -10 31.5t31 50.5t53.5 31t53.5 -31l172 -172q29 -29 29 -57t-29 -57l-172 -172q-31 -31 -53 -31t-53 31t-31 54q0 17 9.5 27.5t20 20.5t12.5 12zM58 147l116 115l-117 116q-3 3 -9 8t-9.5 8.5t-8.5 9
t-8 10.5q-7 10 -7 27.5t31.5 49t54.5 31.5t52 -31l173 -172q28 -28 28 -57t-28 -57l-177 -176q-26 -26 -49 -26t-53.5 30.5t-30.5 53.5q0 17 9.5 27.5t20 20.5t12.5 12z" />
    <glyph glyph-name="onequarter" unicode="&#xbc;" horiz-adv-x="786" 
d="M635.5 416.5q12.5 3.5 33 3.5t33 -4t17.5 -13q7 -13 7 -36v-319q0 -35 -24 -42q-13 -3 -33.5 -3t-33 4t-17.5 11q-7 11 -7 31v68h-148q-21 0 -34 12.5t-13 34t5 43.5l42 169q10 45 40 45q32 0 54 -12.5t22 -32.5l-9 -48l-26 -101h67v142q0 24 6 34t18.5 13.5zM511 761
q13 23 25.5 23t36.5 -13t24 -28q0 -7 -7 -19l-387 -731l-2 -3q-11 -20 -23 -20t-36 12.5t-24 24.5t7 24zM145 396v186q-19 -13 -36 -13t-38 19.5t-21 40.5t21 39q88 79 91 82q18 18 41 18q57 0 57 -48v-324q0 -36 -25 -42q-13 -4 -36.5 -4t-36.5 8t-15 16t-2 22z" />
    <glyph glyph-name="onehalf" unicode="&#xbd;" horiz-adv-x="804" 
d="M626 116h71q35 0 43 -24q4 -13 4 -37t-7.5 -37t-15.5 -15t-24 -2h-216q-23 0 -44 13.5t-21 46.5t20 57.5t49 41.5t58 32q69 37 69 84q0 13 -12 23t-28.5 10t-26.5 -11q-13 -15 -13 -32.5t-3 -28t-17.5 -19t-41 -8.5t-39 10.5t-14 20t-1.5 26.5q0 62 44 109.5t111 47.5
t112 -46t45 -112q0 -62 -45 -105q-32 -30 -57 -45zM511 761q13 23 25.5 23t36.5 -13t24 -28q0 -7 -7 -19l-387 -731l-2 -3q-11 -20 -23 -20t-36 12.5t-24 24.5t7 24zM145 396v186q-19 -13 -36 -13t-38 19.5t-21 40.5t21 39q88 79 91 82q18 18 41 18q57 0 57 -48v-324
q0 -36 -25 -42q-13 -4 -36.5 -4t-36.5 8t-15 16t-2 22z" />
    <glyph glyph-name="threequarters" unicode="&#xbe;" horiz-adv-x="842" 
d="M328 565q44 -32 44 -86t-43.5 -97t-120.5 -43t-126 55q-10 12 -21 35t-11 46q0 41 62 41q41 0 50 -29q1 -5 2.5 -10t6 -11.5t9.5 -11.5q13 -11 31 -11t32 10.5t14 23.5t-1 17t-5 9q-8 10 -31 10t-29 1t-13 5t-10 14t-3 26t7.5 24.5t15 10t20.5 1.5h4q36 0 36 36
q0 14 -11.5 22t-25.5 8t-22.5 -4.5t-10.5 -9.5q-9 -17 -9 -21q-13 -22 -36.5 -22t-44.5 18t-21 42.5t40 64t105.5 39.5t108 -39t42.5 -89t-35 -75zM691 416.5q13 3.5 33.5 3.5t33 -4t17.5 -13q7 -13 7 -36v-319q0 -35 -24 -42q-13 -3 -33.5 -3t-33 4t-17.5 11q-7 11 -7 31
l-1 68h-147q-21 0 -34 12.5t-13 37t5 40.5l42 169q10 45 40 45q32 0 54 -12.5t22 -32.5l-9 -48l-26 -101h66v141q0 25 6 35t19 13.5zM567 761q13 23 25.5 23t36.5 -13t24 -28q0 -7 -7 -19l-387 -731l-2 -3q-11 -20 -23 -20t-36 12.5t-24 24.5t7 24z" />
    <glyph glyph-name="questiondown" unicode="&#xbf;" horiz-adv-x="511" 
d="M430 29q66 -26 66 -59q0 -20 -5 -30t-6 -13.5t-5 -14t-21.5 -36.5t-40 -45.5t-63.5 -36t-91 -16.5q-106 0 -172.5 68t-66.5 158q0 43 15.5 79.5t37.5 57.5q44 42 82 55l16 6q0 18 1.5 26.5t9 19t25 15t46.5 4.5t46 -4.5t24 -16.5q10 -17 10 -52v-8q0 -43 -24.5 -68
t-53.5 -33.5t-53.5 -27t-24.5 -51t18.5 -50.5t55.5 -18t54.5 12t21.5 24l3 11q8 25 20 39t31.5 14t43.5 -9zM313.5 350q-20.5 -7 -64 -7t-63 19t-19.5 60v16q0 24 1.5 35.5t9.5 27.5q16 29 76.5 29t80 -20t19.5 -75q0 -39 -10 -58.5t-30.5 -26.5z" />
    <glyph glyph-name="Agrave" unicode="&#xc0;" horiz-adv-x="765" 
d="M446 756q-9 0 -30 7l-165 52q-27 8 -35 19t-8 27.5t8 40.5q19 59 49 59q4 0 30 -7l165 -51q14 -5 22 -9q21 -10 21 -32.5t-8 -46.5q-19 -59 -49 -59zM463 681l270 -558q17 -34 17 -51q0 -36 -58 -65q-34 -17 -53.5 -17t-32 9t-18 19t-15.5 30l-52 108h-277l-52 -108
q-10 -20 -15.5 -29t-18 -18.5t-32 -9.5t-53.5 17q-58 28 -58 64q0 17 17 51l270 559q11 23 33.5 37t47.5 14q54 0 80 -52zM382 441l-66 -137h133z" />
    <glyph glyph-name="Aacute" unicode="&#xc1;" horiz-adv-x="765" 
d="M353 776l-30 -7q-30 0 -49 59q-8 24 -8 41t6 26q10 13 37 21l165 51q26 7 30 7q30 0 48 -59q8 -24 8 -40.5t-6 -25.5q-10 -13 -37 -21zM463 681l270 -558q17 -34 17 -51q0 -36 -58 -65q-34 -17 -53.5 -17t-32 9t-18 19t-15.5 30l-52 108h-277l-52 -108q-10 -20 -15.5 -29
t-18 -18.5t-32 -9.5t-53.5 17q-58 28 -58 64q0 17 17 51l270 559q11 23 33.5 37t47.5 14q54 0 80 -52zM382 441l-66 -137h133z" />
    <glyph glyph-name="Acircumflex" unicode="&#xc2;" horiz-adv-x="765" 
d="M384 974l23 -5q93 -30 134.5 -44t41.5 -49q0 -19 -11 -40q-26 -53 -60 -53q-9 0 -32 7l-96 42l-93 -40h-1q-20 -7 -33 -7q-38 0 -62 51q-12 26 -12 42q0 32 38 45l139 46zM463 681l270 -558q17 -34 17 -51q0 -36 -58 -65q-34 -17 -53.5 -17t-32 9t-18 19t-15.5 30
l-52 108h-277l-52 -108q-10 -20 -15.5 -29t-18 -18.5t-32 -9.5t-53.5 17q-58 28 -58 64q0 17 17 51l270 559q11 23 33.5 37t47.5 14q54 0 80 -52zM382 441l-66 -137h133z" />
    <glyph glyph-name="Atilde" unicode="&#xc3;" horiz-adv-x="765" 
d="M546 958q36 -25 36 -48q0 -14 -8 -27t-11 -18.5t-14 -19.5t-25 -25q-38 -28 -77 -28t-61.5 13t-37 26t-23.5 13q-14 0 -26 -12q-23 -40 -42.5 -40t-47 24t-27.5 39.5t8 28.5t11 18.5t14.5 19t25.5 24.5q37 27 77 27t62 -12.5t36 -25t23 -12.5q16 0 26 12q21 38 45 38
q15 0 36 -15zM463 681l270 -558q17 -34 17 -51q0 -36 -58 -65q-34 -17 -53.5 -17t-32 9t-18 19t-15.5 30l-52 108h-277l-52 -108q-10 -20 -15.5 -29t-18 -18.5t-32 -9.5t-53.5 17q-58 28 -58 64q0 17 17 51l270 559q11 23 33.5 37t47.5 14q54 0 80 -52zM382 441l-66 -137
h133z" />
    <glyph glyph-name="Adieresis" unicode="&#xc4;" horiz-adv-x="765" 
d="M250 795q-32 0 -51 6t-27 21.5t-9.5 27t-1 36t2 35t9 25.5t27 21t51.5 6t51 -6t27 -21.5t9.5 -27t1.5 -35t-1.5 -35t-9.5 -26.5t-27.5 -21t-51.5 -6zM520 795q-32 0 -51 6t-27 21.5t-9.5 27t-1.5 35.5t1.5 35.5t9.5 26t27.5 20.5t51.5 6t51 -6t27 -21.5t9.5 -27t1.5 -35
t-1.5 -35t-9.5 -26.5t-27.5 -21t-51.5 -6zM463 681l270 -558q17 -34 17 -51q0 -36 -58 -65q-34 -17 -53.5 -17t-32 9t-18 19t-15.5 30l-52 108h-277l-52 -108q-10 -20 -15.5 -29t-18 -18.5t-32 -9.5t-53.5 17q-58 28 -58 64q0 17 17 51l270 559q11 23 33.5 37t47.5 14
q54 0 80 -52zM382 441l-66 -137h133z" />
    <glyph glyph-name="Aring" unicode="&#xc5;" horiz-adv-x="765" 
d="M292.5 882.5q39.5 36.5 90 36.5t89.5 -36t39 -96.5t-51 -99.5l273 -564q17 -34 17 -51q0 -36 -58 -65q-34 -17 -53.5 -17t-32 9t-18 19t-15.5 30l-52 108h-277l-52 -108q-10 -20 -15.5 -29t-18 -18.5t-32 -9.5t-53.5 17q-58 28 -58 64q0 17 8.5 33.5t281.5 581.5
q-52 38 -52 98.5t39.5 97zM382 729q21 0 41 15.5t20 46t-19.5 45.5t-41.5 15t-41.5 -15.5t-19.5 -46t20 -45.5t41 -15zM382 441l-66 -137h133z" />
    <glyph glyph-name="AE" unicode="&#xc6;" horiz-adv-x="1148" 
d="M730 178h311q37 0 54 -10q28 -17 28 -79q0 -70 -37 -83q-17 -5 -52 -5h-394q-36 0 -62 27t-26 63v58h-283l-110 -121q-33 -37 -64 -37t-63 38.5t-32 62t33 60.5q64 69 504 556q25 26 64 26h434q23 0 34.5 -1.5t26.5 -9.5q27 -14 27 -78q0 -62 -25 -77q-21 -11 -58 -11
h-310v-101h195q40 0 58 -10t24 -29t6 -50t-6 -50t-20.5 -27t-26.5 -9.5t-36 -1.5h-194v-101zM403 297h149v164q-4 -5 -149 -164z" />
    <glyph glyph-name="Ccedilla" unicode="&#xc7;" horiz-adv-x="679" 
d="M309 -27q3 18 18 27q-110 24 -201 110q-46 44 -73.5 112t-27.5 147.5t26 143.5t66.5 105t92.5 70q97 54 198 54q47 0 95 -15t73 -29l25 -15q17 -12 27 -19q26 -20 26 -46.5t-21 -55.5q-38 -54 -69 -54q-17 0 -52 22q-42 34 -112 34q-65 0 -128 -45q-30 -22 -50 -62
t-20 -90.5t20 -91t52 -63.5q62 -44 126 -44q31 0 58.5 8t39.5 16l12 9l7 4q32 21 48 21q30 0 66 -56q22 -35 22 -53t-9 -31t-17.5 -19.5t-26.5 -17.5q-56 -40 -140 -54q38 -31 38 -81t-34.5 -78.5t-73.5 -28.5q-26 0 -40 7q-38 19 -40 38l-1 5q0 12 15 30t25.5 18t17.5 -4.5
t11 -5.5q4 -4 12 -4t15.5 6t7.5 17t-7.5 17t-16 6t-17.5 -7t-24.5 -7t-27 20.5t-11.5 29.5z" />
    <glyph glyph-name="Egrave" unicode="&#xc8;" horiz-adv-x="638" 
d="M217 177h308q23 0 34.5 -1.5t26.5 -9.5q27 -14 27 -78q0 -70 -37 -82q-17 -6 -52 -6h-396q-70 0 -82 38q-6 16 -6 51v556q0 51 19 69.5t72 18.5h394q23 0 34.5 -1.5t26.5 -9.5q27 -14 27 -78q0 -70 -37 -82q-17 -6 -52 -6h-307v-101h198q23 0 34.5 -1.5t26.5 -9.5
q27 -14 27 -78q0 -70 -38 -82q-17 -6 -52 -6h-196v-101zM425 756l-30 7l-165 52q-27 8 -35 19t-8 27.5t8 40.5q19 59 49 59q4 0 30 -7l165 -51q14 -5 21 -9q22 -10 22 -32.5t-8 -46.5q-19 -59 -49 -59z" />
    <glyph glyph-name="Eacute" unicode="&#xc9;" horiz-adv-x="638" 
d="M217 177h308q23 0 34.5 -1.5t26.5 -9.5q27 -14 27 -78q0 -70 -37 -82q-17 -6 -52 -6h-396q-70 0 -82 38q-6 16 -6 51v556q0 51 19 69.5t72 18.5h394q23 0 34.5 -1.5t26.5 -9.5q27 -14 27 -78q0 -70 -37 -82q-17 -6 -52 -6h-307v-101h198q23 0 34.5 -1.5t26.5 -9.5
q27 -14 27 -78q0 -70 -38 -82q-17 -6 -52 -6h-196v-101zM288 776q-14 -7 -30 -7q-30 0 -49 59q-8 24 -8 41t7 26q9 13 36 21l165 51q26 7 30 7q30 0 48 -59q8 -24 8 -40.5t-7 -25.5q-9 -13 -36 -21z" />
    <glyph glyph-name="Ecircumflex" unicode="&#xca;" horiz-adv-x="638" 
d="M217 177h308q23 0 34.5 -1.5t26.5 -9.5q27 -14 27 -78q0 -70 -37 -82q-17 -6 -52 -6h-396q-70 0 -82 38q-6 16 -6 51v556q0 51 19 69.5t72 18.5h394q23 0 34.5 -1.5t26.5 -9.5q27 -14 27 -78q0 -70 -37 -82q-17 -6 -52 -6h-307v-101h198q23 0 34.5 -1.5t26.5 -9.5
q27 -14 27 -78q0 -70 -38 -82q-17 -6 -52 -6h-196v-101zM324 974l23 -5q93 -30 134.5 -44t41.5 -49q0 -19 -11 -40q-26 -53 -60 -53q-9 0 -32 7l-96 42l-93 -40h-1q-20 -7 -33 -7q-38 0 -62 51q-12 26 -12 42q0 32 38 45l139 46z" />
    <glyph glyph-name="Edieresis" unicode="&#xcb;" horiz-adv-x="638" 
d="M217 177h308q23 0 34.5 -1.5t26.5 -9.5q27 -14 27 -78q0 -70 -37 -82q-17 -6 -52 -6h-396q-70 0 -82 38q-6 16 -6 51v556q0 51 19 69.5t72 18.5h394q23 0 34.5 -1.5t26.5 -9.5q27 -14 27 -78q0 -70 -37 -82q-17 -6 -52 -6h-307v-101h198q23 0 34.5 -1.5t26.5 -9.5
q27 -14 27 -78q0 -70 -38 -82q-17 -6 -52 -6h-196v-101zM194 795q-32 0 -51 6t-27 21.5t-9.5 27t-1 36t2 35t9 25.5t27 21t51.5 6t51 -6t27 -21.5t9.5 -27t1.5 -35t-1.5 -35t-9.5 -26.5t-27.5 -21t-51.5 -6zM464 795q-32 0 -51 6t-27 21.5t-9.5 27t-1.5 35.5t1.5 35.5
t9.5 26t27.5 20.5t51.5 6t51 -6t27 -21.5t9.5 -27t1.5 -35t-1.5 -35t-9.5 -26.5t-27.5 -21t-51.5 -6z" />
    <glyph glyph-name="Igrave" unicode="&#xcc;" horiz-adv-x="267" 
d="M45 645q0 23 1.5 34.5t9.5 26.5q14 27 78 27q70 0 82 -37q6 -17 6 -52v-556q0 -24 -1.5 -35t-9.5 -26q-14 -27 -78 -27q-70 0 -83 38q-5 16 -5 51v556zM189 756l-30 7l-165 52q-27 8 -35 19t-8 27.5t8 40.5q19 59 49 59q4 0 30 -7l165 -51q14 -5 21 -9q22 -10 22 -32.5
t-8 -46.5q-19 -59 -49 -59z" />
    <glyph glyph-name="Iacute" unicode="&#xcd;" horiz-adv-x="269" 
d="M46 645q0 23 1.5 34.5t9.5 26.5q14 27 78 27q70 0 83 -37q5 -17 5 -52v-556q0 -24 -1.5 -35t-9.5 -26q-14 -27 -78 -27q-70 0 -82 38q-6 16 -6 51v556zM110 776q-14 -7 -30 -7q-30 0 -49 59q-8 24 -8 41t7 26q9 13 36 21l165 51q26 7 30 7q30 0 48 -59q8 -24 8 -40.5
t-7 -25.5q-9 -13 -36 -21z" />
    <glyph glyph-name="Icircumflex" unicode="&#xce;" horiz-adv-x="270" 
d="M46 645q0 23 1.5 34.5t9.5 26.5q14 27 78 27q70 0 83 -37q5 -17 5 -52v-556q0 -24 -1.5 -35t-9.5 -26q-14 -27 -78 -27q-70 0 -82 38q-6 16 -6 51v556zM136 974l23 -5q93 -30 134.5 -44t41.5 -49q0 -19 -11 -40q-26 -53 -60 -53q-9 0 -32 7l-96 42l-93 -40h-1
q-20 -7 -33 -7q-38 0 -62 51q-12 26 -12 42q0 32 38 45l139 46z" />
    <glyph glyph-name="Idieresis" unicode="&#xcf;" horiz-adv-x="268" 
d="M48 645q0 23 1.5 34.5t9.5 26.5q14 27 78 27q70 0 82 -37q6 -17 6 -52v-556q0 -24 -1.5 -35t-9.5 -26q-14 -27 -78 -27q-70 0 -83 38q-5 16 -5 51v556zM2 795q-32 0 -51 6t-27 21.5t-9.5 27t-1 36t2 35t9 25.5t27 21t51.5 6t51 -6t27 -21.5t9.5 -27t1.5 -35t-1.5 -35
t-9.5 -26.5t-27.5 -21t-51.5 -6zM272 795q-32 0 -51 6t-27 21.5t-9.5 27t-1.5 35.5t1.5 35.5t9.5 26t27.5 20.5t51.5 6t51 -6t27 -21.5t9.5 -27t1.5 -35t-1.5 -35t-9.5 -26.5t-27.5 -21t-51.5 -6z" />
    <glyph glyph-name="Eth" unicode="&#xd0;" 
d="M200 734l185 -1q145 0 255 -104.5t110 -257t-107.5 -261.5t-260.5 -109h-183q-61 0 -76 25q-12 21 -12 64v211h-25q-46 0 -56 29q-5 15 -5 39t5 38.5t16 20.5q17 8 41 8h24v210q0 24 1.5 35t9.5 26q14 27 78 27zM312 301h-24v-123h97q72 0 130 53.5t58 134.5t-56.5 135.5
t-132.5 54.5h-96v-120h25q46 0 56 -29q5 -15 5 -39t-4.5 -38.5t-15.5 -20.5q-14 -8 -42 -8z" />
    <glyph glyph-name="Ntilde" unicode="&#xd1;" horiz-adv-x="720" 
d="M542 726q19 6 47.5 6t46 -5t26 -12t12.5 -21q6 -16 6 -51v-555q0 -24 -1.5 -35t-9.5 -26q-14 -27 -78 -27q-39 0 -54 6t-25 19q-225 300 -296 392v-329q0 -24 -1.5 -35t-9.5 -26q-14 -27 -78 -27q-62 0 -76 27q-8 15 -9.5 27t-1.5 35v558q0 38 9.5 55.5t28.5 23.5t49 6
t47.5 -5.5t24.5 -12.5q4 -3 23 -26q211 -287 282 -379v338q0 38 9.5 55.5t28.5 23.5zM524 958q36 -25 36 -48q0 -14 -8 -27t-11 -18.5t-14 -19.5t-25 -25q-38 -28 -77 -28t-61.5 13t-37 26t-23.5 13q-14 0 -26 -12q-23 -40 -42.5 -40t-47 24t-27.5 39.5t8 28.5t11 18.5
t14.5 19t25.5 24.5q37 27 77 27t62 -12.5t36 -25t23 -12.5q16 0 26 12q21 38 45 38q15 0 36 -15z" />
    <glyph glyph-name="Ograve" unicode="&#xd2;" 
d="M384 742q148 0 257 -107t109 -265.5t-104 -270t-256 -111.5t-258.5 110t-106.5 262q0 83 30 155.5t80 121.5t115 77t134 28zM259.5 220.5q57.5 -55.5 128.5 -55.5t128 54t57 145t-57.5 146t-128.5 55t-128 -55.5t-57 -144.5t57.5 -144.5zM456 756q-9 0 -30 7l-165 52
q-27 8 -35 19t-8 27.5t8 40.5q19 59 49 59q4 0 30 -7l165 -51q14 -5 22 -9q21 -10 21 -32.5t-8 -46.5q-19 -59 -49 -59z" />
    <glyph glyph-name="Oacute" unicode="&#xd3;" 
d="M384 742q148 0 257 -107t109 -265.5t-104 -270t-256 -111.5t-258.5 110t-106.5 262q0 83 30 155.5t80 121.5t115 77t134 28zM259.5 220.5q57.5 -55.5 128.5 -55.5t128 54t57 145t-57.5 146t-128.5 55t-128 -55.5t-57 -144.5t57.5 -144.5zM349 776l-30 -7q-30 0 -49 59
q-8 24 -8 41t6 26q10 13 37 21l165 51q26 7 30 7q30 0 48 -59q8 -24 8 -40.5t-6 -25.5q-10 -13 -37 -21z" />
    <glyph glyph-name="Ocircumflex" unicode="&#xd4;" 
d="M384 742q148 0 257 -107t109 -265.5t-104 -270t-256 -111.5t-258.5 110t-106.5 262q0 83 30 155.5t80 121.5t115 77t134 28zM259.5 220.5q57.5 -55.5 128.5 -55.5t128 54t57 145t-57.5 146t-128.5 55t-128 -55.5t-57 -144.5t57.5 -144.5zM390 974l23 -5q93 -30 134.5 -44
t41.5 -49q0 -19 -11 -40q-26 -53 -60 -53q-9 0 -32 7l-96 42l-93 -40h-1q-20 -7 -33 -7q-38 0 -62 51q-12 26 -12 42q0 32 38 45l139 46z" />
    <glyph glyph-name="Otilde" unicode="&#xd5;" 
d="M384 742q148 0 257 -107t109 -265.5t-104 -270t-256 -111.5t-258.5 110t-106.5 262q0 83 30 155.5t80 121.5t115 77t134 28zM259.5 220.5q57.5 -55.5 128.5 -55.5t128 54t57 145t-57.5 146t-128.5 55t-128 -55.5t-57 -144.5t57.5 -144.5zM573 958q36 -25 36 -48
q0 -14 -8 -27t-11 -18.5t-14 -19.5t-25 -25q-38 -28 -77 -28t-61.5 13t-37 26t-23.5 13q-14 0 -26 -12q-23 -40 -42.5 -40t-47 24t-27.5 39.5t8 28.5t11 18.5t14.5 19t25.5 24.5q37 27 77 27t62 -12.5t36 -25t23 -12.5q18 0 26 12q21 38 45 38q15 0 36 -15z" />
    <glyph glyph-name="Odieresis" unicode="&#xd6;" 
d="M384 742q148 0 257 -107t109 -265.5t-104 -270t-256 -111.5t-258.5 110t-106.5 262q0 83 30 155.5t80 121.5t115 77t134 28zM259.5 220.5q57.5 -55.5 128.5 -55.5t128 54t57 145t-57.5 146t-128.5 55t-128 -55.5t-57 -144.5t57.5 -144.5zM248 795q-32 0 -51 6t-27 21.5
t-9.5 27t-1 36t2 35t9 25.5t27 21t51.5 6t51 -6t27 -21.5t9.5 -27t1.5 -35t-1.5 -35t-9.5 -26.5t-27.5 -21t-51.5 -6zM518 795q-32 0 -51 6t-27 21.5t-9.5 27t-1.5 35.5t1.5 35.5t9.5 26t27.5 20.5t51.5 6t51 -6t27 -21.5t9.5 -27t1.5 -35t-1.5 -35t-9.5 -26.5t-27.5 -21
t-51.5 -6z" />
    <glyph glyph-name="multiply" unicode="&#xd7;" horiz-adv-x="521" 
d="M372 265l91 -91q33 -33 33 -57t-31.5 -55.5t-56 -31.5t-56.5 32l-92 92l-91 -92q-32 -32 -56.5 -32t-56 31.5t-31.5 55.5t33 57l91 91l-92 92q-32 32 -32 54.5t32.5 55t56.5 32.5t56 -32l90 -91l91 91q32 32 56 32t56.5 -32.5t32.5 -55t-34 -56.5z" />
    <glyph glyph-name="Oslash" unicode="&#xd8;" 
d="M310 -2q-18 -54 -54 -54q-20 0 -53 15t-44.5 26.5t-11.5 25.5t12 50l4 8q-65 52 -101.5 128.5t-36.5 161t30 157t80 121.5t115 77t124.5 28t104.5 -13q16 41 36 49q8 4 23.5 4t50.5 -16q54 -26 54 -57q0 -19 -18 -59q125 -112 125 -286q0 -153 -104 -264.5t-253 -111.5
q-38 0 -83 10zM259 509.5q-57 -55.5 -57 -137.5t41 -134l157 326q-4 1 -12 1q-72 0 -129 -55.5zM573 365q0 64 -32 112l-150 -312q71 2 126.5 56t55.5 144z" />
    <glyph glyph-name="Ugrave" unicode="&#xd9;" horiz-adv-x="726" 
d="M548 728q19 6 47.5 6t45.5 -5t26 -12t13 -21q6 -17 6 -52v-302q0 -132 -82 -240q-40 -51 -103 -82.5t-139.5 -31.5t-139 32t-101.5 84q-81 106 -81 240v301q0 24 1.5 35.5t9.5 26.5t27 21t51 6t51 -6t26 -21q12 -23 12 -63v-300q0 -61 30 -116q15 -28 45 -45t71 -17
q73 0 109 54t36 125v306q0 39 10 55t29 22zM397 756l-30 7l-165 52q-27 8 -35 19t-8 27.5t8 40.5q19 59 49 59q4 0 30 -7l165 -51q14 -5 21 -9q22 -10 22 -32.5t-8 -46.5q-19 -59 -49 -59z" />
    <glyph glyph-name="Uacute" unicode="&#xda;" horiz-adv-x="726" 
d="M548 728q19 6 47.5 6t45.5 -5t26 -12t13 -21q6 -17 6 -52v-302q0 -132 -82 -240q-40 -51 -103 -82.5t-139.5 -31.5t-139 32t-101.5 84q-81 106 -81 240v301q0 24 1.5 35.5t9.5 26.5t27 21t51 6t51 -6t26 -21q12 -23 12 -63v-300q0 -61 30 -116q15 -28 45 -45t71 -17
q73 0 109 54t36 125v306q0 39 10 55t29 22zM349 776l-30 -7q-30 0 -49 59q-8 24 -8 41t6 26q10 13 37 21l165 51q26 7 30 7q30 0 48 -59q8 -24 8 -40.5t-6 -25.5q-10 -13 -37 -21z" />
    <glyph glyph-name="Ucircumflex" unicode="&#xdb;" horiz-adv-x="726" 
d="M548 728q19 6 47.5 6t45.5 -5t26 -12t13 -21q6 -17 6 -52v-302q0 -132 -82 -240q-40 -51 -103 -82.5t-139.5 -31.5t-139 32t-101.5 84q-81 106 -81 240v301q0 24 1.5 35.5t9.5 26.5t27 21t51 6t51 -6t26 -21q12 -23 12 -63v-300q0 -61 30 -116q15 -28 45 -45t71 -17
q73 0 109 54t36 125v306q0 39 10 55t29 22zM377 974l23 -5q93 -30 134.5 -44t41.5 -49q0 -19 -11 -40q-27 -53 -60 -53q-9 0 -32 7l-96 42l-93 -40q-14 -7 -34 -7q-38 0 -62 51q-12 26 -12 42q0 32 38 45l139 46z" />
    <glyph glyph-name="Udieresis" unicode="&#xdc;" horiz-adv-x="726" 
d="M548 728q19 6 47.5 6t45.5 -5t26 -12t13 -21q6 -17 6 -52v-302q0 -132 -82 -240q-40 -51 -103 -82.5t-139.5 -31.5t-139 32t-101.5 84q-81 106 -81 240v301q0 24 1.5 35.5t9.5 26.5t27 21t51 6t51 -6t26 -21q12 -23 12 -63v-300q0 -61 30 -116q15 -28 45 -45t71 -17
q73 0 109 54t36 125v306q0 39 10 55t29 22zM498 795q-32 0 -51 6t-27 21.5t-9.5 27t-1.5 35.5t1.5 35.5t9.5 26t27.5 20.5t51.5 6t51 -6t27 -21.5t9.5 -27t1.5 -35t-1.5 -35t-9.5 -26.5t-27.5 -21t-51.5 -6zM228 795q-32 0 -51 6t-27 21.5t-9.5 27t-1 36t2 35t9 25.5t27 21
t51.5 6t51 -6t27 -21.5t9.5 -27t1.5 -35t-1.5 -35t-9.5 -26.5t-27.5 -21t-51.5 -6z" />
    <glyph glyph-name="Yacute" unicode="&#xdd;" horiz-adv-x="686" 
d="M622 719q49 -34 49 -66q0 -19 -23 -53l-216 -323v-191q0 -23 -1.5 -34.5t-9.5 -26.5t-27 -21t-51 -6t-51 6t-27 21.5t-9.5 27t-1.5 35.5v189l-216 323q-23 34 -23 53q0 32 44 61.5t63 29.5t30 -8q17 -11 36 -41l155 -248l155 248q19 30 33 39.5t32.5 9.5t58.5 -25z
M302 776q-14 -7 -30 -7q-30 0 -49 59q-8 24 -8 41t7 26q9 13 36 21l165 51q26 7 30 7q30 0 48 -59q8 -24 8 -40.5t-7 -25.5q-9 -13 -36 -21z" />
    <glyph glyph-name="Thorn" unicode="&#xde;" horiz-adv-x="634" 
d="M40 645q0 23 1.5 34.5t9.5 26.5q14 27 78 27q70 0 83 -37q5 -17 5 -52v-12h126q88 0 171 -64q41 -31 67 -84t26 -118t-26 -117.5t-67 -83.5q-83 -64 -172 -64h-125v-12q0 -23 -1.5 -34.5t-9.5 -26.5q-14 -27 -78 -27q-70 0 -82 37q-6 17 -6 52v555zM402 300q29 22 29 66
t-29 66.5t-60 22.5h-125v-177h126q30 0 59 22z" />
    <glyph glyph-name="germandbls" unicode="&#xdf;" horiz-adv-x="633" 
d="M455 460q-21 -22 -21 -37.5t18 -32.5t43.5 -33t51 -37t43.5 -58t18 -86q0 -179 -183 -179q-36 0 -80.5 7t-63.5 20t-19 39.5t7 54.5q15 58 47 58q13 0 47 -13.5t47 -13.5q34 0 34 55q0 15 -26 34.5t-57 38t-57 54t-26 75t11.5 67.5t24.5 42q37 38 37 65q0 25 -48 25
q-90 0 -90 -78v-474q0 -23 -1.5 -34t-9 -25t-26.5 -20t-50 -6t-49.5 6t-26 20.5t-9 26t-1.5 34.5v463q0 85 20 130t84 74.5t157 29.5q218 0 218 -138q0 -54 -21.5 -93t-42.5 -61z" />
    <glyph glyph-name="agrave" unicode="&#xe0;" horiz-adv-x="596" 
d="M382 471q6 56 79 56q39 0 58 -6t26.5 -21t9 -26.5t1.5 -34.5v-350q0 -23 -1.5 -34.5t-8.5 -26.5q-14 -26 -68.5 -26t-73 13.5t-21.5 39.5q-37 -53 -123.5 -53t-160.5 79t-74 183.5t74.5 183t163.5 78.5q34 0 62 -12t39 -22.5t18 -20.5zM402 569q-14 0 -30 7l-165 52
q-27 8 -35 19t-8 27.5t8 40.5q19 59 49 59q4 0 30 -7l165 -51q14 -5 22 -8q21 -11 21 -33.5t-8 -46.5q-19 -59 -49 -59zM226 203.5q26 -26.5 63 -26.5t61.5 27t24.5 59.5t-23.5 60.5t-63 28t-64 -28t-24.5 -61t26 -59.5z" />
    <glyph glyph-name="aacute" unicode="&#xe1;" horiz-adv-x="596" 
d="M382 471q6 56 79 56q39 0 58 -6t26.5 -21t9 -26.5t1.5 -34.5v-350q0 -23 -1.5 -34.5t-8.5 -26.5q-14 -26 -68.5 -26t-73 13.5t-21.5 39.5q-37 -53 -123.5 -53t-160.5 79t-74 183.5t74.5 183t163.5 78.5q34 0 62 -12t39 -22.5t18 -20.5zM265 576l-30 -7q-30 0 -49 59
q-8 24 -8 41t6 26q10 13 37 21l165 51q26 7 30 7q30 0 48 -59q8 -24 8 -40.5t-6 -25.5q-10 -13 -37 -21zM226 203.5q26 -26.5 63 -26.5t61.5 27t24.5 59.5t-23.5 60.5t-63 28t-64 -28t-24.5 -61t26 -59.5z" />
    <glyph glyph-name="acircumflex" unicode="&#xe2;" horiz-adv-x="596" 
d="M382 471q6 56 79 56q39 0 58 -6t26.5 -21t9 -26.5t1.5 -34.5v-350q0 -23 -1.5 -34.5t-8.5 -26.5q-14 -26 -68.5 -26t-73 13.5t-21.5 39.5q-37 -53 -123.5 -53t-160.5 79t-74 183.5t74.5 183t163.5 78.5q34 0 62 -12t39 -22.5t18 -20.5zM226 203.5q26 -26.5 63 -26.5
t61.5 27t24.5 59.5t-23.5 60.5t-63 28t-64 -28t-24.5 -61t26 -59.5zM327 774l23 -5q93 -30 134.5 -44t41.5 -49q0 -19 -11 -40q-27 -53 -60 -53q-9 0 -32 7l-96 42l-93 -40q-14 -7 -34 -7q-38 0 -62 51q-12 26 -12 42q0 32 38 45l139 46z" />
    <glyph glyph-name="atilde" unicode="&#xe3;" horiz-adv-x="596" 
d="M382 471q6 56 79 56q39 0 58 -6t26.5 -21t9 -26.5t1.5 -34.5v-350q0 -23 -1.5 -34.5t-8.5 -26.5q-14 -26 -68.5 -26t-73 13.5t-21.5 39.5q-37 -53 -123.5 -53t-160.5 79t-74 183.5t74.5 183t163.5 78.5q34 0 62 -12t39 -22.5t18 -20.5zM226 203.5q26 -26.5 63 -26.5
t61.5 27t24.5 59.5t-23.5 60.5t-63 28t-64 -28t-24.5 -61t26 -59.5zM489 758q36 -25 36 -48q0 -14 -8 -27t-11 -18.5t-14 -19.5t-25 -25q-38 -28 -77 -28t-61.5 13t-37 26t-23.5 13q-14 0 -26 -12q-23 -40 -42.5 -40t-47 24t-27.5 39.5t8 28.5t11 18.5t14.5 19t25.5 24.5
q37 27 87 27q46 0 88 -37q14 -13 23 -13q18 0 26 12q21 38 45 38q15 0 36 -15z" />
    <glyph glyph-name="adieresis" unicode="&#xe4;" horiz-adv-x="596" 
d="M382 471q6 56 79 56q39 0 58 -6t26.5 -21t9 -26.5t1.5 -34.5v-350q0 -23 -1.5 -34.5t-8.5 -26.5q-14 -26 -68.5 -26t-73 13.5t-21.5 39.5q-37 -53 -123.5 -53t-160.5 79t-74 183.5t74.5 183t163.5 78.5q34 0 62 -12t39 -22.5t18 -20.5zM226 203.5q26 -26.5 63 -26.5
t61.5 27t24.5 59.5t-23.5 60.5t-63 28t-64 -28t-24.5 -61t26 -59.5zM190 595q-32 0 -51 6t-27 21.5t-9.5 27t-1 36t2 35t9 25.5t27 21t51.5 6t51 -6t27 -21.5t9.5 -27t1.5 -35t-1.5 -35t-9.5 -26.5t-27.5 -21t-51.5 -6zM460 595q-32 0 -51 6t-27 21.5t-9.5 27t-1.5 35.5
t1.5 35.5t9.5 26t27.5 20.5t51.5 6t51 -6t27 -21.5t9.5 -27t1.5 -35t-1.5 -35t-9.5 -26.5t-27.5 -21t-51.5 -6z" />
    <glyph glyph-name="aring" unicode="&#xe5;" horiz-adv-x="596" 
d="M257.5 722q31.5 29 71.5 29t70.5 -28.5t30.5 -73.5t-31.5 -73t-70 -28t-70.5 28.5t-32 72.5t31.5 73zM328 602q17 0 32.5 12t15.5 36t-15 36t-32.5 12t-33 -12.5t-15.5 -36t15.5 -35.5t32.5 -12zM382 471q6 56 79 56q39 0 58 -6t26.5 -21t9 -26.5t1.5 -34.5v-350
q0 -23 -1.5 -34.5t-8.5 -26.5q-14 -26 -68.5 -26t-73 13.5t-21.5 39.5q-37 -53 -123.5 -53t-160.5 79t-74 183.5t74.5 183t163.5 78.5q34 0 62 -12t39 -22.5t18 -20.5zM226 203.5q26 -26.5 63 -26.5t61.5 27t24.5 59.5t-23.5 60.5t-63 28t-64 -28t-24.5 -61t26 -59.5z" />
    <glyph glyph-name="ae" unicode="&#xe6;" horiz-adv-x="910" 
d="M752 159q26 10 39 10q33 0 55 -43q13 -26 13 -45t-11 -32.5t-21 -18t-18.5 -7.5t-10 -3.5t-2.5 -1.5q-69 -25 -147 -25q-137 0 -213 85l-2 -4q-39 -40 -87.5 -61.5t-139.5 -21.5q-182 0 -182 158q0 65 58 98t145 33t133 -31v6q-10 118 -84 118q-44 0 -77 -35t-63.5 -35
t-64 40t-33.5 66t32 55.5t85 50t118 20.5q104 0 179 -72q77 69 196 69q58 0 105.5 -19.5t74.5 -50.5q56 -63 56 -129.5t-30.5 -95t-67.5 -28.5h-233q0 -28 32.5 -47t64.5 -19q59 0 91 12zM245 109q38 0 74.5 14.5t55.5 38.5l-3 9q-46 18 -120 18t-74 -34q0 -46 67 -46z
M696.5 366q-17.5 14 -49 14t-63 -26t-31.5 -56h126q35 0 35 31q0 23 -17.5 37z" />
    <glyph glyph-name="ccedilla" unicode="&#xe7;" horiz-adv-x="524" 
d="M201 -21q3 17 16 27q-81 26 -136.5 93.5t-55.5 167.5q0 64 26 117.5t67 85.5q87 68 181 68q39 0 75 -10t53 -20l17 -11q19 -12 28 -19q27 -21 27 -46t-22 -60q-36 -55 -70 -55q-19 0 -54 22q-19 17 -53 17t-63 -23.5t-29 -67t28.5 -67.5t60.5 -24t59.5 18.5t44.5 18.5
q30 0 75 -54q23 -29 23 -53q0 -37 -55 -72q-32 -22 -83 -33q35 -31 35 -81.5t-35.5 -80t-76.5 -29.5q-27 0 -41 8q-39 20 -41 39l-1 5q0 12 15.5 30.5t26.5 18.5t18 -4.5t11 -5.5q4 -4 12.5 -4t16 6t7.5 17.5t-7.5 17.5t-16 6t-13.5 -5q-16 -10 -29.5 -10t-27 21t-13.5 31z
" />
    <glyph glyph-name="egrave" unicode="&#xe8;" horiz-adv-x="573" 
d="M379 569l-30 7l-165 52q-27 8 -35 19t-8 27.5t8 40.5q19 59 49 59q4 0 30 -7l165 -51q14 -5 21 -8q22 -11 22 -33.5t-8 -46.5q-19 -59 -49 -59zM517.5 235.5q-30.5 -29.5 -67.5 -29.5h-237q0 -28 33 -47t66 -19q58 0 91 12l11 4q24 11 40 11q32 0 55 -45q13 -27 13 -46
q0 -89 -213 -89q-74 0 -131.5 25.5t-89.5 67.5q-63 81 -63 181q0 126 81.5 201.5t203.5 75.5q139 0 204 -98q34 -52 34 -113.5t-30.5 -91zM337 297q38 0 38 32q0 23 -17.5 37t-50 14t-64.5 -26.5t-32 -56.5h126z" />
    <glyph glyph-name="eacute" unicode="&#xe9;" horiz-adv-x="573" 
d="M256 576q-14 -7 -30 -7q-30 0 -49 59q-8 24 -8 41t7 26q9 13 36 21l165 51q26 7 30 7q30 0 48 -59q8 -24 8 -40.5t-7 -25.5q-9 -13 -36 -21zM517.5 235.5q-30.5 -29.5 -67.5 -29.5h-237q0 -28 33 -47t66 -19q58 0 91 12l11 4q24 11 40 11q32 0 55 -45q13 -27 13 -46
q0 -89 -213 -89q-74 0 -131.5 25.5t-89.5 67.5q-63 81 -63 181q0 126 81.5 201.5t203.5 75.5q139 0 204 -98q34 -52 34 -113.5t-30.5 -91zM337 297q38 0 38 32q0 23 -17.5 37t-50 14t-64.5 -26.5t-32 -56.5h126z" />
    <glyph glyph-name="ecircumflex" unicode="&#xea;" horiz-adv-x="573" 
d="M297 774l23 -5q93 -30 134.5 -44t41.5 -49q0 -19 -11 -40q-27 -53 -60 -53q-9 0 -32 7l-96 42l-93 -40q-14 -7 -34 -7q-38 0 -62 51q-12 26 -12 42q0 32 38 45l139 46zM517.5 235.5q-30.5 -29.5 -67.5 -29.5h-237q0 -28 33 -47t66 -19q58 0 91 12l11 4q24 11 40 11
q32 0 55 -45q13 -27 13 -46q0 -89 -213 -89q-74 0 -131.5 25.5t-89.5 67.5q-63 81 -63 181q0 126 81.5 201.5t203.5 75.5q139 0 204 -98q34 -52 34 -113.5t-30.5 -91zM337 297q38 0 38 32q0 23 -17.5 37t-50 14t-64.5 -26.5t-32 -56.5h126z" />
    <glyph glyph-name="edieresis" unicode="&#xeb;" horiz-adv-x="573" 
d="M423 595q-32 0 -51 6t-27 21.5t-9.5 27t-1.5 35.5t1.5 35.5t9.5 26t27.5 20.5t51.5 6t51 -6t27 -21.5t9.5 -27t1.5 -35t-1.5 -35t-9.5 -26.5t-27.5 -21t-51.5 -6zM153 595q-32 0 -51 6t-27 21.5t-9.5 27t-1 36t2 35t9 25.5t27 21t51.5 6t51 -6t27 -21.5t9.5 -27t1.5 -35
t-1.5 -35t-9.5 -26.5t-27.5 -21t-51.5 -6zM517.5 235.5q-30.5 -29.5 -67.5 -29.5h-237q0 -28 33 -47t66 -19q58 0 91 12l11 4q24 11 40 11q32 0 55 -45q13 -27 13 -46q0 -89 -213 -89q-74 0 -131.5 25.5t-89.5 67.5q-63 81 -63 181q0 126 81.5 201.5t203.5 75.5
q139 0 204 -98q34 -52 34 -113.5t-30.5 -91zM337 297q38 0 38 32q0 23 -17.5 37t-50 14t-64.5 -26.5t-32 -56.5h126z" />
    <glyph glyph-name="igrave" unicode="&#xec;" horiz-adv-x="255" 
d="M40 439q0 23 1.5 34.5t8.5 26.5q14 26 78 26q48 0 68 -17q17 -14 18 -43q1 -10 1 -29v-350q0 -23 -1.5 -34.5t-9.5 -26.5q-13 -26 -77 -26q-63 0 -77 27q-7 15 -8.5 26t-1.5 35v351zM191 569l-30 7l-165 52q-27 8 -35 19t-8 27.5t8 40.5q19 59 49 59q4 0 30 -7l165 -51
q14 -5 21 -8q22 -11 22 -33.5t-8 -46.5q-19 -59 -49 -59z" />
    <glyph glyph-name="iacute" unicode="&#xed;" horiz-adv-x="255" 
d="M40 439q0 23 1.5 34.5t8.5 26.5q14 26 78 26q48 0 68 -17q17 -14 18 -43q1 -10 1 -29v-350q0 -23 -1.5 -34.5t-9.5 -26.5q-13 -26 -77 -26q-63 0 -77 27q-7 15 -8.5 26t-1.5 35v351zM103 576l-30 -7q-30 0 -49 59q-8 24 -8 41t6 26q10 13 37 21l165 51q26 7 30 7
q30 0 48 -59q8 -24 8 -40.5t-6 -25.5q-10 -13 -37 -21z" />
    <glyph glyph-name="icircumflex" unicode="&#xee;" horiz-adv-x="255" 
d="M40 439q0 23 1.5 34.5t8.5 26.5q14 26 78 26q48 0 68 -17q17 -14 18 -43q1 -10 1 -29v-350q0 -23 -1.5 -34.5t-9.5 -26.5q-13 -26 -77 -26q-63 0 -77 27q-7 15 -8.5 26t-1.5 35v351zM129 774l23 -5q93 -30 134.5 -44t41.5 -49q0 -19 -11 -40q-27 -53 -60 -53q-9 0 -32 7
l-96 42l-93 -40q-14 -7 -34 -7q-38 0 -62 51q-12 26 -12 42q0 32 38 45l139 46z" />
    <glyph glyph-name="idieresis" unicode="&#xef;" horiz-adv-x="255" 
d="M41 439q0 23 1.5 34.5t8.5 26.5q14 26 78 26q48 0 68 -17q17 -14 18 -43q1 -10 1 -29v-350q0 -23 -1.5 -34.5t-9.5 -26.5q-13 -26 -77 -26q-63 0 -77 27q-7 15 -8.5 26t-1.5 35v351zM-7 595q-32 0 -51 6t-27 21.5t-9.5 27t-1 36t2 35t9 25.5t27 21t51.5 6t51 -6t27 -21.5
t9.5 -27t1.5 -35t-1.5 -35t-9.5 -26.5t-27.5 -21t-51.5 -6zM263 595q-32 0 -51 6t-27 21.5t-9.5 27t-1.5 35.5t1.5 35.5t9.5 26t27.5 20.5t51.5 6t51 -6t27 -21.5t9.5 -27t1.5 -35t-1.5 -35t-9.5 -26.5t-27.5 -21t-51.5 -6z" />
    <glyph glyph-name="eth" unicode="&#xf0;" horiz-adv-x="585" 
d="M386 735l-24 -32q198 -144 198 -413q0 -16 -2 -48q-6 -95 -81.5 -173t-180.5 -78t-188 74.5t-83 189.5q0 56 23.5 106t60.5 83t81 52t89.5 19t74 -12t58.5 -35q-53 91 -128 131l-31 -41q-17 -23 -29 -23t-28 10q-29 17 -29 34q0 9 13 26l23 31l-3 1q-1 1 -17.5 9.5
t-22 16t-5.5 22.5t14 42q22 42 52 42q15 0 65 -22l24 32q2 2 5.5 7.5t5.5 8t5 5.5q8 6 18 6t26 -11q27 -16 27 -29.5t-11 -30.5zM228 186.5q31 -23.5 63.5 -23.5t64 23.5t31.5 71.5t-30 71t-65 23t-65 -24t-30 -71t31 -70.5z" />
    <glyph glyph-name="ntilde" unicode="&#xf1;" horiz-adv-x="606" 
d="M333 527q100 0 166.5 -76.5t66.5 -186.5v-176q0 -23 -1.5 -34.5t-8.5 -25.5q-14 -27 -78 -27q-71 0 -82 37q-6 17 -6 51v176q0 41 -23.5 64t-63 23t-64 -24t-24.5 -63v-177q0 -23 -1.5 -34.5t-9.5 -25.5q-13 -27 -77 -27q-63 0 -77 27q-7 15 -8.5 26.5t-1.5 34.5v354
q0 22 1.5 33.5t9.5 25.5q14 25 77 25q61 0 75 -23q10 -17 10 -41q4 7 18 20t27 21q34 23 75 23zM470 758q36 -25 36 -48q0 -14 -8 -27t-11 -18.5t-14 -19.5t-25 -25q-38 -28 -77 -28t-61.5 13t-37 26t-23.5 13q-14 0 -26 -12q-23 -40 -42.5 -40t-47 24t-27.5 39.5t8 28.5
t11 18.5t14.5 19t25.5 24.5q37 27 77 27t62 -12.5t36 -25t23 -12.5q16 0 26 12q21 38 45 38q15 0 36 -15z" />
    <glyph glyph-name="ograve" unicode="&#xf2;" horiz-adv-x="600" 
d="M109 461q84 78 192 78t191 -77.5t83 -197.5q0 -83 -43 -147.5t-104.5 -95t-127.5 -30.5t-128 32.5t-104.5 96t-42.5 143.5q0 120 84 198zM389 569l-30 7l-165 52q-27 8 -35 19t-8 27.5t8 40.5q19 59 49 59q4 0 30 -7l165 -51q14 -5 21 -8q22 -11 22 -33.5t-8 -46.5
q-19 -59 -49 -59zM299 167q33 0 66 25t33 74t-31 73t-67 24t-67 -25t-31 -73.5t32 -73t65 -24.5z" />
    <glyph glyph-name="oacute" unicode="&#xf3;" horiz-adv-x="600" 
d="M109 461q84 78 192 78t191 -77.5t83 -197.5q0 -83 -43 -147.5t-104.5 -95t-127.5 -30.5t-128 32.5t-104.5 96t-42.5 143.5q0 120 84 198zM263 576l-30 -7q-30 0 -49 59q-8 24 -8 41t6 26q10 13 37 21l165 51q26 7 30 7q30 0 48 -59q8 -24 8 -40.5t-6 -25.5
q-10 -13 -37 -21zM299 167q33 0 66 25t33 74t-31 73t-67 24t-67 -25t-31 -73.5t32 -73t65 -24.5z" />
    <glyph glyph-name="ocircumflex" unicode="&#xf4;" horiz-adv-x="600" 
d="M109 461q84 78 192 78t191 -77.5t83 -197.5q0 -83 -43 -147.5t-104.5 -95t-127.5 -30.5t-128 32.5t-104.5 96t-42.5 143.5q0 120 84 198zM299 167q33 0 66 25t33 74t-31 73t-67 24t-67 -25t-31 -73.5t32 -73t65 -24.5zM304 774l23 -5q93 -30 134.5 -44t41.5 -49
q0 -19 -11 -40q-26 -53 -60 -53q-9 0 -32 7l-96 42l-93 -40h-1q-20 -7 -33 -7q-38 0 -62 51q-12 26 -12 42q0 32 38 45l139 46z" />
    <glyph glyph-name="otilde" unicode="&#xf5;" horiz-adv-x="600" 
d="M109 461q84 78 192 78t191 -77.5t83 -197.5q0 -83 -43 -147.5t-104.5 -95t-127.5 -30.5t-128 32.5t-104.5 96t-42.5 143.5q0 120 84 198zM299 167q33 0 66 25t33 74t-31 73t-67 24t-67 -25t-31 -73.5t32 -73t65 -24.5zM466 758q36 -25 36 -48q0 -14 -8 -27t-11 -18.5
t-14 -19.5t-25 -25q-38 -28 -77 -28t-61.5 13t-37 26t-23.5 13q-14 0 -26 -12q-23 -40 -42.5 -40t-47 24t-27.5 39.5t8 28.5t11 18.5t14.5 19t25.5 24.5q37 27 77 27t62 -12.5t36 -25t23 -12.5q16 0 26 12q21 38 45 38q15 0 36 -15z" />
    <glyph glyph-name="odieresis" unicode="&#xf6;" horiz-adv-x="600" 
d="M109 461q84 78 192 78t191 -77.5t83 -197.5q0 -83 -43 -147.5t-104.5 -95t-127.5 -30.5t-128 32.5t-104.5 96t-42.5 143.5q0 120 84 198zM299 167q33 0 66 25t33 74t-31 73t-67 24t-67 -25t-31 -73.5t32 -73t65 -24.5zM160 595q-32 0 -51 6t-27 21.5t-9.5 27t-1 36t2 35
t9 25.5t27 21t51.5 6t51 -6t27 -21.5t9.5 -27t1.5 -35t-1.5 -35t-9.5 -26.5t-27.5 -21t-51.5 -6zM430 595q-32 0 -51 6t-27 21.5t-9.5 27t-1.5 35.5t1.5 35.5t9.5 26t27.5 20.5t51.5 6t51 -6t27 -21.5t9.5 -27t1.5 -35t-1.5 -35t-9.5 -26.5t-27.5 -21t-51.5 -6z" />
    <glyph glyph-name="divide" unicode="&#xf7;" horiz-adv-x="503" 
d="M405 346q57 0 67 -30q6 -16 6 -42t-5 -41t-17 -21q-18 -10 -52 -10h-309q-53 0 -65 32q-5 15 -5 40.5t6 41t19 21.5q20 9 49 9h306zM205.5 159q17.5 6 55.5 6t55 -17t17 -62v-4q0 -35 -9 -52q-14 -28 -67 -28t-71 19q-16 15 -15.5 50t2 45t8.5 23.5t24.5 19.5zM298 389
q-18 -6 -56 -6t-55 17.5t-16.5 52t2 44.5t8.5 23q13 26 65 26t72 -18q15 -15 15 -61v-4q0 -35 -8.5 -51.5t-26.5 -22.5z" />
    <glyph glyph-name="oslash" unicode="&#xf8;" horiz-adv-x="600" 
d="M488 464q87 -80 87 -201q0 -83 -43 -147.5t-104.5 -95t-126.5 -30.5q-21 0 -40 3l-48 -100q-8 -17 -12.5 -25t-15 -15.5t-27.5 -7.5t-50 15t-44.5 26.5t-11.5 31.5t12 44l49 102q-88 80 -88 199t84 197t190 78q19 0 39 -3l48 100q19 38 34 45q8 3 23.5 3t50.5 -16
q54 -26 54 -57q0 -13 -14 -50zM299 166q33 0 66 25t33 74t-31 73t-67 24t-67 -25t-31 -73.5t32 -73t65 -24.5z" />
    <glyph glyph-name="ugrave" unicode="&#xf9;" horiz-adv-x="606" 
d="M274 2q-101 0 -167.5 76.5t-66.5 186.5v175q0 24 1.5 35t8.5 26q14 27 78 27q70 0 82 -38q6 -16 6 -51v-175q0 -41 23.5 -64t63 -23t64 24t24.5 63v177q0 23 1.5 34.5t9.5 26.5q13 26 77 26q63 0 77 -27q7 -15 8.5 -26.5t1.5 -34.5v-354q0 -22 -1.5 -33.5t-9.5 -25.5
q-15 -26 -77 -26q-61 0 -75 24q-10 17 -10 41q-4 -7 -18 -20t-27 -22q-34 -22 -74 -22zM388 569q-14 0 -30 7l-165 52q-27 8 -35 19t-8 27.5t8 40.5q19 59 49 59q4 0 30 -7l165 -51q14 -5 22 -8q21 -11 21 -33.5t-8 -46.5q-19 -59 -49 -59z" />
    <glyph glyph-name="uacute" unicode="&#xfa;" horiz-adv-x="606" 
d="M274 2q-101 0 -167.5 76.5t-66.5 186.5v175q0 24 1.5 35t8.5 26q14 27 78 27q70 0 82 -38q6 -16 6 -51v-175q0 -41 23.5 -64t63 -23t64 24t24.5 63v177q0 23 1.5 34.5t9.5 26.5q13 26 77 26q63 0 77 -27q7 -15 8.5 -26.5t1.5 -34.5v-354q0 -22 -1.5 -33.5t-9.5 -25.5
q-15 -26 -77 -26q-61 0 -75 24q-10 17 -10 41q-4 -7 -18 -20t-27 -22q-34 -22 -74 -22zM279 576l-30 -7q-30 0 -49 59q-8 24 -8 41t6 26q10 13 37 21l165 51q26 7 30 7q30 0 48 -59q8 -24 8 -40.5t-6 -25.5q-10 -13 -37 -21z" />
    <glyph glyph-name="ucircumflex" unicode="&#xfb;" horiz-adv-x="606" 
d="M274 2q-101 0 -167.5 76.5t-66.5 186.5v175q0 24 1.5 35t8.5 26q14 27 78 27q70 0 82 -38q6 -16 6 -51v-175q0 -41 23.5 -64t63 -23t64 24t24.5 63v177q0 23 1.5 34.5t9.5 26.5q13 26 77 26q63 0 77 -27q7 -15 8.5 -26.5t1.5 -34.5v-354q0 -22 -1.5 -33.5t-9.5 -25.5
q-15 -26 -77 -26q-61 0 -75 24q-10 17 -10 41q-4 -7 -18 -20t-27 -22q-34 -22 -74 -22zM308 774l23 -5q93 -30 134.5 -44t41.5 -49q0 -19 -11 -40q-26 -53 -60 -53q-9 0 -32 7l-96 42l-93 -40h-1q-20 -7 -33 -7q-38 0 -62 51q-12 26 -12 42q0 32 38 45l139 46z" />
    <glyph glyph-name="udieresis" unicode="&#xfc;" horiz-adv-x="606" 
d="M274 2q-101 0 -167.5 76.5t-66.5 186.5v175q0 24 1.5 35t8.5 26q14 27 78 27q70 0 82 -38q6 -16 6 -51v-175q0 -41 23.5 -64t63 -23t64 24t24.5 63v177q0 23 1.5 34.5t9.5 26.5q13 26 77 26q63 0 77 -27q7 -15 8.5 -26.5t1.5 -34.5v-354q0 -22 -1.5 -33.5t-9.5 -25.5
q-15 -26 -77 -26q-61 0 -75 24q-10 17 -10 41q-4 -7 -18 -20t-27 -22q-34 -22 -74 -22zM435 595q-32 0 -51 6t-27 21.5t-9.5 27t-1.5 35.5t1.5 35.5t9.5 26t27.5 20.5t51.5 6t51 -6t27 -21.5t9.5 -27t1.5 -35t-1.5 -35t-9.5 -26.5t-27.5 -21t-51.5 -6zM165 595q-32 0 -51 6
t-27 21.5t-9.5 27t-1 36t2 35t9 25.5t27 21t51.5 6t51 -6t27 -21.5t9.5 -27t1.5 -35t-1.5 -35t-9.5 -26.5t-27.5 -21t-51.5 -6z" />
    <glyph glyph-name="yacute" unicode="&#xfd;" horiz-adv-x="604" 
d="M530 521q59 -26 59 -63q0 -18 -8 -34t-8 -17l-262 -586q-8 -19 -13.5 -29t-17.5 -19t-30 -9t-53 15q-59 26 -59 62q0 24 96 229l-199 335q-20 33 -20 49q0 32 54 64q34 20 53 20t31 -8t17.5 -16.5t55 -93t94.5 -157.5q5 16 54 123.5t52.5 114.5t11.5 17q13 17 36.5 17
t55.5 -14zM275 576l-30 -7q-30 0 -49 59q-8 24 -8 41t6 26q10 13 37 21l165 51q26 7 30 7q30 0 48 -59q8 -24 8 -40.5t-6 -25.5q-10 -13 -37 -21z" />
    <glyph glyph-name="thorn" unicode="&#xfe;" horiz-adv-x="580" 
d="M317 526q89 0 163.5 -79t74.5 -183.5t-74 -183t-158 -78.5t-121 46v-189q0 -39 -8.5 -56t-26 -23t-47 -6t-46.5 6t-24 20q-10 21 -10 61v840q0 39 8.5 56.5t26.5 23.5t47 6t46.5 -6t24.5 -21q10 -20 10 -60v-223q40 49 114 49zM291 176q37 0 63 27t26 60t-24 60.5
t-64 27.5t-63.5 -28t-23.5 -60.5t24.5 -59.5t61.5 -27z" />
    <glyph glyph-name="ydieresis" unicode="&#xff;" horiz-adv-x="604" 
d="M530 521q59 -26 59 -63q0 -18 -8 -34t-8 -17l-262 -586q-8 -19 -13.5 -29t-17.5 -19t-30 -9t-53 15q-59 26 -59 62q0 24 96 229l-199 335q-20 33 -20 49q0 32 54 64q34 20 53 20t31 -8t17.5 -16.5t55 -93t94.5 -157.5q5 16 54 123.5t52.5 114.5t11.5 17q13 17 36.5 17
t55.5 -14zM176 595q-32 0 -51 6t-27 21.5t-9.5 27t-1 36t2 35t9 25.5t27 21t51.5 6t51 -6t27 -21.5t9.5 -27t1.5 -35t-1.5 -35t-9.5 -26.5t-27.5 -21t-51.5 -6zM446 595q-32 0 -51 6t-27 21.5t-9.5 27t-1.5 35.5t1.5 35.5t9.5 26t27.5 20.5t51.5 6t51 -6t27 -21.5t9.5 -27
t1.5 -35t-1.5 -35t-9.5 -26.5t-27.5 -21t-51.5 -6z" />
    <glyph glyph-name="dotlessi" unicode="&#x131;" horiz-adv-x="255" 
d="M40 439q0 23 1.5 34.5t8.5 26.5q14 26 78 26q48 0 68 -17q17 -14 18 -43q1 -10 1 -29v-350q0 -23 -1.5 -34.5t-9.5 -26.5q-13 -26 -77 -26q-63 0 -77 27q-7 15 -8.5 26t-1.5 35v351z" />
    <glyph glyph-name="Lslash" unicode="&#x141;" horiz-adv-x="687" 
d="M317 148h272q33 0 48 -7.5t20 -23.5t5 -42.5t-5 -42.5t-17 -22q-19 -10 -52 -10h-360q-70 0 -82 38q-6 16 -6 51v202l-32 -9q-20 -6 -30 -6q-33 0 -48 51q-5 20 -5 33t8.5 23.5t16.5 14t24 7.5l66 18v222q0 23 1.5 34.5t9.5 26.5q14 27 78 27q70 0 83 -37q5 -17 5 -52
v-170l64 18q20 6 30 6q33 0 47 -51q5 -22 5 -34.5t-8 -22.5t-15.5 -13t-24.5 -8l-98 -28v-193z" />
    <glyph glyph-name="lslash" unicode="&#x142;" horiz-adv-x="468" 
d="M132 687q0 23 1.5 34.5t8.5 26.5q14 27 78 27q61 0 76 -27q8 -15 9.5 -27t1.5 -35v-212l64 18q20 6 30 6q33 0 47 -51q5 -22 5 -34.5t-8 -22.5t-15.5 -13t-24.5 -8l-98 -28v-118q0 -36 6 -45.5t26.5 -9.5t27.5 -1.5t17 -8.5q20 -13 20 -71q0 -63 -20 -77q-26 -18 -124 -6
q-77 10 -100 51q-28 49 -28 156v80l-34 -9q-20 -6 -30 -6q-33 0 -48 51q-5 20 -5 33t8.5 23.5t16.5 14t24 7.5l68 19v263z" />
    <glyph glyph-name="OE" unicode="&#x152;" horiz-adv-x="1092" 
d="M979 177q23 0 34.5 -1.5t26.5 -9.5q27 -14 27 -78q0 -70 -37 -82q-17 -6 -52 -6h-605q-148 8 -248 113.5t-100 256t104.5 257t243.5 106.5h606q23 0 34.5 -1.5t26.5 -9.5q27 -14 27 -78q0 -70 -37 -82q-17 -6 -52 -6h-307v-101h198q23 0 34.5 -1.5t26.5 -9.5
q27 -14 27 -78q0 -70 -38 -82q-17 -6 -52 -6h-196v-101h308zM373 173h121v387h-121q-68 -6 -119.5 -59t-51.5 -135t52 -134.5t119 -58.5z" />
    <glyph glyph-name="oe" unicode="&#x153;" horiz-adv-x="944" 
d="M786 159q26 10 39 10q33 0 55 -43q13 -26 13 -45t-11 -32.5t-21 -18t-18.5 -7.5t-10 -3.5t-2.5 -1.5q-69 -25 -147 -25q-121 0 -197 69q-81 -73 -186 -73q-67 0 -129 32.5t-104.5 96t-42.5 143.5q0 120 84 198t191.5 78t187.5 -74q77 69 196 69q58 0 105.5 -19.5
t74.5 -50.5q56 -63 56 -129.5t-30.5 -95t-67.5 -28.5h-232q0 -28 32 -47t64 -19q59 0 91 12zM298 165q33 0 66 25t33 74t-31 73t-67 24t-67 -25t-31 -73.5t32 -73t65 -24.5zM730.5 366q-17.5 14 -49 14t-63 -26t-31.5 -56h126q35 0 35 31q0 23 -17.5 37z" />
    <glyph glyph-name="Scaron" unicode="&#x160;" horiz-adv-x="583" 
d="M51 103q-26 32 -26 57.5t43 67.5q25 24 53 24t78 -50q14 -17 40 -32.5t48 -15.5q93 0 93 76q0 23 -25.5 38.5t-63.5 22.5t-82 22.5t-82 36.5t-63.5 66.5t-25.5 109.5q0 88 65.5 153.5t178.5 65.5q60 0 109.5 -15.5t68.5 -31.5l25 -19q31 -29 31 -49t-24 -55
q-34 -50 -70 -50q-21 0 -52 20q-3 2 -11.5 10t-15.5 13q-21 13 -53.5 13t-54 -15.5t-21.5 -43t25.5 -44.5t63.5 -23t83 -18.5t83 -30.5t63.5 -62.5t25.5 -109.5t-26 -114.5t-68 -76.5q-81 -53 -173 -53q-47 0 -89 11.5t-68 28.5q-53 32 -74 62zM291 783l-23 5
q-93 31 -139 46q-37 11 -37 45q0 17 10 42q24 49 50 51q9 1 13 1q11 0 29 -6l97 -42l86 38q26 9 39 9t20 -3q26 -11 41 -41.5t15 -49.5q0 -32 -39 -44l-139 -46z" />
    <glyph glyph-name="scaron" unicode="&#x161;" horiz-adv-x="489" 
d="M234 583l-23 5q-93 31 -139 46q-37 11 -37 45q0 17 10 42q24 49 51 51q8 1 12 1q11 0 29 -6l97 -42l86 38q26 9 39 9t20 -3q26 -11 41 -41.5t15 -49.5q0 -32 -39 -44l-139 -46zM44 47q-19 12 -19 38t38 79q11 17 35.5 17t66.5 -24.5t76 -24.5q61 0 61 24q0 19 -67 28
q-63 9 -125 47q-29 18 -48 56.5t-19 91.5q0 158 217 158q71 0 146 -34q35 -16 35 -40t-22 -59t-45 -35q-12 0 -44.5 15t-70.5 15q-59 0 -59 -22q0 -30 68 -39q66 -7 128 -38q29 -14 48.5 -48.5t19.5 -86.5t-19.5 -88.5t-54.5 -54.5q-64 -31 -160.5 -31t-185.5 56z" />
    <glyph glyph-name="Ydieresis" unicode="&#x178;" horiz-adv-x="686" 
d="M622 719q49 -34 49 -66q0 -19 -23 -53l-216 -323v-191q0 -23 -1.5 -34.5t-9.5 -26.5t-27 -21t-51 -6t-51 6t-27 21.5t-9.5 27t-1.5 35.5v189l-216 323q-23 34 -23 53q0 32 44 61.5t63 29.5t30 -8q17 -11 36 -41l155 -248l155 248q19 30 33 39.5t32.5 9.5t58.5 -25z
M207 795q-32 0 -51 6t-27 21.5t-9.5 27t-1 36t2 35t9 25.5t27 21t51.5 6t51 -6t27 -21.5t9.5 -27t1.5 -35t-1.5 -35t-9.5 -26.5t-27.5 -21t-51.5 -6zM477 795q-32 0 -51 6t-27 21.5t-9.5 27t-1.5 35.5t1.5 35.5t9.5 26t27.5 20.5t51.5 6t51 -6t27 -21.5t9.5 -27t1.5 -35
t-1.5 -35t-9.5 -26.5t-27.5 -21t-51.5 -6z" />
    <glyph glyph-name="Zcaron" unicode="&#x17d;" horiz-adv-x="643" 
d="M531 171q39 0 56.5 -9.5t24 -27.5t6.5 -46t-5 -45t-12 -26t-21 -13q-16 -6 -51 -6h-416q-23 0 -44 12q-44 25 -44 79q0 26 12 42l310 429h-230q-24 0 -35.5 1.5t-27.5 8.5q-29 14 -29 75q0 64 27 78q15 8 26.5 9.5t35.5 1.5h402q23 0 44 -12t32.5 -32t11.5 -47t-12 -43
l-310 -429h249zM320 783l-23 5q-93 31 -139 46q-37 11 -37 45q0 17 10 42q24 49 51 51q8 1 12 1q11 0 29 -6l97 -42l86 38q26 9 39 9t20 -3q26 -11 41 -41.5t15 -49.5q0 -32 -39 -44l-139 -46z" />
    <glyph glyph-name="zcaron" unicode="&#x17e;" horiz-adv-x="586" 
d="M302 583l-23 5q-93 31 -139 46q-37 11 -37 45q0 17 10 42q24 49 51 51q8 1 12 1q11 0 29 -6l97 -42l86 38q26 9 39 9t20 -3q26 -11 41 -41.5t15 -49.5q0 -32 -39 -44l-139 -46zM303 176h171q40 0 57.5 -10t23.5 -29t6 -50t-6 -50t-21 -26.5t-26.5 -9t-34.5 -1.5h-361
q-35 0 -61 26t-26 62t26 61.5t80 73.5t98 86.5t48 42.5h-141q-57 0 -72 19q-17 22 -17 58t5 53.5t12 26t20 13.5q17 5 52 5h325q35 0 61 -25t26 -62.5t-30 -66.5t-215 -197z" />
    <glyph glyph-name="florin" unicode="&#x192;" horiz-adv-x="529" 
d="M419 569q-40 0 -43 -25l-5 -54l65 5q36 0 52 -7q26 -11 26 -57q0 -80 -35 -97q-23 -12 -62 -12l-64 3l-39 -349q-22 -102 -74 -151t-159 -49q-26 0 -40 2t-27.5 15t-13.5 32q0 30 4 39q9 46 32.5 63t62.5 17t42 30q33 298 39 350q-5 -2 -23.5 -2t-30 1.5t-24.5 7.5
q-23 11 -23 56q0 80 35 97q16 8 27.5 9.5t34.5 1.5l20 -2l7 49q8 76 69 138t164 62q36 0 52 -6q26 -12 26 -58q0 -81 -34 -98q-21 -11 -61 -11z" />
    <glyph glyph-name="circumflex" unicode="&#x2c6;" horiz-adv-x="603" 
d="M303 774l23 -5q93 -30 134.5 -44t41.5 -49q0 -19 -11 -40q-27 -53 -60 -53q-9 0 -32 7l-96 42l-93 -40q-14 -7 -34 -7q-38 0 -62 51q-12 26 -12 42q0 32 38 45l139 46z" />
    <glyph glyph-name="caron" unicode="&#x2c7;" horiz-adv-x="600" 
d="M301 583l-23 5q-93 31 -139 46q-37 11 -37 45q0 17 10 42q24 49 51 51q8 1 12 1q11 0 29 -6l97 -42l86 38q26 9 39 9t20 -3q26 -11 41 -41.5t15 -49.5q0 -32 -39 -44l-139 -46z" />
    <glyph glyph-name="dotaccent" unicode="&#x2d9;" horiz-adv-x="285" 
d="M198 709q-19 -6 -50.5 -6t-50.5 6t-26.5 21t-9 26.5t-1.5 34.5t1.5 34.5t8.5 26.5q14 26 78 26q63 0 76 -27q8 -15 9.5 -26.5t1.5 -34.5t-1.5 -34.5t-9 -26t-26.5 -20.5z" />
    <glyph glyph-name="ring" unicode="&#x2da;" horiz-adv-x="378" 
d="M99.5 882.5q39.5 36.5 90 36.5t89.5 -36t39 -93.5t-40 -93t-88.5 -35.5t-89 36.5t-40.5 92.5t39.5 92.5zM189 729q21 0 41 15.5t20 46t-19.5 45.5t-41.5 15t-41.5 -15.5t-19.5 -46t20 -45.5t41 -15z" />
    <glyph glyph-name="ogonek" unicode="&#x2db;" horiz-adv-x="570" 
d="M301 -63q-5 5 -13.5 5t-16.5 -6t-8 -17.5t8 -17.5t15 -6q6 0 14 3q11 11 26 11t30.5 -18.5t15.5 -26t-1 -10.5q-2 -15 -25 -31q-32 -16 -66 -16t-69.5 29.5t-35.5 82t36 82t73.5 29.5t60.5 -16q27 -17 27 -32t-10 -29q-17 -26 -35 -26q-9 0 -25 10h-1z" />
    <glyph glyph-name="tilde" unicode="&#x2dc;" horiz-adv-x="584" 
d="M442 758q36 -25 36 -48q0 -14 -8 -27t-11 -18.5t-14 -19.5t-25 -25q-38 -28 -77 -28t-61.5 13t-37 26t-23.5 13q-14 0 -26 -12q-23 -40 -42.5 -40t-47 24t-27.5 39.5t8 28.5t11 18.5t14.5 19t25.5 24.5q37 27 77 27t62 -12.5t36 -25t23 -12.5q16 0 26 12q21 38 45 38
q15 0 36 -15z" />
    <glyph glyph-name="endash" unicode="&#x2013;" horiz-adv-x="561" 
d="M470 193h-383q-31 0 -45 9q-27 15 -27 73t25 71q19 9 50 9h381q57 0 69 -35q6 -17 6 -43t-4.5 -42t-10 -24t-17.5 -13q-14 -5 -44 -5z" />
    <glyph glyph-name="emdash" unicode="&#x2014;" horiz-adv-x="693" 
d="M603 193h-516q-31 0 -45 9q-27 15 -27 73t25 71q19 9 50 9h514q58 0 68 -35q6 -17 6 -46t-5 -46.5t-17 -24.5q-18 -10 -53 -10z" />
    <glyph glyph-name="quoteleft" unicode="&#x2018;" horiz-adv-x="237" 
d="M195 553q17 -17 17 -58v-15q0 -24 -1.5 -36t-9.5 -28q-15 -29 -76 -29t-80.5 20t-19.5 76q0 25 2 37q7 88 52 150.5t114 62.5q7 0 12.5 -10.5t5.5 -27t-4.5 -26.5t-10 -11.5t-8.5 -2t-10.5 -5t-13.5 -12.5q-17 -20 -19 -65q33 -3 50 -20z" />
    <glyph glyph-name="quoteright" unicode="&#x2019;" horiz-adv-x="237" 
d="M195 712q17 -17 17 -58v-16q0 -25 -2 -37q-7 -88 -52 -151t-114 -63q-7 0 -12.5 10.5t-5.5 27.5t4.5 26.5t10 11t8.5 2t11 5t14 12.5q16 21 18 65q-34 5 -50.5 22t-16.5 72q0 40 10 59.5t30.5 26t63.5 6.5t66 -21z" />
    <glyph glyph-name="quotesinglbase" unicode="&#x201a;" horiz-adv-x="237" 
d="M195 165q17 -17 17 -58v-16q0 -25 -2 -37q-7 -88 -52 -151t-114 -63q-7 0 -12.5 10.5t-5.5 27.5t4.5 26.5t10 11t8.5 2t11 5t14 12.5q16 21 18 65q-34 5 -50.5 22t-16.5 72q0 40 10 59.5t30.5 26t63.5 6.5t66 -21z" />
    <glyph glyph-name="quotedblleft" unicode="&#x201c;" horiz-adv-x="482" 
d="M195 553q17 -17 17 -58v-15q0 -24 -1.5 -36t-9.5 -28q-15 -29 -76 -29t-80.5 20t-19.5 76q0 25 2 37q7 88 52 150.5t114 62.5q7 0 12.5 -10.5t5.5 -27t-4.5 -26.5t-10 -11.5t-8.5 -2t-10.5 -5t-13.5 -12.5q-17 -20 -19 -65q33 -3 50 -20zM389 573q33 -3 50.5 -20.5
t17.5 -72.5q0 -59 -21 -75q-25 -18 -76.5 -18t-71 20t-19.5 76q0 25 2 37q7 88 52.5 150.5t114.5 62.5q7 0 12.5 -10.5t5.5 -27t-4.5 -26.5t-10 -11.5t-8.5 -2t-11 -5t-14 -12.5q-17 -20 -19 -65z" />
    <glyph glyph-name="quotedblright" unicode="&#x201d;" horiz-adv-x="482" 
d="M310 726.5q20 6.5 64 6.5t63.5 -19.5t19.5 -75.5q0 -113 -55 -188q-45 -63 -114 -63q-7 0 -12.5 10.5t-5.5 27.5t4.5 26.5t10 11t8.5 2t11 5t14 12.5q16 21 18 65q-32 4 -49 20q-18 19 -17.5 58.5t2 51t10 27.5t28.5 22.5zM195 712q17 -17 17 -58v-16q0 -25 -2 -37
q-7 -88 -52 -151t-114 -63q-7 0 -12.5 10.5t-5.5 27.5t4.5 26.5t10 11t8.5 2t11 5t14 12.5q16 21 18 65q-34 5 -50.5 22t-16.5 72q0 40 10 59.5t30.5 26t63.5 6.5t66 -21z" />
    <glyph glyph-name="quotedblbase" unicode="&#x201e;" horiz-adv-x="482" 
d="M310 179.5q20 6.5 64 6.5t63.5 -19.5t19.5 -75.5q0 -113 -55 -188q-45 -63 -114 -63q-7 0 -12.5 10.5t-5.5 27.5t4.5 26.5t10 11t8.5 2t11 5t14 12.5q16 21 18 65q-32 4 -49 20q-18 19 -17.5 58.5t2 51t10 27.5t28.5 22.5zM195 165q17 -17 17 -58v-16q0 -25 -2 -37
q-7 -88 -52 -151t-114 -63q-7 0 -12.5 10.5t-5.5 27.5t4.5 26.5t10 11t8.5 2t11 5t14 12.5q16 21 18 65q-34 5 -50.5 22t-16.5 72q0 40 10 59.5t30.5 26t63.5 6.5t66 -21z" />
    <glyph glyph-name="dagger" unicode="&#x2020;" horiz-adv-x="527" 
d="M433 513q61 0 73 -34q6 -17 6 -45.5t-5.5 -45.5t-18.5 -24q-19 -10 -56 -10l-82 6v-463q0 -23 -1.5 -34t-9 -25.5t-26.5 -20.5t-50 -6t-49.5 6t-26 20t-9 26t-1.5 35v462l-86 -6q-58 0 -70 34q-6 18 -6 46t6.5 45.5t20.5 24.5q20 9 53 9l82 -7v158q0 22 1.5 33t9.5 25
t26.5 19.5t49.5 5.5t49.5 -6t26 -20.5t9 -26t1.5 -34.5v-154z" />
    <glyph glyph-name="daggerdbl" unicode="&#x2021;" horiz-adv-x="527" 
d="M433 204q61 0 73 -34q6 -18 6 -46t-6.5 -45.5t-20.5 -24.5q-20 -9 -53 -9l-82 7v-155q0 -23 -1.5 -34t-9 -25.5t-26.5 -20.5t-50 -6t-49.5 6t-26 20t-9 26t-1.5 35v154l-83 -7q-61 0 -73 34q-6 17 -6 45.5t5.5 45.5t18.5 24q19 10 56 10l82 -6v162l-86 -6q-58 0 -70 34
q-6 18 -6 46t6.5 45.5t20.5 24.5q20 9 53 9l82 -7v158q0 22 1.5 33t9.5 25t26.5 19.5t49.5 5.5t49.5 -6t26 -20.5t9 -26t1.5 -34.5v-154l83 7q61 0 73 -34q6 -17 6 -45.5t-5.5 -45.5t-18.5 -24q-19 -10 -56 -10l-82 6v-162z" />
    <glyph glyph-name="bullet" unicode="&#x2022;" horiz-adv-x="342" 
d="M317 316q0 -146 -146 -146t-146 146t146 146t146 -146z" />
    <glyph glyph-name="ellipsis" unicode="&#x2026;" horiz-adv-x="911" 
d="M195 165q17 -17 17 -58v-16q0 -23 -1.5 -35t-9.5 -28q-15 -29 -76 -29t-80.5 20t-19.5 75q0 40 10 59.5t30.5 26t63.5 6.5t66 -21zM402 179.5q20 6.5 64 6.5t63.5 -19.5t19.5 -75.5q0 -39 -10 -58.5t-30.5 -26.5t-64 -7t-63 19.5t-19.5 60.5v15q0 24 1.5 35.5t10 27.5
t28.5 22.5zM739 179.5q20 6.5 64 6.5t63.5 -19.5t19.5 -75.5q0 -58 -22 -74q-24 -18 -75.5 -18t-71 20t-19.5 75q1 24 2.5 35.5t10 27.5t28.5 22.5z" />
    <glyph glyph-name="perthousand" unicode="&#x2030;" horiz-adv-x="1223" 
d="M891 321q45 51 125 51t123.5 -50t43.5 -138.5t-43.5 -137t-122 -48.5t-125 50.5t-46.5 136t45 136.5zM1014 118q60 0 60 68q0 36 -14 51t-45.5 15t-46 -15.5t-14.5 -52t14.5 -51.5t45.5 -15zM508 321q45 51 125.5 51t123.5 -50t43 -138.5t-43 -137t-122 -48.5
t-125.5 50.5t-46.5 136t45 136.5zM631 118q61 0 61 68q0 36 -14.5 51t-46 15t-45.5 -15.5t-14 -51.5t14.5 -51.5t44.5 -15.5zM85 685q45 51 125 51t123.5 -50t43.5 -138t-43.5 -136.5t-122 -48.5t-125 50t-46.5 135.5t45 136.5zM208 483q60 0 60 67q0 36 -14 51t-45.5 15
t-46 -15.5t-14.5 -51t15 -51t45 -15.5zM573 761q13 23 25.5 23t36.5 -13t24 -28q0 -7 -7 -19l-387 -731l-2 -3q-11 -20 -23 -20t-36 12.5t-24 24.5t7 24z" />
    <glyph glyph-name="guilsinglleft" unicode="&#x2039;" horiz-adv-x="383" 
d="M16 263l-1 7q0 21 30 51l176 176q31 31 54 31t58 -35t35 -57.5t-26 -50.5l-121 -122l120 -119q27 -29 27 -52.5t-34.5 -58t-58 -34.5t-54.5 31l-179 178q-27 29 -27 48z" />
    <glyph glyph-name="guilsinglright" unicode="&#x203a;" horiz-adv-x="383" 
d="M338 321q30 -28 30 -49q0 -6 -1 -9q1 -3 1 -9q0 -21 -30 -49l-178 -177q-30 -30 -52 -30t-58 35q-35 35 -35 59t30 54l117 117l-119 120q-28 28 -28 51.5t35 58.5t58 35t54 -31z" />
    <glyph glyph-name="fraction" unicode="&#x2044;" horiz-adv-x="433" 
d="M444 777.5q4 4.5 10.5 5t12.5 0.5t29 -12.5t23 -26.5t-10 -25l-384 -726q-6 -12 -10 -17q-13 -14 -46 4q-29 16 -29 28q0 9 9 27l384 726q7 12 11 16.5z" />
    <glyph glyph-name="Euro" unicode="&#x20ac;" horiz-adv-x="612" 
d="M270 388l1 -32h208q17 0 25.5 -1.5t17.5 -14t9 -34t-3.5 -33t-11.5 -15.5q-13 -7 -38 -7h-192q15 -47 39 -61t54 -14h121q40 0 57.5 -9.5t23.5 -28.5t6 -49.5t-6 -49t-19 -25.5q-20 -12 -57 -12h-127q-60 0 -105.5 21t-73 47t-52.5 73t-38 108h-41q-25 0 -36 5
q-17 10 -17 41.5t9 44t18 14t25 1.5h30q-1 13 -1 40v18h-28q-25 0 -36 5q-17 10 -17 41.5t9 44t18 14t25 1.5h40q14 74 46 126t73 77q75 46 153 46h124q22 0 33.5 -1.5t25.5 -9.5t19.5 -27t5.5 -50t-6 -50t-21 -26.5t-26.5 -9t-34.5 -1.5h-121q-65 0 -90 -74h191
q40 0 48 -23q4 -12 4 -30.5t-3.5 -30t-11.5 -15.5q-13 -7 -38 -7h-207z" />
    <glyph glyph-name="trademark" unicode="&#x2122;" horiz-adv-x="840" 
d="M683 609q18 25 46 25t42.5 -6t20.5 -18q8 -20 8 -46v-273q0 -18 -2 -27.5t-15.5 -17.5t-42 -8t-43.5 7.5t-17.5 17t-2.5 27.5v98q-40 -60 -74 -60q-16 0 -34 15t-28 30l-10 15v-94q0 -28 -7 -38q-12 -18 -58 -18q-43 0 -52 16q-7 13 -7 37q1 94 1 196t2 112.5t17.5 23
t37.5 12.5q35 0 51 -16l5 -5l83 -117zM328 634q38 0 44 -26q3 -12 3 -37.5t-10 -40.5t-37 -15h-70v-224q0 -41 -26 -49q-14 -4 -35.5 -4t-35 4.5t-19.5 13.5q-8 14 -8 36v223h-69q-38 0 -46 25q-4 13 -4 34t4 34.5t12 18.5q11 7 30 7h267z" />
    <glyph glyph-name="minus" unicode="&#x2212;" horiz-adv-x="581" 
d="M480 193h-381q-57 0 -68 34q-6 18 -6 47t6 47t19 25q19 9 50 9h381q57 0 69 -35q6 -17 6 -46t-5.5 -47t-18.5 -25q-19 -9 -52 -9z" />
    </font>
</defs>
</svg>
