<?xml version="1.0" standalone="no"?>
<!DOCTYPE svg PUBLIC "-//W3C//DTD SVG 1.1//EN" "http://www.w3.org/Graphics/SVG/1.1/DTD/svg11.dtd" >
<svg xmlns="http://www.w3.org/2000/svg" xmlns:xlink="http://www.w3.org/1999/xlink" version="1.1">
<metadata>
Created by FontForge 20190801 at Mon Aug 13 16:04:01 2012
 By Unknown
Copyright (c) 2012 by Brian J. Bonislawsky DBA Astigmatic (AOETI) (astigma@astigmatic.com), with ReservedFont Name "Galindo"
</metadata>
<defs>
<font id="Galindo-Regular" horiz-adv-x="1329" >
  <font-face 
    font-family="Galindo"
    font-weight="400"
    font-stretch="normal"
    units-per-em="2048"
    panose-1="2 0 5 3 0 0 0 2 0 0"
    ascent="1638"
    descent="-410"
    x-height="1038"
    cap-height="1505"
    bbox="-580 -883 2284 2014"
    underline-thickness="41"
    underline-position="-272"
    unicode-range="U+0020-FB02"
  />
<missing-glyph horiz-adv-x="614" 
 />
    <glyph glyph-name="fi" unicode="fi" horiz-adv-x="1452" 
d="M528 1008q21 0 72.5 1t122.5 2t155.5 2t170.5 2.5t169 3.5t150 5q-11 -111 -18 -218t-11.5 -212.5t-6 -210.5t-1.5 -213v-76.5t2 -77.5h-309q0 62 1 123t1 121q0 137 -4.5 262t-15.5 252q-59 1 -129.5 1.5t-138 1.5t-123 1.5t-83.5 1.5q8 -193 26.5 -382.5t49.5 -381.5
l-372 -36q-10 120 -17 233t-12 215t-8 190.5t-4 159.5l-162 -6v250q40 -3 79.5 -5.5t80.5 -4.5q0 7 2 32t9 62t22 82t41 91t64.5 89.5t93.5 77t128.5 54t169.5 20.5q35 0 73.5 -3.5t80.5 -11.5v-272q-48 8 -95.5 11t-97.5 3q-37 0 -76 -2t-78 -8q-2 -51 -2 -101.5v-101.5
v-26zM1368 1368q0 -35 -17 -65.5t-47 -53t-70 -36t-85 -13.5t-84 13.5t-68 36t-46 53t-17 65.5q0 34 17 64.5t46 53t68 35.5t84 13t85 -13t70 -35.5t47 -53t17 -64.5z" />
    <glyph glyph-name="fl" unicode="fl" horiz-adv-x="1391" 
d="M829 772q-75 3 -148.5 4.5t-148.5 3.5q8 -193 26.5 -382.5t49.5 -381.5l-372 -36q-10 120 -17 233t-12 215t-8 190.5t-4 159.5l-162 -6v250q40 -3 79.5 -5.5t80.5 -4.5q0 7 2 32t9 61.5t22 81t41 90t64.5 89t93.5 77.5t128.5 55t169.5 22h96t117 -0.5t123 -1.5t114 -2.5
t90 -3.5t52 -5h2q-26 -376 -34.5 -748.5t-8.5 -742.5h-311q5 184 6.5 365t1.5 364q0 125 -1 249t-3 249q-39 1 -82.5 1.5t-83 1t-71 1t-46.5 0.5q-37 0 -76 -2t-78 -8q-2 -51 -2 -101.5v-101.5v-26q75 2 149.5 5t151.5 9v-250z" />
    <glyph glyph-name=".notdef" horiz-adv-x="614" 
 />
    <glyph glyph-name=".null" horiz-adv-x="0" 
 />
    <glyph glyph-name="nonmarkingreturn" horiz-adv-x="614" 
 />
    <glyph glyph-name="space" unicode=" " horiz-adv-x="614" 
 />
    <glyph glyph-name="ampersand" unicode="&#x26;" horiz-adv-x="1362" 
d="M973 -76l-55 64q-88 -41 -185.5 -60.5t-200.5 -21.5q-131 0 -227.5 22.5t-159.5 64.5t-94 102t-31 134q0 59 29 118t80 119t122 122.5t155 128.5q-57 114 -91 225.5t-34 216.5q0 67 24 125.5t74.5 102t128.5 68t186 24.5q105 0 178 -25t118.5 -65.5t66 -93t20.5 -107.5
q0 -59 -16.5 -111t-55 -108.5t-101 -121.5t-154.5 -149q37 -72 78.5 -140t91.5 -134q8 32 12.5 63.5t9.5 63.5h365q-10 -124 -51 -222t-107 -173q46 -48 93.5 -92.5t98.5 -88.5zM586 162q45 0 90.5 2t91.5 8q-59 74 -116 151.5t-109 157.5q-56 -63 -109.5 -138t-101.5 -163
q65 -9 127 -13.5t127 -4.5zM580 1243q11 -80 27.5 -155.5t39.5 -147.5q34 36 66 74.5t58 77.5t44.5 77.5t24.5 73.5q-31 8 -63 12.5t-66 4.5q-32 0 -65.5 -4.5t-65.5 -12.5z" />
    <glyph glyph-name="quotesingle" unicode="'" horiz-adv-x="512" 
d="M438 1548l-80 -614h-204l-82 614h366z" />
    <glyph glyph-name="parenleft" unicode="(" horiz-adv-x="836" 
d="M836 1495q-92 -78 -161.5 -157t-121 -154.5t-86.5 -146t-58 -131.5q-54 -144 -61 -275q7 -131 57 -268q21 -59 54 -124.5t80.5 -133.5t112 -137.5t149.5 -135.5l-334 -205q-77 55 -135.5 128t-102 154t-73 166t-48.5 165q-45 188 -51 391q6 203 51 397q19 82 48.5 171
t73 175.5t102 167t135.5 146.5z" />
    <glyph glyph-name="asterisk" unicode="*" horiz-adv-x="1194" 
d="M1116 1063h-272l248 -229l-265 -170l-194 323l-215 -387l-293 158l305 305h-358l53 303l354 -92l-18 274l340 25l-37 -293l328 86z" />
    <glyph glyph-name="plus" unicode="+" horiz-adv-x="1079" 
d="M1012 643q-186 0 -373 -6q2 -71 6 -141t10 -140l-319 -43q8 78 13.5 155t8.5 155q-74 -5 -146 -11l-144 -12v291q72 2 144 2.5t144 3.5q-3 65 -7.5 129t-12.5 127h319q-5 -62 -8.5 -123t-5.5 -123q93 5 185.5 11.5t185.5 15.5v-291z" />
    <glyph glyph-name="comma" unicode="," horiz-adv-x="596" 
d="M510 61q-2 -68 -20.5 -131.5t-40.5 -113.5q-26 -58 -58 -109l-215 33q32 43 51.5 86t30.5 78q-37 5 -68.5 19t-54.5 35t-36 47t-13 56q0 34 17 64t46 52t67.5 35t82.5 13t82.5 -13t67 -35t45 -52t16.5 -64z" />
    <glyph glyph-name="period" unicode="." horiz-adv-x="547" 
d="M459 61q0 -29 -14.5 -54.5t-40 -45t-59 -30.5t-71.5 -11q-39 0 -73 11t-59 30.5t-39.5 45t-14.5 54.5q0 30 14.5 56t39.5 45.5t59 31t73 11.5q38 0 71.5 -11.5t59 -31t40 -45.5t14.5 -56z" />
    <glyph glyph-name="slash" unicode="/" horiz-adv-x="1247" 
d="M1202 1432q-227 -356 -420 -723.5t-356 -743.5l-379 51q223 359 415.5 716t350.5 718z" />
    <glyph glyph-name="zero" unicode="0" horiz-adv-x="1556" 
d="M1053 252q14 125 21 250.5t7 253.5q0 127 -7 252.5t-21 253.5q-68 14 -136.5 20t-136.5 6t-136 -6t-136 -20q-16 -109 -23.5 -216.5t-7.5 -216.5q0 -151 15 -299.5t43 -298.5q49 -8 99.5 -11t96.5 -3q82 0 161 9t161 26zM1485 715q-6 -148 -48 -260t-106.5 -194
t-144 -136.5t-160.5 -87.5t-156.5 -46.5t-130.5 -13.5q-54 0 -124.5 11.5t-144 42t-144.5 84.5t-126.5 139.5t-89.5 206t-34 284.5q0 156 34 273t90.5 202t129.5 140.5t150.5 88.5t153 46.5t138.5 15.5q79 0 162.5 -17.5t162.5 -56t149.5 -100t123.5 -150t84 -206t31 -266.5
z" />
    <glyph glyph-name="one" unicode="1" horiz-adv-x="864" 
d="M279 18q18 208 29 413t11 413q0 100 -3.5 198t-8.5 197l-287 6v225q177 2 350.5 12.5t350.5 28.5q-6 -128 -8 -255t-2 -255q0 -247 10 -491t29 -492h-471z" />
    <glyph glyph-name="two" unicode="2" horiz-adv-x="1382" 
d="M1303 18h-1192q-4 17 -4.5 35t-0.5 35q0 57 9.5 110t25 100.5t35.5 89t41 76.5q48 82 111 148q42 37 118 79q65 36 171.5 82.5t267.5 98.5q18 90 18 179q0 57 -7 111t-19 108q-41 5 -82.5 7.5t-83.5 2.5q-122 0 -246 -25q-6 -48 -10 -94t-4 -94q0 -77 12 -152h-395
q-2 20 -2 39v37q0 101 28 178t73.5 134t104 96t119.5 64q143 59 326 67q152 0 261.5 -34.5t180 -94.5t104 -141t33.5 -175q0 -101 -39.5 -180.5t-104 -142t-146 -109.5t-165 -83t-162 -63t-136.5 -48l-13 -142h748z" />
    <glyph glyph-name="three" unicode="3" horiz-adv-x="1411" 
d="M1331 406q0 -68 -28 -125.5t-76.5 -103.5t-113 -81t-137.5 -60t-150.5 -39t-151.5 -17q-73 0 -146.5 13t-141 38t-126.5 61.5t-103.5 83.5t-72 105t-31.5 125l377 26q5 -62 19.5 -120t42.5 -115q91 0 185 3t193 17q10 42 14.5 83t4.5 83q0 98 -25 195q-77 14 -154 21
t-155 7q-31 0 -62 -1t-63 -3l6 172q116 5 228 20.5t221 43.5q15 51 21.5 101t6.5 101q0 54 -7 106.5t-21 106.5q-38 5 -78 7t-80 2q-49 0 -98 -3.5t-99 -9.5q-18 -86 -18 -172q0 -37 4 -74t12 -75l-419 -17q-5 26 -7 49.5t-2 45.5q0 98 26.5 172.5t69.5 129.5t98 93t112 63
q135 58 307 66q116 0 206.5 -20t159.5 -55t117 -81.5t78 -100t43.5 -110.5t13.5 -112q0 -59 -19.5 -110t-54 -94t-81 -78.5t-99.5 -63.5q46 -20 81 -43t61.5 -48t45 -50t30.5 -48q29 -55 36 -110z" />
    <glyph glyph-name="four" unicode="4" horiz-adv-x="1368" 
d="M1294 553q-35 0 -70.5 1t-70.5 1v-90q0 -106 1 -213t3 -213l-440 -21q11 135 19.5 269t15.5 268q-183 -2 -363 -8.5t-360 -14.5q71 241 118 479t60 476h307q-40 -181 -69.5 -359.5t-43.5 -361.5q44 -2 85.5 -2h86.5h187q6 169 6 340q0 88 -1.5 175t-6.5 175h436
q-17 -170 -25.5 -337.5t-13.5 -338.5q45 2 88 4.5t88 5.5z" />
    <glyph glyph-name="five" unicode="5" horiz-adv-x="1350" 
d="M1305 434q0 -86 -28.5 -157.5t-77.5 -129.5t-115 -102t-141.5 -73.5t-157 -44.5t-160.5 -15q-53 1 -113 9.5t-119.5 26.5t-116 48t-103 76t-79.5 109t-47 147l440 28q-18 -62 -18 -127q0 -23 2.5 -46t7.5 -46q37 -2 72.5 -3t71.5 -1q60 0 122 4t132 17q20 74 30.5 148.5
t10.5 152.5q0 55 -6 111.5t-17 113.5q-94 5 -187 6.5t-190 1.5q-96 0 -195 -1.5t-202 -6.5l74 768h960v-324l-694 52l-17 -312q162 64 355 64q47 0 103 -10t112 -32.5t108.5 -60t93 -92.5t65 -129t24.5 -170z" />
    <glyph glyph-name="six" unicode="6" horiz-adv-x="1395" 
d="M1319 328q-3 -78 -47.5 -152.5t-124 -133t-190 -94.5t-246.5 -36q-129 0 -244 48t-201.5 144t-137 240t-50.5 336q0 167 32 289.5t85.5 208t123 139t144 83t149.5 40t140 10.5q60 0 124 -10t125 -34t116 -63t98 -96t70.5 -134.5t33.5 -178.5l-365 -29q7 42 9 82t2 82
q0 37 -2 73.5t-9 74.5q-34 5 -65.5 6.5t-63.5 1.5q-77 0 -152 -11t-151 -32q-18 -121 -29.5 -241t-13.5 -241q52 28 108.5 44t105.5 23.5t84 9t44 1.5q100 0 176 -19t131 -51.5t92 -76.5t59 -94t31 -103.5t9 -105.5zM618 571q-70 0 -137 -6q3 -96 14.5 -191.5t26.5 -191.5
q50 -5 99 -7.5t100 -2.5q49 0 98.5 2.5t100.5 7.5q6 47 10 91.5t4 91.5q0 46 -4 90.5t-10 91.5q-149 24 -302 24z" />
    <glyph glyph-name="seven" unicode="7" horiz-adv-x="1065" 
d="M1063 1425l-440 -1484l-449 45l465 1212h-604v227h1028z" />
    <glyph glyph-name="eight" unicode="8" horiz-adv-x="1397" 
d="M944 121q29 134 29 264q0 62 -6.5 123t-22.5 123q-120 12 -242 12q-113 0 -233 -12q-25 -75 -35 -145.5t-10 -141.5q0 -113 25 -225q58 -3 116.5 -5.5t118.5 -2.5q65 0 129.5 2.5t130.5 7.5zM864 829q8 54 12.5 107.5t4.5 105.5q0 54 -4.5 107.5t-12.5 107.5
q-43 7 -87 10t-89 3t-88 -3t-88 -10q-11 -52 -15.5 -104t-4.5 -104q0 -56 5.5 -110t14.5 -110q88 -12 174 -12q43 0 89 3t89 9zM1358 338q-2 -100 -57 -181t-149 -138.5t-220 -89t-268 -31.5q-133 0 -244.5 37.5t-192.5 100.5t-127.5 146t-48.5 174q0 6 1.5 27.5t10.5 53.5
t28.5 70.5t56 79t92.5 79.5t137 71q-61 17 -103 47t-70.5 66t-45 74t-25 73t-10.5 62.5t-2 42.5q0 67 23 121.5t63 96.5t95.5 72.5t120 50t136.5 29t146 9.5q106 0 204 -24.5t172.5 -73.5t119 -123t44.5 -173q-6 -64 -29 -126q-10 -27 -24 -56t-34 -58.5t-46.5 -57.5
t-60.5 -52q79 -32 132 -73t87.5 -83.5t52.5 -84t25.5 -75t8.5 -56t1 -27.5z" />
    <glyph glyph-name="nine" unicode="9" horiz-adv-x="1395" 
d="M1315 600q-8 -140 -39.5 -244t-79.5 -179t-109 -124t-127 -79t-134 -44t-130 -18q-63 0 -130 7.5t-132.5 26t-126 51.5t-108.5 84.5t-80.5 123t-42.5 168.5l362 30q-5 -42 -6.5 -74t-1.5 -63q0 -28 1.5 -56.5t6.5 -66.5q31 -3 64 -4.5t65 -1.5q78 0 153.5 10.5
t149.5 30.5q14 93 24 186t15 187q-52 -28 -108.5 -43t-105 -22t-83 -8t-43.5 -1q-98 -1 -172.5 18t-129 52t-91.5 77t-59 94.5t-31.5 104t-9.5 105.5q0 123 43.5 219.5t123 163t191.5 102t248 37.5q130 0 245.5 -48.5t202 -144.5t137 -240.5t50.5 -336.5q0 -20 -1 -40
t-1 -40zM774 684q34 0 69 0.5t70 3.5q0 124 -10.5 246t-32.5 244q-49 6 -98 8t-98 2q-51 0 -100.5 -2t-100.5 -8q-6 -45 -9 -107.5t-3 -130.5q0 -65 3 -126t9 -107q75 -13 150.5 -18t150.5 -5z" />
    <glyph glyph-name="less" unicode="&#x3c;" horiz-adv-x="1145" 
d="M938 57q-218 135 -434 256.5t-443 225.5l27 323q232 139 431 283.5t378 290.5l141 -174q-392 -217 -725 -490q180 -96 366.5 -177t385.5 -153z" />
    <glyph glyph-name="question" unicode="?" horiz-adv-x="1292" 
d="M770 66q0 -33 -16 -62.5t-43.5 -51t-65 -34t-80.5 -12.5t-80.5 12.5t-65 34t-43.5 51t-16 62.5q0 32 16 60.5t43.5 50t65 34t80.5 12.5t80.5 -12.5t65 -34t43.5 -50t16 -60.5zM1231 1044q-7 -95 -58 -185q-22 -38 -55 -79t-82 -80.5t-114.5 -75.5t-151.5 -65l-27 -211
h-319q3 16 3.5 31t0.5 31q0 124 -31 245q110 13 216.5 33t209.5 51q6 60 10.5 120t4.5 120q0 77 -6.5 153.5t-18.5 153.5q-32 3 -63.5 4.5t-65.5 1.5q-65 0 -130.5 -6t-131.5 -20q-2 -20 -2 -39v-39q0 -69 11.5 -137.5t31.5 -137.5l-324 -30q-24 24 -38 56.5t-22 66.5
t-10.5 66.5t-2.5 57.5q0 26 4 67t21 87.5t50.5 93.5t92 84.5t146 61.5t212.5 24q175 0 297 -36.5t198 -102.5t110 -159t34 -206z" />
    <glyph glyph-name="at" unicode="@" horiz-adv-x="1757" 
d="M1696 547q0 -5 -1.5 -35t-8.5 -73.5t-21.5 -95t-41.5 -100.5t-67.5 -90t-99.5 -63l-422 29q0 21 1 42.5t1 41.5q-35 -16 -70 -24t-63 -12q-33 -4 -63 -5q-59 0 -120.5 16t-111.5 48.5t-82 81.5t-32 114q0 132 96 207.5t284 75.5q24 -1 50 -5q22 -3 49.5 -9t54.5 -17
l-6 69h227q-17 -102 -24.5 -204t-7.5 -205q0 -23 0.5 -46t3.5 -46q45 -6 94 -6q52 0 102 6q13 78 18 156.5t5 156.5q0 77 -5 153.5t-18 153.5q-99 5 -197.5 7.5t-197.5 2.5q-168 0 -333.5 -7t-334.5 -19q-9 -94 -14.5 -186.5t-5.5 -186.5q0 -102 5.5 -201.5t14.5 -201.5
q119 -19 236 -29t235 -10q39 0 77 1t73 3l-2 -197q-169 0 -298 25.5t-224 67.5t-160.5 96t-107.5 110.5t-65 111t-33.5 98t-12.5 71.5t-2 31q0 125 33.5 221.5t91.5 168t136 120t168 78t187 42.5t193 13q77 0 167.5 -10.5t181 -35t175 -65.5t149.5 -101.5t104 -143
t40 -189.5zM809 319q59 0 114.5 3t112.5 8v107.5t-2 107.5h-51q-57 0 -112 -2.5t-111 -7.5q-13 -26 -18 -52t-5 -51q0 -28 5 -55.5t18 -54.5q11 0 24.5 -1.5t24.5 -1.5z" />
    <glyph glyph-name="A" unicode="A" horiz-adv-x="1542" 
d="M1360 -61l-129.5 17.5t-104 12t-94.5 6.5t-100 2q26 87 44.5 178t29.5 187q-60 2 -123 3t-125 1q-127 0 -244 -6q5 -90 14 -179.5t23 -178.5q-71 -5 -127 -9t-99 -7.5t-74 -7t-53 -6.5q-51 -7 -69 -13q-13 65 -21.5 137t-13 143.5t-6.5 139.5t-2 126q0 121 9.5 243
t36 235t73.5 210.5t123 170t184 114t256 41.5q152 0 279 -46.5t218.5 -143.5t142 -246.5t50.5 -355.5q0 -53 -2.5 -132t-12.5 -178t-29.5 -215.5t-53.5 -242.5zM688 600q87 0 173.5 3.5t164.5 12.5q2 23 2 46.5v48.5q0 152 -13.5 293t-39.5 262q-23 2 -50.5 3t-58.5 1
q-41 0 -84.5 -1.5t-85 -4t-79.5 -6.5t-66 -9q-22 -159 -32.5 -319.5t-10.5 -325.5q43 -3 88.5 -3.5t91.5 -0.5z" />
    <glyph glyph-name="B" unicode="B" horiz-adv-x="1505" 
d="M1473 389q0 -95 -37 -166.5t-98.5 -123.5t-142.5 -85.5t-168.5 -53.5t-176 -28t-166.5 -8q-98 0 -179.5 5.5t-150.5 16t-127.5 26t-111.5 34.5q9 184 14.5 357t5.5 348q0 174 -5.5 351.5t-14.5 369.5q137 31 277.5 49t289.5 18q61 0 137 -6.5t154 -24t152.5 -47.5
t132.5 -77t93 -112t35 -153q0 -2 -1 -17.5t-7.5 -40.5t-19 -56.5t-35.5 -65t-58 -66t-85 -59.5q70 -27 119 -62.5t81.5 -75t51 -79t27.5 -73.5t11.5 -59t2.5 -36zM1034 168q5 53 7.5 107.5t2.5 111.5q0 54 -2.5 107.5t-7.5 107.5q-42 16 -97.5 27.5t-116 18.5t-121.5 10.5
t-113 3.5h-43q-8 -59 -12.5 -119t-4.5 -123q0 -68 4.5 -136t12.5 -134q45 0 106.5 0.5t128 2t133 5t123.5 10.5zM952 856q7 45 10 95.5t3 103.5q0 55 -3.5 110.5t-11.5 108.5q-40 3 -95.5 5.5t-115.5 2.5q-54 0 -105 -1.5t-91 -6.5q-6 -47 -9.5 -96.5t-3.5 -102.5
q0 -56 3.5 -111.5t9.5 -111.5h47t60 0.5t67 1t69 0.5q78 1 166 2z" />
    <glyph glyph-name="C" unicode="C" horiz-adv-x="1649" 
d="M1616 870q-65 0 -123 -1.5t-116 -4.5t-119 -8t-130 -12q10 51 14.5 110t4.5 121q0 38 -1.5 76t-6.5 72q-72 20 -163 29.5t-183 9.5q-65 0 -126 -4.5t-112 -12.5q-20 -122 -29.5 -249.5t-9.5 -258.5q0 -140 10 -278t29 -273q37 -13 84 -23t98 -17t103.5 -11t101.5 -4
q34 0 65.5 1.5t59.5 6.5q14 60 22.5 133.5t8.5 147.5q0 59 -6 115q80 -8 152.5 -11.5t148.5 -3.5q98 0 215 6q-19 -109 -57 -193t-88.5 -147t-110 -108t-122 -75t-124.5 -48t-116.5 -27t-99 -11.5t-71.5 -2.5q-160 0 -278.5 32t-202.5 87t-138.5 128t-85.5 155.5t-43 169.5
t-12 169q0 187 47 337t146.5 258t253.5 170.5t368 74.5q138 0 263 -41t224.5 -120t166.5 -196t88 -268z" />
    <glyph glyph-name="D" unicode="D" horiz-adv-x="1542" 
d="M1026 246q20 105 29.5 220.5t9.5 235.5q0 127 -10 252.5t-29 241.5q-56 16 -122 28q-57 11 -132.5 20t-163.5 9h-35t-36 -2v-58t0.5 -100.5t1 -134t1.5 -156.5t3 -168t5 -170t6.5 -161.5t8.5 -142.5q92 4 175.5 18t147.5 29q75 18 140 39zM430 1493q118 0 242.5 -12
t242 -43t222.5 -85t183.5 -137t124.5 -199.5t46 -273.5q0 -152 -40 -270t-108.5 -207.5t-160.5 -151.5t-196.5 -101t-216.5 -56.5t-220 -17.5q-105 0 -185 4.5t-136 9.5q-65 6 -113 14q12 196 21 391t9 392q0 97 -2.5 185t-6.5 174t-9.5 173.5t-11.5 185.5q83 16 163 20.5
t152 4.5z" />
    <glyph glyph-name="E" unicode="E" horiz-adv-x="1268" 
d="M1059 631q-65 5 -130 7.5t-130 2.5q-63 0 -126 -2.5t-128 -7.5v-168q0 -60 1 -115.5t3 -103.5q65 2 138.5 2h148.5t144 -0.5t123 -0.5q62 -1 118 -1q-1 -14 -2 -31q-1 -14 -1.5 -34t-0.5 -44q0 -31 1.5 -67t4.5 -74q-39 2 -79.5 2h-78.5q-239 0 -473.5 -7.5t-472.5 -23.5
q0 30 1 84t2.5 126.5t4 159t4.5 180.5t4.5 192t4 193.5t2.5 184t1 164.5q0 73 -0.5 129.5t-3.5 94.5q103 0 206 -1.5t208 -1.5q158 0 317 5t326 22q-5 -34 -6.5 -65.5t-1.5 -59.5q0 -27 1 -49.5t3 -38.5q2 -18 4 -33q-117 -6 -231 -10q-49 -2 -101.5 -3.5l-105 -3t-102 -2.5
t-91.5 -1q-2 -48 -5 -104q-2 -48 -4.5 -113t-4.5 -140q122 2 246.5 8t261.5 17q-3 -38 -5.5 -76.5t-2.5 -79.5q0 -27 1.5 -55t6.5 -57z" />
    <glyph glyph-name="F" unicode="F" horiz-adv-x="1241" 
d="M1206 1227q-75 5 -158 8.5t-169 3.5q-166 0 -328 -12q-5 -91 -7.5 -211.5t-2.5 -251.5q18 -2 36.5 -1t38.5 1q93 0 187 5t194 17q-5 -34 -6.5 -66.5t-1.5 -66.5t1.5 -67.5t6.5 -67.5q-69 9 -138 14t-138 5q-45 0 -90 -1.5t-90 -5.5q0 -114 0.5 -215t2.5 -179
q1 -91 3 -169q-59 0 -114.5 -1t-111 -3.5t-113 -6.5t-120.5 -11q19 145 30.5 296t17.5 303.5t7.5 303.5t1.5 295v340q91 -5 186.5 -7.5t194.5 -2.5q169 0 342.5 7t354.5 19z" />
    <glyph glyph-name="G" unicode="G" horiz-adv-x="1647" 
d="M1618 743q-5 -148 -41 -261t-91.5 -196t-126 -140.5t-144.5 -94.5t-145 -57.5t-129 -30t-97 -11t-47 -1.5q-140 0 -248.5 27t-190.5 76t-138.5 117.5t-92 152t-51 179.5t-15.5 199q0 172 52 313.5t152.5 245t247.5 164.5t337 72q90 0 176.5 -12.5t164 -41t144.5 -73.5
t119 -109.5t87 -151t48 -196.5q-62 -2 -118.5 -6.5t-111.5 -11t-111.5 -14.5t-119.5 -17q8 35 11.5 78.5t3.5 89.5q0 54 -4.5 108.5t-14.5 102.5q-52 8 -121 11t-143 3q-83 0 -162 -3t-139 -11q-29 -134 -44 -285t-15 -309q0 -114 7.5 -226t22.5 -220q29 -3 65 -4.5t77 -1.5
q57 0 120 3t124.5 8.5t120 14t106.5 19.5q3 28 5.5 63t2.5 72q0 34 -1.5 66.5t-6.5 58.5q-74 -1 -143 -5q-29 -2 -60.5 -4t-61.5 -4.5t-56.5 -5.5t-47.5 -6q21 96 21 199v33.5t-2 33.5q190 -12 387 -12q106 0 214 3t224 9z" />
    <glyph glyph-name="H" unicode="H" horiz-adv-x="1544" 
d="M1438 1466q-19 -309 -28 -612t-9 -606v-135t2 -136q-56 0 -117 -1.5t-112 -3.5q-60 -3 -117 -5q8 124 13.5 247.5t8.5 248.5q-17 0 -34 1t-35 1q-103 0 -215 -10t-217 -21q5 -115 11 -228.5t15 -228.5q-46 2 -88 3.5t-84 1.5q-78 0 -156.5 -4.5t-169.5 -10.5
q20 187 30.5 372.5t10.5 375.5q0 187 -10.5 372t-30.5 377q60 0 114.5 1t111 3t119.5 6.5t141 10.5q-11 -159 -17 -318.5t-6 -320.5v-174h66q109 0 224 4.5t226 13.5q0 59 1 118t1 118q0 133 -2.5 265t-7.5 265h95t74.5 1t80 3t111.5 6z" />
    <glyph glyph-name="I" unicode="I" horiz-adv-x="969" 
d="M930 1243q-129 6 -256 6h-6q0 -42 -0.5 -117.5t-0.5 -169t-1 -197.5t-1 -202t-0.5 -182.5t-0.5 -140.5h219v-252h-828v252h178q2 52 4.5 126t5.5 160t6.5 180t6 187.5t4.5 181.5t2 162q-48 -2 -95 -4.5t-95 -5.5q3 43 5.5 80.5t2.5 74.5q0 29 -1.5 58.5t-6.5 64.5
q72 -5 163 -6.5t187 -1.5t186.5 1t162.5 3q84 2 159 4v-262z" />
    <glyph glyph-name="J" unicode="J" horiz-adv-x="1376" 
d="M1280 692q-2 -150 -42.5 -283.5t-122.5 -234.5t-206 -160t-293 -59q-147 0 -257.5 36.5t-183.5 113t-109.5 195.5t-36.5 284q0 37 1.5 75t6.5 76q57 -3 102 -5.5t88 -2.5q44 0 90 3t109 9q-2 -46 -3 -94q-2 -42 -2.5 -93.5t-0.5 -102.5q0 -60 1.5 -112t6.5 -77
q41 0 94.5 1t110.5 3.5t113 6t102 8.5q18 117 25.5 255t7.5 283q0 113 -3 224t-8 214q-29 0 -64 -1.5t-71.5 -4.5t-72 -8t-66.5 -12l-18 276q115 -6 229 -6q102 0 206 4.5t220 14.5q14 -166 23 -314.5t14 -263.5q6 -134 10 -248z" />
    <glyph glyph-name="K" unicode="K" horiz-adv-x="1491" 
d="M1028 -53q-105 159 -229 322t-248 333v-620l-436 -19q14 196 22 393t8 400q0 358 -30 714h436v-686l655 686l291 -71l-584 -631q141 -189 249.5 -330t183.5 -237q87 -112 151 -191z" />
    <glyph glyph-name="L" unicode="L" horiz-adv-x="1174" 
d="M1157 -35q-137 9 -276 14t-279 5q-119 0 -238 -4t-241 -15q8 180 12 357.5t4 357.5q0 201 -4 400.5t-12 394.5h442q-4 -237 -8 -461q-2 -96 -3 -198t-2.5 -201t-2 -189.5t-0.5 -163.5l608 17v-314z" />
    <glyph glyph-name="M" unicode="M" horiz-adv-x="1974" 
d="M1513 -35q-4 23 -11 84t-15.5 144t-18.5 182t-19 199q-23 234 -48 516l-219 -1098l-428 -27q-54 222 -102 430q-21 88 -42.5 182.5t-42 185t-38 172.5t-29.5 146q-4 -54 -10.5 -130.5t-14 -165t-16 -183.5t-17.5 -186q-20 -214 -43 -451h-354q59 371 102.5 740t65.5 749
l582 31l237 -1086q43 205 81 402q16 84 32.5 175t30.5 180.5t26 173.5t19 155h553q20 -368 57 -736t94 -745z" />
    <glyph glyph-name="N" unicode="N" horiz-adv-x="1655" 
d="M1593 1542q-34 -300 -60 -588q-11 -123 -22 -255t-20 -261t-15 -249.5t-6 -219.5q-75 -8 -141.5 -11t-134.5 -3q-35 0 -73 1t-79 3l-567 1165q1 -69 2.5 -155t3.5 -179.5t4.5 -190.5t4.5 -187q4 -212 10 -435q-61 0 -126 -2q-56 -2 -124.5 -5.5t-136.5 -10.5
q7 100 12 226.5t8.5 266t5.5 283.5t2 279q0 140 -2.5 261t-5.5 206q81 -6 155 -8.5t148 -2.5q75 0 150.5 2.5t158.5 8.5q45 -127 100 -244t113.5 -231.5t117.5 -230t114 -238.5q0 66 1.5 144t3.5 161t4 167t5 162q5 182 13 371q55 -5 97.5 -7.5t84.5 -2.5t87 2.5t107 7.5z
" />
    <glyph glyph-name="O" unicode="O" horiz-adv-x="1589" 
d="M1044 236q6 60 11 132t8 147t4.5 147.5t1.5 132.5q0 115 -6 239.5t-19 239.5q-15 1 -36 2t-43.5 1.5t-43.5 0.5h-36q-45 0 -95.5 -2t-102.5 -6.5t-102.5 -11t-95.5 -15.5q0 -22 -0.5 -56.5t-0.5 -71t-0.5 -70t-0.5 -54.5q0 -187 12.5 -380t37.5 -375q25 -4 56.5 -7
t64.5 -4.5t65 -2.5t57 -1q28 0 62 1t69 2.5t69.5 4.5t63.5 7zM1532 723q0 -164 -55 -305t-156 -244.5t-242.5 -163t-314.5 -59.5q-75 0 -156 17.5t-159 57t-148.5 102.5t-123.5 154t-84.5 212t-31.5 276q0 152 35.5 266t93.5 195.5t133.5 134.5t155.5 84t158 43t143 12
q101 0 195.5 -18.5t177.5 -58t152 -101.5t119 -149t78.5 -200t29.5 -255z" />
    <glyph glyph-name="P" unicode="P" horiz-adv-x="1356" 
d="M1331 956q0 -153 -57.5 -265t-161.5 -187.5t-250.5 -117.5t-324.5 -54q8 -81 15.5 -165.5t18.5 -178.5l-473 -33q20 257 31.5 511.5t11.5 512.5q0 67 -0.5 122t-2 107t-4.5 107t-7 123q121 37 246.5 53t259.5 16q67 0 145 -7t155.5 -28t149 -58.5t127 -98.5t88.5 -149.5
t33 -209.5zM500 1296q0 -95 0.5 -185.5t2.5 -180t5.5 -180.5t9.5 -187h37q88 0 177 5.5t169 19.5q14 54 20.5 136t6.5 175q0 58 -3 117t-8 113t-13.5 100.5t-18.5 79.5q-14 2 -32.5 3t-41.5 1q-46 0 -99.5 -3t-101.5 -6z" />
    <glyph glyph-name="Q" unicode="Q" horiz-adv-x="1589" 
d="M1532 723q0 -101 -21.5 -193.5t-61.5 -173.5t-97.5 -149t-130.5 -119q77 -72 143 -148.5t125 -156.5q-137 -29 -257 -75.5t-228 -108.5q-17 96 -38.5 186t-45.5 180q-39 -6 -77.5 -10t-78.5 -4q-75 0 -156 17.5t-159 57t-148.5 102.5t-123.5 154t-84.5 212t-31.5 276
q0 152 35.5 266t93.5 195.5t133.5 134.5t155.5 84t158 43t143 12q101 0 195.5 -18.5t177.5 -58t152 -101.5t119 -149t78.5 -200t29.5 -255zM1044 236q6 60 11 132t8 147t4.5 147.5t1.5 132.5q0 115 -6 239.5t-19 239.5q-15 1 -36 2t-43.5 1.5t-43.5 0.5h-36q-45 0 -95.5 -2
t-102.5 -6.5t-102.5 -11t-95.5 -15.5q0 -22 -0.5 -56.5t-0.5 -71t-0.5 -70t-0.5 -54.5q0 -187 12.5 -380t37.5 -375q25 -4 56.5 -7t64.5 -4.5t65 -2.5t57 -1q28 0 62 1t69 2.5t69.5 4.5t63.5 7z" />
    <glyph glyph-name="R" unicode="R" horiz-adv-x="1417" 
d="M1331 997q0 -78 -25 -144.5t-72 -122t-114 -100.5t-151 -79l442 -547l-463 -51l-291 510q-31 -6 -64 -11t-67 -10q8 -103 19.5 -215t25.5 -239l-473 -33q20 257 31.5 511.5t11.5 512.5q0 67 -0.5 122t-2 107t-4.5 107t-7 123q121 37 246.5 53t259.5 16q67 0 145 -9
t155.5 -31t149 -59t127 -94t88.5 -135t33 -182zM500 1296q0 -164 2.5 -316.5t11.5 -313.5h41q88 0 177 5t169 19q14 54 20.5 123.5t6.5 144.5q0 48 -3 96.5t-8 94t-13.5 86.5t-18.5 74q-14 2 -32.5 3t-41.5 1q-46 0 -99.5 -3t-101.5 -6z" />
    <glyph glyph-name="S" unicode="S" horiz-adv-x="1430" 
d="M1384 418q0 -130 -51.5 -219.5t-143 -145t-217.5 -80t-274 -24.5q-67 0 -139 12.5t-142 40t-134 69.5t-114.5 101.5t-85 136.5t-44.5 174l436 9q-2 -28 -2 -57v-60q0 -87 6 -178q59 -7 118 -10t118 -3t117 3t118 10q5 34 8 66.5t3 66.5q0 55 -7 111t-18 112
q-70 8 -161 18t-186.5 29.5t-187 52t-163.5 86t-116 131.5t-44 189q0 77 28.5 140t77 112.5t113 86.5t136 61t145.5 36t143 12q151 0 266 -47t193.5 -122.5t121.5 -170.5t50 -190l-457 -49q5 38 6.5 76.5t1.5 76.5q0 87 -12 176q-34 5 -67.5 7t-67.5 2q-135 0 -273 -33
q-2 -25 -2 -49v-47q0 -70 5.5 -137.5t21.5 -135.5q83 -11 180 -23.5t194.5 -33t188 -51t160 -76t111.5 -110t42 -152.5z" />
    <glyph glyph-name="T" unicode="T" horiz-adv-x="1262" 
d="M1243 1219q-74 0 -149.5 1t-153.5 1h-88q0 -308 4 -617t21 -618h-455q10 226 20 448q4 94 8 197t8 205t6.5 198.5t4.5 179.5q-115 -3 -226.5 -7t-224.5 -9v299q158 -6 313.5 -8t313.5 -2q152 0 301 2t297 8v-278z" />
    <glyph glyph-name="U" unicode="U" horiz-adv-x="1552" 
d="M1460 748q-1 -107 -16 -207t-48 -189t-86 -162.5t-129 -126.5t-177 -82.5t-230 -29.5q-152 0 -277 43.5t-214 140t-138 251.5t-49 378q0 117 6 223.5t17 195.5t25.5 159.5t31.5 115.5h393q-4 -24 -11.5 -84t-15 -141t-13 -175.5t-5.5 -185.5q0 -85 2.5 -175t8 -175.5
t14 -162t20.5 -134.5q44 -6 98 -9t111 -3t113 3t104 9q8 58 13 134t8 161t4.5 174.5t1.5 173.5q0 92 -2 173.5t-6 154.5t-8.5 138t-10.5 124h383q27 -135 43 -241.5t25 -192t11.5 -152.5t2.5 -124z" />
    <glyph glyph-name="V" unicode="V" horiz-adv-x="1436" 
d="M1430 1520q-121 -386 -219.5 -777t-176.5 -776q-94 -4 -198 -8q-89 -3 -200 -5.5t-226 -2.5l-383 1515l479 31q55 -244 107 -479q22 -100 45 -208.5t45 -215t42 -206t35 -183.5q30 114 62 242t62.5 257.5t59 254t52.5 232.5t41.5 193.5t27.5 135.5h345z" />
    <glyph glyph-name="W" unicode="W" horiz-adv-x="2152" 
d="M2124 1487l-312 -1487l-622 -33q-11 95 -24.5 200t-28 210.5t-29.5 207t-28.5 190.5t-25.5 160.5t-20 117.5q-8 -56 -23 -142t-33 -187.5t-38 -210.5t-38.5 -211.5t-33.5 -190t-24 -144.5h-512l-293 1481l473 39q46 -273 86 -503q17 -98 33.5 -196.5t31 -183t25.5 -148.5
t17 -94q16 61 32 137.5t32.5 160.5t32 172t30 172.5t26.5 161t21.5 137.5t15.5 102t8 55l471 27q36 -228 71 -440q15 -91 30.5 -187t31.5 -188t31 -175t27 -147q9 64 21.5 147.5t27 175.5t30.5 188l31 186q35 212 74 440h375z" />
    <glyph glyph-name="X" unicode="X" horiz-adv-x="1503" 
d="M946 -49q-17 28 -43.5 69t-60 92.5t-73.5 112t-85 127.5q-78 -100 -157 -196t-154 -187l-385 13q128 155 260.5 312.5t263.5 319.5q-75 115 -150 232.5t-144 230t-128 215.5t-102 189h575q15 -32 41 -79.5t60.5 -107t76 -129.5t88.5 -147q88 115 169 230t153 233h367
q-100 -146 -235 -333t-290 -392q64 -99 131 -200.5t135 -200t134.5 -191.5t128.5 -174z" />
    <glyph glyph-name="Y" unicode="Y" horiz-adv-x="1645" 
d="M1634 1479q-114 -261 -215 -446t-177 -303q-89 -138 -165 -228q-2 -22 -3 -50.5t-1 -62.5q0 -55 2 -118t5.5 -122t8 -107.5t9.5 -74.5l-557 -10q4 17 9.5 55.5t11 87t10 102.5t8.5 101.5t6.5 83.5t3.5 49q-43 67 -92 146.5t-102 167t-108 180t-108 186t-103.5 185.5
t-94.5 178l567 -25q21 -68 54 -156t75 -187.5t92 -204.5t104 -206q72 132 138 268q28 58 58 122t58 130.5t53 132t44 126.5h409z" />
    <glyph glyph-name="Z" unicode="Z" horiz-adv-x="1354" 
d="M1348 1479q-73 -161 -152 -312t-166 -299t-184 -296t-205 -304q159 0 317 6.5t328 20.5l-8 -315q-201 -13 -401.5 -17t-405.5 -4q-121 0 -241 1t-242 3q69 108 146 223.5t154.5 231.5t151.5 229t138.5 216.5t115.5 195t82 164.5q-46 3 -96 3.5t-102 0.5
q-63 0 -128.5 -1.5t-130.5 -3.5t-128.5 -5.5t-122.5 -6.5v269q161 -7 321.5 -11t325.5 -4q156 0 312 4t321 11z" />
    <glyph glyph-name="bracketleft" unicode="[" horiz-adv-x="928" 
d="M856 -373q-96 5 -191.5 8t-189.5 3q-90 0 -178 -3t-178 -8q8 246 12 489t4 488q0 258 -4 514t-12 516q96 -6 191.5 -8t189.5 -2q93 0 183 2t183 8l-26 -295q-50 3 -99.5 5t-99.5 2q-51 0 -99 -2t-98 -5q-24 -336 -32.5 -671.5t-8.5 -669.5q60 -5 119.5 -6.5t118.5 -1.5
q62 0 123 1.5t121 6.5z" />
    <glyph glyph-name="asciicircum" unicode="^" horiz-adv-x="1214" 
d="M750 786q-28 121 -72.5 238t-110.5 229q-77 -99 -138 -202t-112 -209l-249 41q108 145 204 287.5t181 287.5h381q60 -152 139 -295t178 -282z" />
    <glyph glyph-name="a" unicode="a" 
d="M907 -33q0 29 -1 58.5t-1 58.5q-53 -48 -110.5 -72.5t-105.5 -36.5q-56 -14 -111 -16q-100 0 -192.5 30.5t-164.5 91.5t-116.5 152.5t-49.5 212.5q0 122 33 222.5t99 172.5t164 111.5t227 40.5q4 0 30.5 -1.5t65.5 -9t85 -24t91 -45.5l-16 123l395 27q-12 -287 -12 -571
q0 -69 0.5 -130.5t2 -122t4 -122t5.5 -129.5zM440 209q119 5 234 16t227 33q-3 124 -10.5 240t-20.5 237h-57q-97 0 -194.5 -6.5t-196.5 -21.5q-12 -105 -12 -211q0 -40 2 -74.5t5.5 -68.5t9 -69t13.5 -75z" />
    <glyph glyph-name="b" unicode="b" horiz-adv-x="1331" 
d="M1276 500q0 -84 -20 -154.5t-55 -128.5t-81.5 -102t-100 -74t-110.5 -45.5t-112 -15.5q-66 2 -129 16q-27 6 -56.5 15.5t-58.5 23.5t-56.5 32.5t-50.5 43.5q2 -31 4 -61.5t5 -59.5h-336q0 360 -10 729t-33 727l379 22q-8 -143 -13 -288t-8 -291q23 27 50 48t56.5 37
t59 26.5t56.5 17.5q64 16 130 18q115 0 206 -37t154 -106t96.5 -168.5t33.5 -224.5zM434 662q0 -103 1.5 -204.5t4.5 -201.5q38 -5 71.5 -8t66 -4.5t64.5 -2.5t67 -1q72 0 168 6q12 90 19 178.5t7 179.5q0 45 -1.5 88.5t-6.5 89.5q-54 5 -100 8t-88 3q-71 0 -135.5 -8.5
t-137.5 -26.5v-96z" />
    <glyph glyph-name="c" unicode="c" horiz-adv-x="1221" 
d="M784 664q5 24 7 48.5t2 49.5q0 23 -2 45t-7 45q-43 8 -87 11t-91 3q-46 0 -93 -3t-95 -11q-5 -54 -7.5 -106t-2.5 -105q0 -122 12.5 -241.5t34.5 -239.5q45 -5 86.5 -6.5t85.5 -1.5q43 0 85 1.5t87 6.5q2 21 3 41t1 39q0 18 -1 36t-3 35l377 -8q-28 -95 -80.5 -163
t-124 -111.5t-159.5 -63.5t-185 -20q-119 0 -223.5 32t-182 103.5t-122 186.5t-44.5 282q0 135 47 232t125.5 160t182 92.5t217.5 29.5q101 0 192 -23.5t164.5 -72t125.5 -124t75 -179.5h-400z" />
    <glyph glyph-name="d" unicode="d" 
d="M1255 1446q-23 -358 -33 -725.5t-10 -730.5h-333l6 112q-48 -46 -106 -71t-110 -36q-61 -13 -122 -15q-114 0 -205.5 41t-155 115t-97.5 178t-34 229q0 83 20 154t55 129t82 102t100 74t110 45.5t113 15.5q69 -2 135 -18q28 -7 58 -17.5t59.5 -25.5t57 -35t50.5 -47
q-3 139 -7 275.5t-9 272.5zM764 242h59.5t65.5 2q5 103 6.5 207.5t1.5 210.5v122q-75 8 -138.5 13.5t-135.5 5.5q-38 0 -78.5 -1.5t-89.5 -4.5q-13 -90 -19 -179t-6 -180q0 -45 0.5 -89t5.5 -89q50 -5 92.5 -8t82 -5.5t77 -3.5t76.5 -1z" />
    <glyph glyph-name="e" unicode="e" horiz-adv-x="1237" 
d="M1200 469l-782 -63q5 -62 14 -123t23 -123q88 -6 170 -6q45 0 87 1.5t87 4.5q2 20 3 40t1 40q0 18 -0.5 35.5t-3.5 35.5l377 -8q-28 -95 -80.5 -163t-124 -111.5t-159.5 -63.5t-185 -20q-119 0 -223.5 32t-182 103.5t-122 186.5t-44.5 282q0 135 47 232t125.5 160
t182 92.5t217.5 29.5q119 0 223.5 -32t182 -100t122.5 -174t45 -253v-35zM408 616h401q0 124 -25 236q-86 18 -180 18q-92 0 -186 -18q-6 -56 -8 -113.5t-2 -122.5z" />
    <glyph glyph-name="f" unicode="f" horiz-adv-x="858" 
d="M829 772q-75 3 -148.5 4.5t-148.5 3.5q8 -193 26.5 -382.5t49.5 -381.5l-372 -36q-10 120 -17 233t-12 215t-8 190.5t-4 159.5l-162 -6v250q40 -3 79.5 -5.5t80.5 -4.5q0 7 2 32t9 62t22 82t41 91t64.5 89.5t93.5 77t128.5 54t169.5 20.5q35 0 73.5 -3.5t80.5 -11.5v-272
q-48 8 -95.5 11t-97.5 3q-37 0 -76 -2t-78 -8q-2 -51 -2 -101.5v-101.5v-26q75 2 149.5 5t151.5 9v-250z" />
    <glyph glyph-name="g" unicode="g" horiz-adv-x="1286" 
d="M1200 1063q-15 -307 -23.5 -526t-12.5 -359q-5 -165 -7 -272q-5 -127 -55.5 -219t-131 -153t-183 -93t-212.5 -39q-111 0 -202.5 27t-159 76t-110 116t-54.5 148l406 28q-10 -26 -12.5 -53t-2.5 -55q0 -25 2.5 -51t12.5 -52q14 -2 28 -2h29q143 0 283 31q9 112 15 222.5
t11 221.5q-48 -30 -98 -45.5t-92 -23.5q-49 -9 -96 -10q-56 0 -113 15.5t-110 45.5t-100 74t-82 102t-55 128.5t-20 154.5q0 125 33.5 228.5t96.5 178t154 115.5t206 41q47 -1 96 -10q42 -8 92 -24.5t96 -47.5q0 26 -1 53t-1 53zM834 612q0 47 -0.5 93.5t-2.5 93.5
q-18 2 -36 2h-35q-38 0 -75 -1t-76 -3.5t-82 -6t-93 -8.5q-3 -46 -4.5 -89.5t-1.5 -88.5q0 -91 7 -179.5t20 -178.5q48 -3 88 -4.5t78 -1.5q55 0 104 2t104 8q2 91 3.5 181t1.5 181z" />
    <glyph glyph-name="h" unicode="h" horiz-adv-x="1255" 
d="M1178 563q0 -133 -14 -271t-48 -276h-348q12 149 19.5 294.5t7.5 293.5v99.5t-2 99.5q-45 5 -89.5 6.5t-89.5 1.5q-90 0 -180 -6v-129q0 -165 5 -328.5t16 -331.5h-336q0 362 -10 717t-33 713l379 22q-7 -131 -12 -261t-7 -261q58 44 120 67.5t113 34.5q60 13 117 15
q73 0 130.5 -20t101 -55.5t74 -83.5t50 -103.5t28 -116.5t8.5 -121z" />
    <glyph glyph-name="i" unicode="i" horiz-adv-x="547" 
d="M463 1044q-22 -223 -29.5 -440t-7.5 -434v-76.5t2 -77.5h-309q0 62 1 123t1 121q0 199 -9.5 394t-29.5 390h381zM463 1368q0 -35 -17 -65.5t-47 -53t-70 -36t-85 -13.5t-84 13.5t-68 36t-46 53t-17 65.5q0 34 17 64.5t46 53t68 35.5t84 13t85 -13t70 -35.5t47 -53
t17 -64.5z" />
    <glyph glyph-name="j" unicode="j" horiz-adv-x="555" 
d="M461 1063q-5 -191 -9 -347t-8 -281.5t-8 -221.5l-7 -168q-8 -168 -15 -254q-4 -101 -46.5 -178.5t-112 -131t-161 -81t-194.5 -27.5q-84 0 -163.5 27t-144.5 79t-110.5 127t-61.5 171l379 45q0 -60 7 -117t30 -119q62 6 126 14.5t132 22.5q8 178 13.5 353t5.5 352
q0 174 -5 346.5t-14 345.5zM514 1413q0 -41 -20 -77t-55 -63t-82 -43t-101 -16t-101 16t-82 43t-55 63t-20 77q0 42 20 78t55 63t82 42.5t101 15.5t101 -15.5t82 -42.5t55 -63t20 -78z" />
    <glyph glyph-name="k" unicode="k" horiz-adv-x="1071" 
d="M1040 1126q-7 -82 -34 -154t-68.5 -134.5t-93.5 -116t-109 -98.5q103 -131 177 -271.5t128 -292.5l-344 -79q-14 136 -52 263.5t-107 245.5q-36 -20 -70.5 -35.5t-63.5 -29.5v-90q0 -81 2.5 -159t2.5 -159l-289 -36q0 371 -11 743t-36 745h372q-15 -220 -25 -438.5
t-13 -439.5q50 40 89 85t69 90t51 89.5t36 84.5q34 94 45 187h344z" />
    <glyph glyph-name="l" unicode="l" horiz-adv-x="532" 
d="M459 1507q-26 -376 -34.5 -748.5t-8.5 -742.5h-312q5 184 7 365t2 364q0 192 -2 381t-7 381h355z" />
    <glyph glyph-name="m" unicode="m" horiz-adv-x="1804" 
d="M1114 496q0 -127 -15 -258t-46 -263h-348q12 141 19 280t7 280v95t-2 93q-45 5 -88.5 6.5t-89.5 1.5q-26 0 -52.5 -1t-54.5 -1q-3 -71 -3.5 -132.5t-0.5 -123.5q0 -51 1 -103.5t3.5 -112.5t6.5 -129.5t10 -152.5h-336q0 120 -1 212t-3 169.5t-5.5 148t-8.5 148t-11 169
t-14 210.5l379 23l-8 -148q50 24 98 37t86 19q44 7 84 8q77 0 137 -21.5t105 -58.5q58 50 122.5 76.5t119.5 39.5q64 15 126 17q74 0 131.5 -20t101.5 -55.5t74.5 -84t49.5 -104t27.5 -116.5t8.5 -122q0 -133 -14.5 -270t-46.5 -277h-348q12 149 19 295.5t7 294.5v99.5
t-2 99.5q-45 5 -89 6.5t-91 1.5q-26 0 -51 -1t-51 -1q31 -62 44 -132.5t13 -141.5z" />
    <glyph glyph-name="n" unicode="n" horiz-adv-x="1264" 
d="M1184 522q0 -133 -14 -271t-48 -276h-348q13 149 20 294.5t7 293.5v99.5t-2 99.5q-45 5 -89 6.5t-89 1.5q-85 0 -175 -6q-3 -82 -4.5 -152t-1.5 -139q0 -51 1 -103.5t3.5 -112.5t6.5 -129.5t10 -152.5h-336q0 120 -1 212t-3 169.5t-5.5 148t-8.5 148t-11 169t-14 210.5
l379 23l-8 -142q57 40 117 62t110 33q58 12 113 14q73 0 130.5 -20t101 -55.5t73.5 -83.5t49.5 -103.5t28 -116.5t8.5 -121z" />
    <glyph glyph-name="o" unicode="o" horiz-adv-x="1243" 
d="M823 207q6 85 8.5 165t2.5 158q0 81 -2.5 159.5t-8.5 162.5q-34 5 -67.5 6.5t-67.5 1.5q-140 0 -270 -31q-3 -54 -5.5 -107t-2.5 -106q0 -106 8.5 -211.5t25.5 -220.5q23 -2 46.5 -2h48.5q69 0 140.5 6t143.5 19zM1194 522q0 -119 -46.5 -223.5t-126.5 -182.5
t-187.5 -123.5t-229.5 -45.5q-121 0 -222.5 45.5t-175 123.5t-114.5 182.5t-41 223.5q0 147 41 255t114.5 179t175 105.5t222.5 34.5q122 0 229.5 -39t187.5 -113t126.5 -180.5t46.5 -241.5z" />
    <glyph glyph-name="p" unicode="p" 
d="M1274 522q0 -125 -33.5 -224.5t-96.5 -168.5t-154 -106t-206 -37q-66 2 -130 18q-27 7 -56.5 17.5t-59 26t-56.5 36.5t-50 49q3 -171 8 -338.5t13 -322.5l-379 24q11 177 19 372t13.5 393.5t8 394.5t2.5 376h336q-6 -62 -9 -123q23 25 50.5 43.5t56.5 32.5t58.5 24
t56.5 16q63 15 129 17q55 0 112 -15.5t110.5 -45.5t100 -74t81.5 -102t55 -128.5t20 -154.5zM432 262q73 -18 137.5 -25.5t135.5 -7.5q42 0 88 3t100 8q5 45 6.5 89t1.5 89q0 91 -7 179.5t-20 178.5q-95 6 -167 6q-35 0 -67 -1.5t-64.5 -4t-66 -5.5t-71.5 -7
q-6 -215 -6 -438v-64z" />
    <glyph glyph-name="q" unicode="q" 
d="M879 -522q5 149 9.5 307.5t6.5 323.5q-46 -54 -107 -83t-118 -43q-66 -16 -135 -18q-56 0 -113 15t-110 45t-100 74t-82 101.5t-55 128.5t-20 154q0 125 34 229t97.5 178.5t155 115.5t205.5 41q61 -2 122 -15q52 -11 110 -36.5t106 -71.5l-6 112h333q0 -181 2.5 -377
t7.5 -394t13.5 -392.5t19.5 -372.5zM623 223q72 0 135.5 4.5t138.5 14.5v90q0 115 -1.5 228t-6.5 224q-34 2 -65.5 2h-59.5q-39 0 -76.5 -1t-77 -3.5t-82 -6.5t-92.5 -9q-5 -45 -5.5 -89t-0.5 -89q0 -91 6 -180t19 -179q49 -3 89.5 -4.5t78.5 -1.5z" />
    <glyph glyph-name="r" unicode="r" horiz-adv-x="1249" 
d="M852 479q2 25 4 49.5t2 49.5q0 86 -18 170q-93 -4 -184.5 -13t-184.5 -24v-199v-259.5t2 -258.5l-356 -25q3 37 3.5 73t0.5 73q0 232 -8.5 459t-24.5 456l385 33q0 -28 -1 -55.5t-1 -55.5q58 42 116.5 64t106.5 33q55 12 107 14q118 -6 211 -54q39 -20 77 -51.5t68 -77
t48 -107t18 -142.5q0 -28 -3 -58.5t-8 -64.5z" />
    <glyph glyph-name="s" unicode="s" horiz-adv-x="1206" 
d="M1153 233q0 -88 -45 -146.5t-118 -94t-166 -50t-189 -14.5q-53 0 -113.5 6.5t-121.5 23t-118.5 44t-104.5 69.5t-80.5 99t-45.5 133l406 4l16 -174h311l23 201q-62 14 -142 24t-164 24.5t-165 37.5t-144 63t-102 101t-39 151q0 97 47 163.5t123.5 107t173.5 59.5t197 22
q53 0 114.5 -6t122.5 -21.5t117.5 -42.5t101 -68.5t73 -100t32.5 -137.5l-393 -17v197h-338v-266q65 -14 145 -21.5t161 -19.5t157.5 -33t136 -60t95.5 -101t36 -157z" />
    <glyph glyph-name="t" unicode="t" horiz-adv-x="1065" 
d="M1042 762q-97 5 -194.5 9t-194.5 7q-12 -199 -21 -397t-14 -399l-292 -29q6 366 6 725v106h-72q-60 0 -120 -1t-120 -1v254q26 0 52.5 -1t54.5 -1h203q0 93 -1 183.5t-3 181.5h379q-10 -90 -17.5 -178.5t-13.5 -176.5q93 4 183.5 8.5t184.5 10.5v-301z" />
    <glyph glyph-name="u" unicode="u" horiz-adv-x="1217" 
d="M1151 635q0 -86 -8.5 -168.5t-30 -157t-59 -139t-94.5 -113.5t-137 -80.5t-187 -39.5q-275 0 -413 139t-138 411v37.5t1 76t2.5 102t5.5 115.5t9.5 116t14.5 104h350q-19 -99 -28 -209t-9 -225q0 -106 8.5 -210.5t28.5 -198.5q37 -5 72.5 -8t70.5 -3q34 0 70.5 3t71.5 8
q11 94 16.5 197.5t5.5 209.5q0 116 -5.5 226.5t-16.5 209.5h362q22 -117 29.5 -221t7.5 -182z" />
    <glyph glyph-name="v" unicode="v" horiz-adv-x="1219" 
d="M1227 1096q-216 -529 -355 -1065l-559 -47q-32 129 -62 257.5t-62.5 257t-68.5 256t-81 255.5h379q34 -214 82 -422.5t114 -415.5q74 230 129 460.5t97 463.5h387z" />
    <glyph glyph-name="w" unicode="w" horiz-adv-x="1745" 
d="M1712 1069l-190 -1085h-504l-129 741l-201 -702h-463l-192 1026h411l142 -764l221 743h356l166 -805l127 846h256z" />
    <glyph glyph-name="x" unicode="x" horiz-adv-x="1292" 
d="M700 748l310 321l278 -57l-432 -453l430 -520l-403 -55l-267 323l-309 -323l-317 26l469 488l-441 538h445z" />
    <glyph glyph-name="y" unicode="y" horiz-adv-x="1288" 
d="M1198 1036q-5 -262 -13 -452t-16 -317q-9 -148 -18 -249q-6 -121 -44.5 -221t-108.5 -172t-170 -111.5t-230 -39.5q-87 0 -152 10.5t-113.5 31t-83 50.5t-60.5 69.5t-45.5 88.5t-37.5 106l367 8q0 -14 -1 -26.5t-1 -24.5q0 -75 12 -145q39 -5 68 -8t57 -3q38 0 78 5
t96 14q10 105 17 208.5t12 207.5q-42 -18 -80.5 -27.5t-67.5 -14.5q-34 -5 -65 -6q-145 0 -239 36.5t-151.5 103t-84 160t-36.5 206.5t-10 242.5t-3 269.5l409 -28q-8 -94 -13 -187t-5 -186q0 -96 5 -190.5t13 -188.5q37 -3 69 -3.5t64 -0.5q53 0 102.5 1.5t98.5 6.5
q2 32 2 65.5v65.5q0 167 -8.5 332t-28.5 330z" />
    <glyph glyph-name="z" unicode="z" horiz-adv-x="1065" 
d="M537 242q51 0 108 1t116.5 3.5t120.5 5.5t119 8l-6 -225q-244 -14 -488.5 -20.5t-496.5 -6.5q40 55 86 121t95 136t97.5 141t93.5 137q105 154 212 313q-96 -2 -190 -5q-40 -1 -83.5 -2.5l-87 -3t-84.5 -3.5t-77 -4v233q124 -5 248 -6.5t249 -1.5q121 0 240 1.5t240 6.5z
" />
    <glyph glyph-name="braceleft" unicode="{" horiz-adv-x="979" 
d="M932 -317q-48 -11 -92 -16t-86 -5q-56 0 -119 12.5t-125 37.5t-118.5 61t-100 83t-69 105t-25.5 125q0 51 16 94.5t35.5 82t36 73t16.5 67.5q0 46 -30.5 77t-75 50.5t-95 28t-90.5 10.5v176q33 1 82.5 9.5t96 28t79.5 51t33 79.5q0 32 -16.5 66.5t-36 73.5t-35.5 83
t-16 95q0 64 24 120.5t65.5 103.5t96 84t116.5 63t127.5 39.5t127.5 13.5q42 0 86 -5t92 -16l-49 -374q-48 15 -87 21.5t-73 6.5q-40 0 -80.5 -11t-73 -33.5t-53 -56.5t-20.5 -81q0 -42 14 -84t31 -81t31 -73t14 -61q0 -25 -20.5 -46t-51 -37.5t-66.5 -29t-67.5 -21
t-53 -12.5t-22.5 -4q1 0 22.5 -4t53 -12.5t67.5 -21t66.5 -29t51 -37.5t20.5 -45q0 -26 -14 -60t-31 -73t-31 -81.5t-14 -84.5q0 -43 19 -76.5t50.5 -56.5t72.5 -35t85 -12q34 0 73 6t87 20z" />
    <glyph glyph-name="bar" unicode="|" horiz-adv-x="623" 
d="M543 1640q-41 -361 -56.5 -720.5t-15.5 -718.5q0 -137 1.5 -271t6.5 -268h-379q20 398 32.5 797t12.5 798v181.5t-2 181.5z" />
    <glyph glyph-name="asciitilde" unicode="~" horiz-adv-x="1671" 
d="M1581 1001q18 -86 18 -157q0 -92 -34 -172.5t-94 -140t-141.5 -94t-176.5 -34.5q-30 0 -77 3.5t-101 16.5t-108 37t-98 66t-71.5 103.5t-27.5 148.5l-197 -18q-8 -35 -12 -71t-4 -71q0 -46 6 -91.5t20 -90.5h-368q-25 100 -25 182q0 79 18.5 140t49 106t69.5 76t80 52
q95 48 217 57q4 0 42 -1.5t93 -10.5t118.5 -29t117.5 -57t89.5 -94.5t35.5 -141.5q0 -14 -0.5 -29t-5.5 -31q26 -3 50.5 -5.5t47.5 -2.5q56 0 115 12q8 42 13 84t5 84t-5 82t-13 82z" />
    <glyph glyph-name="degree" unicode="&#xb0;" horiz-adv-x="707" 
d="M449 1110q6 52 6 107q0 50 -6 100q-11 0 -19 1t-16 1q-45 0 -86.5 -4t-81.5 -12q-5 -23 -6.5 -47.5t-1.5 -49.5q0 -23 1.5 -47t6.5 -49q52 -6 100 -6q50 0 103 6zM637 1200q0 -47 -22 -88t-60.5 -71.5t-90 -48t-110.5 -17.5t-110.5 17.5t-90 48t-61 71.5t-22.5 88
t22.5 88.5t61 72t90 48.5t110.5 18t110.5 -18t90 -48.5t60.5 -72t22 -88.5z" />
    <glyph glyph-name="sterling" unicode="&#xa3;" horiz-adv-x="1448" 
d="M1356 414q-26 -106 -30.5 -208.5t-4.5 -207.5q-140 6 -279.5 8t-279.5 2q-153 0 -302 -2.5t-300 -7.5q52 195 74 340t28 237h-51h-71.5t-71.5 -2v252q94 -9 190 -12q-6 54 -12 114t-6 122q0 57 8 112.5t29 106t57.5 93.5t94 74.5t138.5 49.5t191 18q119 0 208.5 -19.5
t155 -53.5t108.5 -79t69 -95.5t36.5 -103.5t10.5 -103q0 -60 -11 -109t-26 -78h-365q9 50 15 98.5t6 96.5q0 51 -6 101t-15 99q-46 7 -92 10t-94 3q-45 0 -90.5 -3t-92.5 -10q-15 -223 -18 -448q56 2 111 6t112 10v-276q-55 5 -111 9t-112 7q3 -86 7.5 -172.5t10.5 -173.5
q93 -12 191 -12q86 0 178 12q6 25 8 49.5t2 48.5q0 22 -2 44t-8 42z" />
    <glyph glyph-name="bullet" unicode="&#x2022;" horiz-adv-x="831" 
d="M705 489q0 -46 -22.5 -86.5t-61 -71t-91 -48t-112.5 -17.5t-113 17.5t-92.5 48t-62.5 71t-23 86.5t23 87t62.5 71.5t92.5 48t113 17.5t112.5 -17.5t91 -48t61 -71.5t22.5 -87z" />
    <glyph glyph-name="paragraph" unicode="&#xb6;" horiz-adv-x="1812" 
d="M1307 -8q11 156 14.5 311.5t3.5 310.5q0 149 -3.5 296.5t-14.5 295.5h-179q-12 -155 -17 -306t-5 -306q0 -165 5 -328.5t17 -328.5h-464q18 130 34.5 255t30.5 252q-35 -14 -70 -22.5t-65 -12.5t-53 -5t-33 -1q-89 0 -170 29.5t-142 91t-97 156t-36 223.5q0 113 34.5 196
t94.5 142t141 95.5t174 57.5t193 28.5t199 7.5q64 0 147 -1.5t179.5 -6t203.5 -12.5t220 -21q-5 -88 -6 -175.5t-1 -175.5q0 -258 13 -512t39 -512zM743 573q16 156 25 311.5t14 317.5q-40 5 -79.5 7.5t-79.5 2.5q-41 0 -80 -2.5t-76 -7.5q-20 -115 -31.5 -221.5
t-11.5 -214.5q0 -45 2 -90.5t8 -93.5q53 -5 104.5 -7t102.5 -2h102z" />
    <glyph glyph-name="acute" unicode="&#xb4;" horiz-adv-x="496" 
d="M496 1464l-361 -321l-135 35l258 381z" />
    <glyph glyph-name="dieresis" unicode="&#xa8;" horiz-adv-x="705" 
d="M285 1343q0 -22 -11.5 -41.5t-31 -34.5t-45.5 -23.5t-56 -8.5q-29 0 -55 8.5t-45 23.5t-30 34.5t-11 41.5q0 23 11 43.5t30 35.5t45 23.5t55 8.5q30 0 56 -8.5t45.5 -23.5t31 -35.5t11.5 -43.5zM705 1343q0 -22 -11.5 -41.5t-31 -34.5t-45.5 -23.5t-56 -8.5
q-29 0 -54.5 8.5t-44.5 23.5t-30.5 34.5t-11.5 41.5q0 23 11.5 43.5t30.5 35.5t44.5 23.5t54.5 8.5q30 0 56 -8.5t45.5 -23.5t31 -35.5t11.5 -43.5z" />
    <glyph glyph-name="infinity" unicode="&#x221e;" horiz-adv-x="1845" 
d="M768 674q-87 51 -180 88t-193 63v-276q100 18 193 49.5t180 75.5zM1444 856q-115 -28 -221.5 -69t-206.5 -101q210 -97 428 -164v334zM1778 666q0 -65 -30.5 -126t-86 -108t-134 -75.5t-175.5 -28.5q-89 3 -170 28q-35 10 -71.5 26t-71 39.5t-65 54.5t-52.5 73
q-23 -42 -53 -73t-64 -54.5t-70.5 -39.5t-70.5 -26q-81 -25 -168 -28q-98 0 -177 28.5t-134.5 75.5t-86 108t-30.5 126q0 66 24.5 129.5t74.5 113.5t127.5 80.5t184.5 30.5q83 -3 164 -24q34 -9 71 -23t73.5 -35t71 -49t63.5 -64q29 36 63.5 64t71 49t73.5 35t71 23
q80 21 163 24q107 0 185 -30.5t129 -80.5t75.5 -113.5t24.5 -129.5z" />
    <glyph glyph-name="partialdiff" unicode="&#x2202;" horiz-adv-x="1466" 
d="M1376 580q-2 -122 -25.5 -217t-63 -168t-90.5 -126t-107.5 -89.5t-115 -59t-113 -35t-101 -16.5t-78.5 -4q-44 0 -106 7.5t-130.5 29t-136.5 60t-122.5 100t-89 149.5t-36.5 209q0 97 24 171.5t66.5 129t101 91.5t127.5 59.5t146 32t156 9.5q41 -2 86 -11q38 -8 85.5 -22
t96.5 -38q-13 52 -38.5 121.5t-70 144.5t-111 150t-161.5 139l387 143q83 -58 145 -128t107 -146.5t75 -155t48.5 -152.5t28 -140t13 -117t3.5 -83v-38zM889 109q27 52 43.5 118.5t25.5 136t12 136t3 118.5v13q-93 14 -184.5 21t-184.5 7h-57.5t-57.5 -2q-6 -46 -8 -91
t-2 -93q0 -91 10 -183t27 -188q43 -8 85 -12t85 -4q51 0 100.5 6t102.5 17z" />
    <glyph glyph-name="ae" unicode="&#xe6;" horiz-adv-x="2042" 
d="M2005 469l-782 -63q5 -62 14 -123t23 -123q88 -6 170 -6q45 0 87 1.5t87 4.5q2 20 3 40t1 40q0 18 -0.5 35.5t-3.5 35.5l376 -8q-27 -95 -79.5 -163t-124 -111.5t-159.5 -63.5t-185 -20q-160 0 -285 55l-6 -55h-312v29t2 28q-80 -43 -174 -61.5t-184 -18.5
q-78 0 -154 12.5t-136 46t-97 92t-37 150.5q0 71 29.5 132t89 106t149.5 70.5t211 25.5q24 0 58 -2t74.5 -8.5t85.5 -18t90 -30.5q-4 85 -9 170.5t-14 173.5q-37 6 -82.5 9t-83.5 3q-42 0 -84.5 -4t-87.5 -12q-29 -73 -29 -148q0 -15 0.5 -29.5t2.5 -29.5h-398
q23 102 71.5 174t108.5 120t126 75.5t126 41.5t107 17.5t69 3.5q143 0 240 -28t160 -74q77 52 172 77t201 25q119 0 223.5 -32t182 -100t122.5 -174t45 -253v-35zM414 123q108 2 212 9t210 18q0 49 1 98t1 98v60q-124 -4 -235.5 -19.5t-225.5 -40.5q-5 -20 -6.5 -36.5
t-1.5 -33.5q0 -38 10 -74t35 -79zM1212 616h402q0 124 -25 236q-86 18 -180 18q-92 0 -186 -18q-7 -56 -9 -113.5t-2 -122.5z" />
    <glyph glyph-name="guilsinglleft" unicode="&#x2039;" horiz-adv-x="1016" 
d="M823 -59q-177 83 -361.5 158t-383.5 137l-21 311q186 109 354.5 221t327.5 229l144 -145q-165 -77 -314.5 -164t-285.5 -190q159 -79 328 -137t350 -101z" />
    <glyph glyph-name="circumflex" unicode="&#x2c6;" horiz-adv-x="748" 
d="M748 1198l-283 -61l-103 262l-98 -246h-264l231 328l306 26z" />
    <glyph glyph-name="tilde" unicode="&#x2dc;" horiz-adv-x="877" 
d="M870 1511q2 -20 4.5 -38t2.5 -35q0 -51 -12.5 -89t-33 -66.5t-46.5 -47.5t-53 -32q-63 -30 -144 -34q-53 2 -100 18q-40 13 -78 42t-54 82h-98q-6 -19 -8 -37.5t-2 -38.5q0 -17 1.5 -33t6.5 -33l-256 21q0 56 13.5 99t36 74.5t51 53.5t58.5 36q70 33 160 38q1 0 18 -1
t43 -6t55.5 -15.5t55.5 -30.5t43.5 -51t18.5 -76h92q2 14 2 26.5v24.5q0 37 -6.5 74.5t-22.5 74.5h252z" />
    <glyph glyph-name="macron" unicode="&#xaf;" horiz-adv-x="702" 
d="M702 1247h-702v211h702v-211z" />
    <glyph glyph-name="breve" unicode="&#x2d8;" horiz-adv-x="758" 
d="M758 1493q0 -62 -16.5 -108.5t-43 -81t-60.5 -58.5t-70 -39q-84 -36 -189 -41q-106 5 -190 39q-36 15 -70 37.5t-60.5 55.5t-42.5 78t-16 104l246 14q0 -8 -2 -14.5t-2 -14.5q0 -83 43 -159q21 -4 45 -5.5t49 -1.5q23 0 48.5 1.5t51.5 5.5q6 24 9.5 48.5t3.5 47.5
q0 25 -3.5 47.5t-9.5 44.5h279z" />
    <glyph glyph-name="cedilla" unicode="&#xb8;" horiz-adv-x="500" 
d="M500 -287q0 -54 -26.5 -91t-64.5 -60.5t-79.5 -34t-71.5 -10.5q-25 -1 -62 2q-32 2 -80 6t-116 12v119q64 -6 127 -6q31 0 61 1.5t62 4.5q5 15 6.5 31.5t1.5 31.5q0 16 -1.5 31t-6.5 31q-23 3 -47.5 5.5t-48.5 2.5q-23 0 -49 -2.5t-52 -5.5q6 15 23.5 47t40 70.5t48 79
t48.5 73.5h131l-80 -184q44 -2 77.5 -9.5t58.5 -19t42 -25t28 -27.5q26 -33 30 -73z" />
    <glyph glyph-name="ogonek" unicode="&#x2db;" horiz-adv-x="522" 
d="M522 -412q-54 -28 -113.5 -44.5t-125.5 -16.5q-57 0 -108.5 11t-90 33.5t-61.5 56.5t-23 81q0 45 19.5 90t50 87t68.5 80.5t75 70.5h145q-57 -78 -95 -162t-50 -174q78 5 155 14.5t154 26.5v-154z" />
    <glyph glyph-name="parenright" unicode=")" horiz-adv-x="836" 
d="M369 1688q76 -66 134.5 -146.5t102 -167t73 -175.5t48.5 -171q45 -194 51 -397q-6 -203 -51 -391q-19 -80 -48.5 -165t-73 -166t-102 -154t-134.5 -128l-334 205q85 66 149 135.5t111.5 137.5t80.5 133.5t54 124.5q49 137 57 268q-7 131 -61 275q-23 61 -58 131.5
t-86.5 146t-121 154.5t-160.5 157z" />
    <glyph glyph-name="greater" unicode="&#x3e;" horiz-adv-x="1145" 
d="M80 442q199 72 385.5 153t365.5 177q-331 273 -725 490l142 174q179 -147 377.5 -290.5t431.5 -283.5l26 -323q-227 -104 -442.5 -225.5t-433.5 -256.5z" />
    <glyph glyph-name="bracketright" unicode="]" horiz-adv-x="928" 
d="M43 -2q60 -5 121 -6.5t123 -1.5q59 0 118 1.5t119 6.5q0 334 -8 669.5t-33 671.5q-49 3 -97 5t-99 2q-50 0 -99.5 -2t-99.5 -5l-27 295q93 -6 183.5 -8t183.5 -2q94 0 189.5 2t191.5 8q-8 -260 -12 -516t-4 -514q0 -245 4 -488t12 -489q-90 5 -178.5 8t-177.5 3
q-94 0 -189.5 -3t-191.5 -8z" />
    <glyph glyph-name="braceright" unicode="}" horiz-adv-x="979" 
d="M96 55q48 -14 87 -20t73 -6q44 0 85 12t72.5 35t50.5 56.5t19 76.5q0 42 -14 84.5t-31 81.5t-31 73t-14 60q0 24 20.5 45t51 37.5t66.5 29t67.5 21t52.5 12.5t23 4q-2 0 -23 4t-52.5 12.5t-67.5 21t-66.5 29t-51 37.5t-20.5 46q0 27 14 61t31 73t31 81t14 84
q0 47 -20.5 81t-53 56.5t-73 33.5t-80.5 11q-34 0 -73 -6.5t-87 -21.5l-49 374q48 11 92 16t86 5q62 0 127.5 -13.5t127.5 -39.5t116.5 -63t96 -84t65.5 -103.5t24 -120.5q0 -51 -16.5 -95t-36 -83t-35.5 -73.5t-16 -66.5q0 -48 33 -79.5t79.5 -51t96 -28t82.5 -9.5v-176
q-40 -2 -90.5 -10.5t-95 -28t-75 -50.5t-30.5 -77q0 -33 16 -67.5t35.5 -73t36 -82t16.5 -94.5q0 -68 -25.5 -125.5t-69 -104.5t-100 -83t-118.5 -61t-125 -37.5t-119 -12.5q-42 0 -86 5t-92 16z" />
    <glyph glyph-name="backslash" unicode="\" horiz-adv-x="1247" 
d="M434 1450q158 -361 350.5 -718t415.5 -716l-379 -51q-163 376 -356 743.5t-420 723.5z" />
    <glyph glyph-name="guilsinglright" unicode="&#x203a;" horiz-adv-x="1016" 
d="M55 260q181 43 350 101t328 137q-136 103 -285.5 190t-314.5 164l143 145q159 -117 328 -229t354 -221l-20 -311q-199 -62 -383.5 -137t-361.5 -158z" />
    <glyph glyph-name="hyphen" unicode="-" horiz-adv-x="1167" 
d="M1057 643q-237 0 -471.5 -10.5t-472.5 -32.5v291q236 5 471.5 12.5t472.5 30.5v-291z" />
    <glyph glyph-name="semicolon" unicode=";" horiz-adv-x="651" 
d="M541 61q-2 -68 -20.5 -131.5t-40.5 -113.5q-26 -58 -58 -109l-215 33q32 43 51.5 86t30.5 78q-37 5 -68.5 19t-54.5 35t-36 47t-13 56q0 34 17 64t46 52t67.5 35t82.5 13q43 0 81.5 -13t67.5 -35t45.5 -52t16.5 -64zM508 758q0 -29 -14.5 -55t-40 -45.5t-59 -30.5
t-70.5 -11q-39 0 -73.5 11t-59.5 30.5t-39.5 45.5t-14.5 55q0 30 14.5 56t39.5 45.5t59.5 30.5t73.5 11q37 0 70.5 -11t59 -30.5t40 -45.5t14.5 -56z" />
    <glyph glyph-name="colon" unicode=":" horiz-adv-x="592" 
d="M481 61q0 -29 -14.5 -54.5t-40 -45t-59 -30.5t-70.5 -11q-39 0 -73 11t-59 30.5t-39.5 45t-14.5 54.5q0 30 14.5 56t39.5 45.5t59 31t73 11.5q37 0 70.5 -11.5t59 -31t40 -45.5t14.5 -56zM481 758q0 -29 -14.5 -55t-40 -45.5t-59 -30.5t-70.5 -11q-39 0 -73 11t-59 30.5
t-39.5 45.5t-14.5 55q0 30 14.5 56t39.5 45.5t59 30.5t73 11q37 0 70.5 -11t59 -30.5t40 -45.5t14.5 -56z" />
    <glyph glyph-name="equal" unicode="=" horiz-adv-x="1174" 
d="M1059 791q-237 9 -471.5 7.5t-472.5 -14.5v291q236 -5 471.5 -6.5t472.5 12.5v-290zM1059 389q-471 18 -944 -6v291q236 -5 471.5 -6.5t472.5 12.5v-291z" />
    <glyph glyph-name="minus" unicode="&#x2212;" horiz-adv-x="1176" 
d="M1061 643q-236 0 -471 -10.5t-473 -32.5v291q236 5 472 12.5t472 30.5v-291z" />
    <glyph glyph-name="underscore" unicode="_" horiz-adv-x="1167" 
d="M1055 -358q-237 9 -471.5 7.5t-472.5 -14.5v291q236 -5 471.5 -6.5t472.5 12.5v-290z" />
    <glyph glyph-name="notequal" unicode="&#x2260;" horiz-adv-x="1141" 
d="M932 1335q-34 -66 -65 -132l-62 -132q60 2 118.5 3.5t118.5 6.5v-290q-89 3 -177.5 4.5t-178.5 3.5l-53 -131q203 0 409 12v-291q-258 9 -516 6q-23 -65 -45.5 -129t-44.5 -129l-239 41l100 213l-199 -8v291l322 -6l55 129q-96 -2 -189.5 -5t-187.5 -8v291
q121 -3 242.5 -4.5t243.5 -1.5q26 71 50.5 141t49.5 142z" />
    <glyph glyph-name="oslash" unicode="&#xf8;" horiz-adv-x="1243" 
d="M1102 1090l-90 -140q83 -74 132.5 -181t49.5 -247q0 -119 -46.5 -223.5t-126.5 -182.5t-187.5 -123.5t-229.5 -45.5q-49 0 -96 8t-90 22l-33 -53l-213 51l68 107q-45 39 -80 88t-59 105t-37 118.5t-13 128.5q0 147 41 255t114.5 179t175 105.5t222.5 34.5q63 0 122.5 -11
t115.5 -32q8 13 13 22.5t10 17.5q4 8 9 15zM410 616q0 -119 12 -245l301 489h-35q-140 0 -270 -31q-3 -54 -5.5 -107t-2.5 -106zM823 207q6 85 8.5 165t2.5 158q0 32 -0.5 65.5t-2.5 66.5l-288 -480q68 0 138 6t142 19z" />
    <glyph glyph-name="Oslash" unicode="&#xd8;" horiz-adv-x="1589" 
d="M1370 1470q-20 -32 -41 -64.5t-41 -66.5q55 -46 99.5 -106.5t76 -137t49 -169t19.5 -203.5q0 -164 -55 -305t-156 -244.5t-242.5 -163t-314.5 -59.5q-63 0 -130.5 12.5t-135.5 38.5q-11 -19 -20.5 -38.5t-20.5 -39.5l-234 51l88 142q-54 48 -99.5 111t-79 143.5
t-52.5 179.5t-19 219q0 152 35.5 266t93.5 195.5t133.5 134.5t155.5 84t158 43t143 12q85 0 166.5 -13t155.5 -42l20 39zM487 991q0 -134 6.5 -273t18.5 -276q130 209 255.5 419.5t240.5 414.5q-32 2 -67 2h-56q-45 0 -95.5 -2t-102.5 -6.5t-102.5 -11t-95.5 -15.5
q0 -22 -0.5 -56.5t-0.5 -71t-0.5 -70t-0.5 -54.5zM1044 236q6 60 11 132t8 147t4.5 147.5t1.5 132.5q0 45 -1 90.5t-3 93.5q-113 -184 -225.5 -374t-218.5 -380q42 -3 84.5 -3.5t74.5 -0.5q28 0 62 1t69 2.5t69.5 4.5t63.5 7z" />
    <glyph glyph-name="AE" unicode="&#xc6;" horiz-adv-x="2181" 
d="M2134 244q-1 -14 -2 -31q-1 -14 -1.5 -34t-0.5 -44q0 -31 1.5 -67t4.5 -74q-38 2 -78.5 2h-79.5q-92 0 -171 -0.5t-154.5 -1t-151.5 -2t-161.5 -4t-185 -5t-222.5 -6.5q26 87 44.5 178t29.5 187q-60 2 -123 3t-125 1q-127 0 -244 -6q5 -90 14 -179.5t23 -178.5
q-71 -5 -127 -9t-99 -7.5t-74 -7t-53 -6.5q-51 -7 -69 -13q-13 65 -21.5 137t-13 143.5t-6.5 139.5t-2 126q0 121 9.5 243t36 235t73.5 210.5t123 170t184 114t256 41.5q78 0 150 -12t137 -37q0 6 -1 11t-1 12q103 0 205.5 -1.5t207.5 -1.5q158 0 317 5t326 22
q-5 -34 -6.5 -65.5t-1.5 -59.5q0 -27 1 -49.5t3 -38.5q2 -18 4 -33q-117 -6 -231 -10q-48 -2 -101 -3.5t-105 -3t-101.5 -2.5t-91.5 -1q-2 -47 -5 -104q-2 -49 -5 -114.5t-5 -140.5q122 4 246.5 10t261.5 17q-3 -38 -5.5 -76.5t-2.5 -79.5q0 -27 1.5 -55t6.5 -57
q-65 5 -130 7.5t-130 2.5q-63 0 -126 -2.5t-128 -7.5v-168q0 -60 1 -115.5t3 -103.5q65 2 139 2h148q75 0 144.5 -0.5t123.5 -0.5q62 -1 117 -1zM688 600q87 0 173.5 3.5t164.5 12.5q2 23 2 46.5v48.5q0 152 -13.5 293t-39.5 262q-23 2 -50.5 3t-58.5 1q-41 0 -84.5 -1.5
t-85 -4t-79.5 -6.5t-66 -9q-22 -159 -32.5 -319.5t-10.5 -325.5q43 -3 88.5 -3.5t91.5 -0.5z" />
    <glyph glyph-name="OE" unicode="&#x152;" horiz-adv-x="2259" 
d="M2212 244q-1 -14 -2 -31q-1 -14 -1.5 -34t-0.5 -44q0 -31 1.5 -67t4.5 -74q-38 2 -79 2h-79q-239 0 -473.5 -7.5t-472.5 -23.5v60q-77 -36 -163 -55t-183 -19q-75 0 -156 17.5t-159 57t-148.5 102.5t-123.5 154t-84.5 212t-31.5 276q0 152 35.5 266t93.5 195.5
t133.5 134.5t155.5 84t158 43t143 12q94 0 183 -16.5t170 -50.5q-2 9 -2.5 18t-0.5 17q104 0 206.5 -1.5t207.5 -1.5q158 0 317 5t326 22q-5 -34 -6.5 -65.5t-1.5 -59.5q0 -27 1 -49.5t3 -38.5q2 -18 4 -33q-117 -6 -231 -10q-49 -2 -101.5 -3.5l-105 -3t-102 -2.5t-91.5 -1
q-2 -48 -5 -104q-2 -48 -4.5 -113t-4.5 -140q122 2 246.5 8t261.5 17q-3 -38 -5.5 -76.5t-2.5 -79.5q0 -27 1.5 -55t6.5 -57q-65 5 -130 7.5t-130 2.5q-63 0 -126 -2.5t-128 -7.5v-168q0 -60 1 -115.5t3 -103.5q65 2 139 2h148q75 0 144.5 -0.5t123.5 -0.5q62 -1 117 -1z
M1044 236q6 60 11 132t8 147t4.5 147.5t1.5 132.5q0 115 -6 239.5t-19 239.5q-15 1 -36 2t-43.5 1.5t-43.5 0.5h-36q-45 0 -95.5 -2t-102.5 -6.5t-102.5 -11t-95.5 -15.5q0 -22 -0.5 -56.5t-0.5 -71t-0.5 -70t-0.5 -54.5q0 -187 12.5 -380t37.5 -375q25 -4 56.5 -7
t64.5 -4.5t65 -2.5t57 -1q28 0 62 1t69 2.5t69.5 4.5t63.5 7z" />
    <glyph glyph-name="oe" unicode="&#x153;" horiz-adv-x="2030" 
d="M1993 469l-783 -63q5 -62 14 -123t23 -123q90 -6 170 -6q45 0 87 1.5t87 4.5q2 20 3 40t1 40q0 18 -0.5 35.5t-3.5 35.5l377 -8q-28 -95 -80.5 -163t-124 -111.5t-159.5 -63.5t-185 -20q-127 0 -234 35.5t-186 113.5q-78 -69 -179 -108t-216 -39q-121 0 -222.5 45.5
t-175 123.5t-114.5 182.5t-41 223.5q0 147 41 255t114.5 179t175 105.5t222.5 34.5q124 0 230.5 -40t187.5 -114q78 62 180.5 91.5t216.5 29.5q119 0 223.5 -32t182.5 -100t123 -174t45 -253v-35zM823 207q6 85 8.5 165t2.5 158q0 81 -2.5 159.5t-8.5 162.5q-34 5 -67.5 6.5
t-67.5 1.5q-140 0 -270 -31q-3 -54 -5.5 -107t-2.5 -106q0 -106 8.5 -211.5t25.5 -220.5q23 -2 46.5 -2h48.5q69 0 140.5 6t143.5 19zM1200 616h402q0 62 -6.5 120.5t-18.5 115.5q-86 18 -180 18q-91 0 -187 -18q-6 -56 -8 -113.5t-2 -122.5z" />
    <glyph glyph-name="ring" unicode="&#x2da;" horiz-adv-x="567" 
d="M379 1233q3 26 4.5 53t1.5 53q0 51 -6 101q-11 0 -19 1t-16 1q-86 0 -168 -17q-5 -23 -6.5 -47t-1.5 -49q0 -23 1.5 -47t6.5 -49q26 -3 51.5 -4.5t48.5 -1.5q50 0 103 6zM567 1323q0 -47 -22 -88t-60 -71.5t-89.5 -48t-110.5 -17.5t-111 17.5t-90.5 48t-61 71.5t-22.5 88
t22.5 88.5t61 72t90.5 48.5t111 18t110.5 -18t89.5 -48.5t60 -72t22 -88.5z" />
    <glyph glyph-name="grave" unicode="`" horiz-adv-x="496" 
d="M238 1559l258 -381l-136 -35l-360 321z" />
    <glyph glyph-name="dagger" unicode="&#x2020;" horiz-adv-x="883" 
d="M823 1063q-59 2 -116.5 3t-116.5 1l-23 -1405h-256l-14 1403l-238 -6v205q59 -2 117.5 -3t118.5 -1l-4 380h309l-6 -380q57 0 114.5 2.5t114.5 5.5v-205z" />
    <glyph glyph-name="daggerdbl" unicode="&#x2021;" horiz-adv-x="909" 
d="M838 45q-63 2 -125.5 3t-124.5 1l-6 -387h-256l-4 385q-63 0 -124.5 -2t-123.5 -4v205q62 -2 123 -3t122 -1l-8 823l-237 -6v205q59 -2 117 -3t118 -1l-4 380h309l-6 -380q57 0 115 2.5t115 5.5v-205q-59 2 -117 3t-117 1l-14 -825q62 0 124 1.5t124 6.5v-205z" />
    <glyph glyph-name="percent" unicode="%" horiz-adv-x="1581" 
d="M553 829q8 63 11 126t3 126t-3 126t-11 128q-34 6 -67.5 9.5t-67.5 3.5t-68.5 -3.5t-68.5 -9.5q-8 -54 -11.5 -108.5t-3.5 -108.5q0 -75 7.5 -149t21.5 -150q49 -6 98 -6q40 0 80 4t80 12zM770 1061q-3 -74 -24 -130t-53.5 -97t-72 -68t-80 -43.5t-78 -23.5t-65.5 -7
q-27 0 -62 6t-72 21.5t-72 42.5t-63 70t-45 103t-17 142q0 78 17 136.5t45.5 100.5t65 70t75 44.5t76.5 23.5t69 8q59 0 122 -20.5t115 -67t85.5 -123t33.5 -188.5zM1300 111q8 63 11.5 125.5t3.5 125.5t-3.5 126t-11.5 128q-65 13 -135 13q-34 0 -68.5 -3t-68.5 -10
q-8 -54 -11 -108.5t-3 -108.5q0 -75 7 -149t21 -150q25 -3 50.5 -4.5t48.5 -1.5q77 0 159 17zM1518 342q-3 -74 -24.5 -130t-53.5 -97t-72 -68t-80.5 -43.5t-78 -23.5t-64.5 -7t-62.5 6t-72 21.5t-72 42.5t-63.5 70t-45 103t-17 142q0 78 17 136.5t45.5 100.5t65 70t75 44.5
t76.5 23.5t69 8q59 0 122.5 -20.5t115.5 -67t85.5 -123t33.5 -188.5zM1296 1432q-224 -358 -433 -723t-408 -744l-172 51q223 359 430 716t397 718z" />
    <glyph glyph-name="onesuperior" unicode="&#xb9;" horiz-adv-x="532" 
d="M184 713q10 103 15.5 206.5t5.5 206.5q0 50 -2 98.5t-4 98.5l-144 4v113q88 0 175.5 5.5t175.5 14.5q-4 -65 -5.5 -128t-1.5 -128q0 -124 6 -245.5t15 -245.5h-236z" />
    <glyph glyph-name="twosuperior" unicode="&#xb2;" horiz-adv-x="823" 
d="M715 709h-596q-2 9 -2 17.5v16.5q0 89 31 151.5t84.5 107.5t124 76.5t149.5 58.5q5 21 6.5 43.5t1.5 44.5q0 29 -3 55.5t-9 54.5q-20 2 -41.5 3t-42.5 1q-59 0 -123 -12q-6 -47 -6 -94q0 -39 6 -76h-199v39q0 50 14 88t37 66.5t52 47.5t60 32q71 29 163 34
q76 0 130.5 -17t90 -46.5t52 -70t16.5 -87.5q0 -51 -20 -91t-52 -71t-72.5 -54.5t-82.5 -41.5t-81.5 -31t-68.5 -24l-6 -72h374z" />
    <glyph glyph-name="threesuperior" unicode="&#xb3;" horiz-adv-x="805" 
d="M717 893q0 -51 -30.5 -89.5t-78.5 -65t-106.5 -41t-114.5 -17.5q-54 0 -108 14.5t-97.5 42t-72 67t-31.5 89.5l188 14q2 -31 9.5 -60.5t21.5 -58.5q45 0 92 2.5t96 8.5q5 21 8 41.5t3 42.5q0 48 -13 96q-38 8 -76.5 11t-78.5 3h-31t-31 -2l2 86q118 6 226 33
q8 25 11 50.5t3 49.5q0 28 -4 54.5t-10 52.5q-20 3 -40 3.5t-40 0.5q-50 0 -99 -6q-5 -22 -6.5 -43.5t-1.5 -42.5q0 -19 1.5 -37t6.5 -37l-211 -8q-2 12 -3 24t-1 23q0 49 13 86t35 64.5t49.5 46.5t56.5 31q68 29 154 34q87 0 146 -22t95 -56.5t52 -77t16 -83.5
q0 -30 -10 -55.5t-27.5 -47.5t-40.5 -39.5t-49 -32.5q46 -20 72 -45.5t38 -48.5q14 -27 17 -55z" />
    <glyph glyph-name="threequarters" unicode="&#xbe;" horiz-adv-x="1571" 
d="M707 893q0 -51 -30.5 -89.5t-78.5 -65t-106.5 -41t-114.5 -17.5q-55 0 -109 14.5t-97.5 42t-71.5 67t-31 89.5l188 14q3 -62 31 -119q45 0 92 2.5t96 8.5q5 21 7.5 41.5t2.5 42.5q0 46 -12 96q-38 8 -76.5 11t-79.5 3h-30.5t-30.5 -2l2 86q119 6 225 33q8 25 11.5 50.5
t3.5 49.5q0 28 -4 54.5t-11 52.5q-20 3 -40 3.5t-40 0.5q-49 0 -98 -6q-5 -22 -6.5 -43.5t-1.5 -42.5q0 -19 1.5 -37t6.5 -37l-211 -8q-2 12 -3 24t-1 23q0 49 13 86t34.5 64.5t49 46.5t56.5 31q68 29 154 34q87 0 146.5 -22t95.5 -56.5t52 -77t16 -83.5q0 -30 -10 -55.5
t-27.5 -47.5t-40.5 -39.5t-49 -32.5q46 -20 71 -45.5t38 -48.5q14 -27 18 -55zM1307 1432q-224 -358 -433.5 -723t-408.5 -744l-172 51q223 359 430 716t397 718zM1489 276h-72v-45q0 -52 1 -105.5t1 -107.5l-219 -10q5 66 9 133t8 135q-91 -2 -181 -4.5t-180 -5.5
q35 121 58.5 240t29.5 237h154q-20 -91 -34.5 -180t-21.5 -180q22 -2 42.5 -2h43.5h93q2 42 3 84.5t1 85.5q0 45 -1 88t-3 88h217q-8 -87 -12.5 -171t-6.5 -169l88 6z" />
    <glyph glyph-name="fraction" unicode="&#x2044;" horiz-adv-x="948" 
d="M983 1432q-224 -358 -433 -723t-409 -744l-172 51q223 359 430.5 716t397.5 718z" />
    <glyph glyph-name="onehalf" unicode="&#xbd;" 
d="M201 713q9 103 14.5 206.5t5.5 206.5q0 50 -2 98.5t-4 98.5l-143 4v113q88 0 175 5.5t175 14.5q-6 -129 -6 -256q0 -124 5.5 -245.5t14.5 -245.5h-235zM1085 1432q-224 -358 -433 -723t-408 -744l-172 51q223 359 430 716t397 718zM1262 -12h-596q-2 9 -2 18v17
q0 89 31 151.5t84.5 107t124 76t149.5 58.5q5 21 6.5 43.5t1.5 44.5q0 56 -12 110q-20 2 -41.5 3t-42.5 1q-59 0 -123 -12q-6 -47 -6 -94q0 -39 6 -76h-199v39q0 50 14 88t37 66.5t52 47.5t60 32q71 29 163 34q76 0 130.5 -17t89.5 -46.5t51.5 -70t16.5 -87.5q0 -51 -20 -91
t-52 -71t-72.5 -54.5t-82.5 -41.5t-81 -31t-68 -24l-7 -72h375z" />
    <glyph glyph-name="onequarter" unicode="&#xbc;" horiz-adv-x="1358" 
d="M1094 1432q-224 -358 -433.5 -723t-408.5 -744l-172 51q223 359 430 716t397 718zM1276 276h-72v-45q0 -52 1 -105.5t1 -107.5l-219 -10q5 66 9 133t8 135q-91 -2 -181 -4.5t-180 -5.5q35 121 58.5 240t29.5 237h154q-20 -91 -34.5 -180t-21.5 -180q22 -2 42.5 -2h43.5
h93q2 42 3 84.5t1 85.5q0 45 -1 88t-3 88h217q-8 -87 -12.5 -171t-6.5 -169l88 6zM209 713q9 103 14.5 206.5t5.5 206.5q0 50 -2 98.5t-4 98.5l-143 4v113q88 0 175 5.5t175 14.5q-6 -129 -6 -256q0 -124 5.5 -245.5t14.5 -245.5h-235z" />
    <glyph glyph-name="perthousand" unicode="&#x2030;" horiz-adv-x="2345" 
d="M555 829q8 63 11 126t3 126t-3 126t-11 128q-34 6 -67.5 9.5t-67.5 3.5t-68.5 -3.5t-68.5 -9.5q-8 -54 -11.5 -108.5t-3.5 -108.5q0 -75 7.5 -149t21.5 -150q25 -3 50 -4.5t48 -1.5q41 0 80.5 4t79.5 12zM772 1061q-3 -74 -24 -130t-53.5 -97t-72 -68t-80 -43.5
t-78 -23.5t-65.5 -7q-27 0 -62 6t-72 21.5t-72 42.5t-63 70t-45 103t-17 142q0 78 17 136.5t45.5 100.5t65 70t75 44.5t76.5 23.5t69 8q59 0 122 -20.5t115 -67t85.5 -123t33.5 -188.5zM1303 111q8 63 11 125.5t3 125.5t-3 126t-11 128q-35 7 -68.5 10t-67.5 3t-68.5 -3
t-68.5 -10q-8 -54 -11 -108.5t-3 -108.5q0 -75 7 -149t21 -150q25 -3 50.5 -4.5t48.5 -1.5q77 0 160 17zM1520 342q-3 -74 -24.5 -130t-53.5 -97t-72 -68t-80.5 -43.5t-78 -23.5t-64.5 -7t-62.5 6t-72 21.5t-72 42.5t-63.5 70t-45 103t-17 142q0 78 17 136.5t45.5 100.5
t65 70t75 44.5t76.5 23.5t69 8q59 0 122.5 -20.5t115.5 -67t85.5 -123t33.5 -188.5zM1298 1432q-224 -358 -433 -723t-408 -744l-172 51q223 359 430 716t397 718zM2066 111q8 63 11.5 125.5t3.5 125.5t-3.5 126t-11.5 128q-65 13 -135 13q-34 0 -68.5 -3t-68.5 -10
q-8 -54 -11 -108.5t-3 -108.5q0 -75 7 -149t21 -150q25 -3 50.5 -4.5t48.5 -1.5q77 0 159 17zM2284 342q-3 -74 -24.5 -130t-53.5 -97t-72 -68t-80.5 -43.5t-78 -23.5t-64.5 -7t-62.5 6t-72 21.5t-72 42.5t-63.5 70t-45 103t-17 142q0 78 17 136.5t45.5 100.5t65 70t75 44.5
t76.5 23.5t69 8q59 0 122.5 -20.5t115.5 -67t85.5 -123t33.5 -188.5z" />
    <glyph glyph-name="dotlessi" unicode="&#x131;" horiz-adv-x="547" 
d="M463 1044q-22 -223 -29.5 -440t-7.5 -434v-76.5t2 -77.5h-309q0 62 1 123t1 121q0 199 -9.5 394t-29.5 390h381z" />
    <glyph glyph-name="endash" unicode="&#x2013;" horiz-adv-x="1059" 
d="M938 602h-147t-133 -0.5t-126.5 -0.5t-127 -0.5t-135 -0.5h-150.5v291q118 0 220.5 0.5t199.5 0.5t194 0.5t205 0.5v-291z" />
    <glyph glyph-name="emdash" unicode="&#x2014;" horiz-adv-x="1468" 
d="M1348 602h-178t-209 -0.5t-225 -0.5t-225.5 -0.5t-211 -0.5h-180.5v291h180.5t214 0.5t230.5 0.5t228 0.5t207 0.5h169v-291z" />
    <glyph glyph-name="guillemotleft" unicode="&#xab;" horiz-adv-x="1851" 
d="M821 -59q-44 21 -100 47.5t-117.5 56t-126 60.5t-124.5 60q-142 69 -292 142l-6 240q186 109 354.5 221t327.5 229l144 -145q-165 -77 -314.5 -164t-285.5 -190q53 -26 121 -54t140 -55.5t142 -52.5t127 -45t96 -34t47 -19zM1659 -59q-44 21 -100.5 47.5t-118.5 56
t-126 60.5t-124 60q-142 69 -291 142l-6 240q186 109 354.5 221t327.5 229l143 -145q-165 -77 -314.5 -164t-285.5 -190q159 -79 328 -137t350 -101z" />
    <glyph glyph-name="guillemotright" unicode="&#xbb;" horiz-adv-x="1851" 
d="M897 238q9 5 47.5 19t96 34t127.5 45t142 52.5t140 55.5t121 54q-136 103 -285.5 190t-314.5 164l143 145q159 -117 327.5 -229t354.5 -221l-6 -240q-151 -73 -292 -142q-60 -29 -124.5 -60t-126 -60.5t-117.5 -56t-100 -47.5zM55 260q181 43 350 101t328 137
q-136 103 -285.5 190t-314.5 164l143 145q159 -117 328 -229t354 -221l-6 -240q-150 -73 -291 -142q-60 -29 -124 -60t-126 -60.5t-118 -56t-100 -47.5z" />
    <glyph glyph-name="section" unicode="&#xa7;" horiz-adv-x="1493" 
d="M1415 602q0 -69 -15.5 -127t-43.5 -106q28 -38 43.5 -81t15.5 -95q0 -130 -51.5 -219.5t-143 -145t-217.5 -80t-274 -24.5q-67 0 -139 12.5t-142 40t-134 69.5t-114.5 101.5t-85 136.5t-44.5 174l436 8q-2 -28 -2 -57v-59q0 -86 6 -179q117 -12 235 -12q116 0 236 12
q5 34 7.5 66.5t2.5 66.5q0 56 -6.5 112t-17.5 112q-70 8 -161 18t-186.5 29t-187 51.5t-163.5 86.5t-116 132t-44 189q0 55 15.5 103.5t43.5 90.5q-28 45 -43.5 97.5t-15.5 117.5q0 77 28.5 140t77 113t113 87t136 61t145.5 36t143 12q101 0 185.5 -21.5t153 -59.5t121 -89
t89 -110t56.5 -123t25 -128l-456 -49q5 38 6.5 76.5t1.5 77.5q0 86 -12 176q-34 5 -68 6.5t-68 1.5q-68 0 -135.5 -8t-136.5 -25q-2 -25 -2 -49v-47q0 -69 5.5 -136.5t21.5 -135.5q83 -11 180 -23.5t194.5 -33t188 -51t160 -76.5t111.5 -110.5t42 -152.5zM967 737
q-45 6 -98.5 11.5t-112.5 13.5t-120.5 19t-121.5 28q3 -43 8.5 -85.5t16.5 -84.5q50 -7 105 -14t113 -16t116.5 -20t115.5 -26q-2 44 -8 87.5t-14 86.5z" />
    <glyph glyph-name="quotedbl" unicode="&#x22;" horiz-adv-x="920" 
d="M418 1548l-60 -614h-204l-82 614h346zM846 1548l-80 -614h-205l-61 614h346z" />
    <glyph glyph-name="thorn" unicode="&#xfe;" horiz-adv-x="1333" 
d="M1278 522q0 -125 -33.5 -224.5t-96.5 -168.5t-154 -106t-206 -37q-66 2 -130 18q-27 7 -56.5 17.5t-59 26t-56.5 36.5t-50 49q3 -171 8 -338.5t13 -322.5l-379 24q6 89 11 204t9 247t7.5 276.5t6 291.5t4 291.5t3 277t2 248.5t0.5 206h336q-3 -44 -6 -113t-5 -153.5
t-3.5 -180t-2.5 -192.5q22 27 49.5 47t56.5 35t59.5 25.5t58.5 17.5q66 16 135 18q55 0 112 -15.5t110.5 -45.5t100 -74t81.5 -102t55 -128.5t20 -154.5zM436 262q74 -18 138 -25.5t135 -7.5q42 0 88 3t100 8q5 45 6.5 89t1.5 89q0 91 -7 179.5t-19 178.5q-96 6 -168 6
q-35 0 -67.5 -1t-65.5 -3.5t-67 -6t-73 -7.5q-1 -68 -1.5 -131.5t-0.5 -120.5v-104.5v-81.5v-64z" />
    <glyph glyph-name="Thorn" unicode="&#xde;" horiz-adv-x="1376" 
d="M1337 793q0 -152 -56 -264t-158.5 -187.5t-246.5 -118t-319 -55.5l21 -180l-474 -33q7 85 12.5 158t10.5 140t8.5 131t6 131.5t4 141t1.5 158.5q0 173 -12.5 342t-23.5 342l409 25l-10 -185q32 2 64.5 3t64.5 1q67 0 145 -7t155.5 -28t149 -58.5t127 -98.5t88.5 -149
t33 -209zM506 1133q0 -111 1 -202t4 -175.5t9 -170.5t15 -186h26q88 0 177 5.5t169 19.5q14 54 20.5 136t6.5 175q0 58 -2.5 117t-8 113t-13.5 100.5t-19 79.5q-14 2 -32.5 3t-41.5 1q-46 0 -99.5 -2.5t-101.5 -5.5z" />
    <glyph glyph-name="Eth" unicode="&#xd0;" horiz-adv-x="1575" 
d="M463 1493q118 0 242.5 -12t242 -43t222.5 -85t183.5 -137t124.5 -199.5t46 -273.5q0 -152 -40 -270t-108.5 -207.5t-160.5 -151.5t-196.5 -101t-216.5 -56.5t-220 -17.5q-105 0 -185 4.5t-136 9.5q-65 6 -114 14q10 164 18 325.5t11 325.5h-213v207h215q-1 84 -3.5 162
t-7 155.5t-9.5 157.5t-11 168q84 16 164 20.5t152 4.5zM782 618h-207q4 -124 8.5 -244t12.5 -214q92 4 175.5 18t147.5 29q75 18 140 39q20 105 29.5 220.5t9.5 235.5q0 127 -10.5 252.5t-28.5 241.5q-55 16 -122 28q-57 11 -133 20t-163 9h-35t-37 -2v-55v-95.5t0.5 -126
t1.5 -147.5h211v-209z" />
    <glyph glyph-name="eth" unicode="&#xf0;" horiz-adv-x="1401" 
d="M1382 1194l-149 -43q45 -102 67.5 -201t32 -178.5t10 -131.5t0.5 -60q-2 -122 -25.5 -217t-63 -168t-90.5 -126t-107.5 -89.5t-115 -59t-113 -35t-101 -16.5t-78.5 -4q-44 0 -106 7.5t-130.5 29t-136.5 60t-122.5 100t-89 149.5t-35.5 209q0 97 24 171.5t66.5 129
t100.5 91.5t127 59.5t146 32t156 9.5q41 -2 86 -11q38 -8 86 -22t97 -38q-11 42 -28.5 93.5t-45.5 108.5l-252 -67l-53 201l186 49q-38 46 -84.5 89t-103.5 81l387 143q62 -43 112 -94t90 -107q48 13 97.5 26.5t103.5 29.5zM856 109q27 52 43.5 118.5t25.5 136t12 136
t3 118.5v13q-93 14 -184.5 21t-184.5 7h-56.5t-57.5 -2q-6 -46 -8.5 -91t-2.5 -93q0 -91 10 -183t27 -188q44 -8 85.5 -12t84.5 -4q51 0 100.5 6t102.5 17z" />
    <glyph glyph-name="Lslash" unicode="&#x141;" horiz-adv-x="1188" 
d="M795 791l-228 -99q-2 -121 -2 -231.5v-198.5l609 17v-314q-138 9 -276.5 14t-279.5 5q-118 0 -237.5 -4t-241.5 -15q6 137 9.5 274.5t5.5 274.5l-179 -78v207l181 78q-2 190 -6.5 379t-10.5 375h443q-2 -80 -4 -172q-2 -79 -3.5 -182.5t-3.5 -217.5l224 96v-208z" />
    <glyph glyph-name="lslash" unicode="&#x142;" horiz-adv-x="838" 
d="M836 791l-277 -119q-5 -165 -5.5 -328.5t-0.5 -327.5h-311q3 131 4.5 260t3.5 261l-234 -101v207q63 26 120.5 51.5t113.5 48.5v2q0 192 -1.5 381t-6.5 381h354q-11 -158 -19.5 -313t-13.5 -311l273 116v-208z" />
    <glyph glyph-name="dollar" unicode="$" horiz-adv-x="1120" 
d="M664 1710l-48 -477q71 -5 146.5 -23t139 -56.5t106 -101.5t47.5 -157l-355 -14v176h-303v-240q59 -12 130.5 -19t145 -17.5t142 -29t122 -53.5t86 -91t32.5 -142q0 -76 -37 -128t-98 -84t-140 -46.5t-162 -16.5l48 -469h-224l45 476q-67 7 -136.5 27.5t-129 59.5
t-102.5 98.5t-56 145.5l365 4l14 -157h281l20 180q-56 13 -128 22t-147.5 22t-148 34t-129.5 57t-92 91t-35 137q0 79 35.5 135.5t94.5 93.5t135.5 57t158.5 27l-47 479h224z" />
    <glyph glyph-name="cent" unicode="&#xa2;" horiz-adv-x="1135" 
d="M659 1710l-49 -500q85 -4 160.5 -27t136 -66.5t103.5 -109.5t63 -155h-358q5 23 6.5 44.5t1.5 43.5t-1.5 41t-6.5 41q-77 12 -160 12q-85 0 -170 -12q-5 -50 -7.5 -96.5t-2.5 -94.5q0 -109 11.5 -216t31.5 -216q40 -5 77.5 -6.5t77.5 -1.5q39 0 76.5 1.5t77.5 6.5
q2 19 3 37t1 35t-1 32.5t-3 31.5l340 -7q-24 -81 -67.5 -140.5t-103 -98.5t-131.5 -59.5t-153 -24.5l50 -484h-224l47 488q-91 11 -169 46t-135 100t-89.5 162.5t-32.5 232.5q0 108 33.5 189t91.5 137t135.5 88t165.5 42l-49 504h223z" />
    <glyph glyph-name="registered" unicode="&#xae;" horiz-adv-x="856" 
d="M782 1083q-3 -67 -24 -117.5t-53.5 -87.5t-72 -62t-80 -39.5t-78 -20.5t-64.5 -6t-62.5 5t-72 19t-72 38.5t-63.5 63t-45 93.5t-17 129q0 70 17 123t45.5 91.5t65 63.5t75 40.5t76.5 22t69 7.5q59 0 122 -18.5t115 -61t85.5 -112t33.5 -171.5zM616 874q8 56 11.5 113.5
t3.5 114.5t-3.5 114.5t-11.5 114.5q-17 3 -42 5t-51 3.5t-51 2.5t-42 1t-44 -1t-55.5 -2.5t-55.5 -3.5t-44 -5q-8 -48 -11 -97t-3 -97q0 -70 7.5 -137.5t21.5 -135.5q12 -2 34.5 -3t46.5 -1.5t45.5 -1t33.5 -0.5q20 0 48 1t57 3t57 5t48 7zM580 1176q0 -41 -24.5 -68.5
t-66.5 -44.5l111 -137l-115 -13l-73 127q-8 -2 -16 -3t-17 -1q3 -26 5 -54t7 -60l-119 -9q5 65 8 129t3 127q0 34 -0.5 57.5t-3.5 57.5q30 9 61 14t66 5q25 0 55.5 -5.5t56.5 -20t44 -39t18 -62.5zM373 1249v-79.5t2 -77.5h12q45 0 86 6q3 14 4.5 31.5t1.5 35.5
q0 25 -2.5 48t-7.5 40h-18q-12 0 -25.5 -0.5t-25.5 -1.5q-14 -1 -27 -2z" />
    <glyph glyph-name="copyright" unicode="&#xa9;" horiz-adv-x="852" 
d="M618 748q-32 0 -59.5 -2t-62.5 -5q3 13 3.5 27.5t0.5 30.5v18t-2 19q-17 5 -40 7.5t-46 2.5q-16 0 -31.5 -1t-28.5 -3q-5 -31 -7.5 -63t-2.5 -64q0 -35 2.5 -70t7.5 -70q19 -6 45.5 -9t51.5 -3h16.5t15.5 2q3 14 4.5 32.5t1.5 37.5v29q20 -2 38 -3.5t36 -1.5
q13 0 26.5 0.5t28.5 2.5q-10 -55 -37 -86t-58 -46t-60 -18.5t-43 -3.5q-60 0 -97 17t-57.5 44t-27.5 60t-7 65q0 92 48 147.5t155 61.5q34 0 65.5 -10t56.5 -30t42 -49t22 -66zM614 485q61 231 0 457q-17 3 -42 5t-51 3.5t-51 2.5t-42 1t-42 -1t-52 -2.5t-52 -3.5t-42 -5
q-44 -119 -43 -232.5t57 -234.5q12 -2 33 -3t43 -1.5t42 -1t31 -0.5q20 0 48 1t57.5 3t57.5 5t48 7zM780 694q-3 -67 -24 -118t-53.5 -88t-72 -61.5t-80 -39.5t-78 -21t-64.5 -6t-62.5 5t-72 19.5t-72 39t-63.5 63t-45 93.5t-17 129q0 70 17 123t45.5 91.5t65 63.5t75 40.5
t76.5 22t69 7.5q59 0 122 -18.5t115 -61t85.5 -112t33.5 -171.5z" />
    <glyph glyph-name="trademark" unicode="&#x2122;" horiz-adv-x="1450" 
d="M1182 811q-2 9 -4.5 33.5t-6 58.5t-7.5 73.5t-8 79.5q-9 93 -19 206l-88 -439l-170 -12q-22 88 -41 172q-8 36 -17 73.5t-17.5 73.5t-15.5 68.5t-12 58.5q-2 -21 -4.5 -52t-5.5 -66t-6.5 -73.5t-6.5 -74.5q-8 -85 -16 -180h-143q25 149 42.5 296.5t25.5 299.5l233 12
l94 -434q18 82 33 161q6 34 12.5 70t12.5 72t10.5 69.5t7.5 61.5h221q8 -146 23.5 -293t38.5 -299zM602 1313q-31 0 -61 1t-62 1h-35q0 -124 2 -248t9 -248h-183q5 90 9 179q1 38 3 79t3.5 82t2.5 80t1 72l-180 -6v120q63 -3 125.5 -3.5t125.5 -0.5q60 0 120 0.5t120 3.5
v-112z" />
    <glyph glyph-name="ordfeminine" unicode="&#xaa;" horiz-adv-x="762" 
d="M666 1233q0 -82 -11 -165t-22 -173h-156v29q-38 -23 -85.5 -32t-92.5 -9q-39 0 -77 6.5t-68.5 23t-49 46t-18.5 75.5q0 35 14.5 65.5t44.5 53t75 35t106 12.5q24 0 66 -5t87 -24q-2 42 -4.5 84.5t-5.5 87.5q-19 4 -41.5 5.5t-42.5 1.5t-41.5 -2.5t-44.5 -6.5
q-8 -18 -11 -36.5t-3 -36.5v-15.5t2 -15.5h-199q12 51 36 87t54 60t63 38t63 21t53 9t34 2q87 0 141 -20t83.5 -52t40 -71.5t10.5 -77.5zM268 983q54 0 106.5 4t104.5 10q2 25 2 49.5v49.5v30q-62 -2 -118 -10t-113 -20q-2 -11 -3 -19t-1 -16q0 -20 5 -38t17 -40z" />
    <glyph glyph-name="ordmasculine" unicode="&#xba;" horiz-adv-x="719" 
d="M463 1010q3 42 3.5 81.5t0.5 79.5q0 41 -0.5 79.5t-3.5 80.5q-17 3 -34 3.5t-34 0.5q-35 0 -69 -3t-66 -11q-2 -28 -3 -54.5t-1 -52.5q0 -54 4 -107t12 -110h47q73 0 144 13zM647 1167q0 -60 -23 -112.5t-63 -91.5t-94 -61.5t-115 -22.5t-111.5 22.5t-87 61.5t-57 91.5
t-20.5 112.5q0 73 20.5 127t57 89.5t87 53t111.5 17.5t115 -19.5t94 -56.5t63 -90.5t23 -120.5z" />
    <glyph glyph-name="Euro" unicode="&#x20ac;" horiz-adv-x="1634" 
d="M809 492q-34 0 -67.5 1t-67.5 1q9 -106 24 -203q30 -11 67.5 -19.5t78 -14t83 -8.5t81.5 -3q53 0 100 6q11 48 18 106.5t7 118.5q0 23 -2 46t-5 46q65 -6 123.5 -9t118.5 -3q38 0 81 1t91 3q-20 -116 -66.5 -197t-107 -135.5t-128.5 -85.5t-131.5 -47t-116 -20t-81.5 -4
q-151 0 -256.5 35.5t-174.5 94t-107 134.5t-54 158l-262 -7l66 175l180 -5q0 32 1 58t3 51q-37 0 -72.5 -1t-72.5 -3l65 174q28 -2 56.5 -2h56.5q28 90 79.5 161.5t127 123t177 81.5t230.5 37q111 0 211 -33t179.5 -96.5t133 -156.5t70.5 -213q-51 0 -97.5 -1.5t-93 -4
t-95 -7t-103.5 -10.5q6 42 10 89.5t4 96.5q0 64 -6 117q-57 17 -130.5 25t-147.5 8q-51 0 -99.5 -4t-89.5 -10q-9 -51 -15 -102t-11 -103q154 0 307 6l-66 -172q-62 2 -123.5 3t-123.5 1v-39v-74q105 3 208 9z" />
    <glyph glyph-name="divide" unicode="&#xf7;" horiz-adv-x="1090" 
d="M1016 643q-237 0 -471.5 -10.5t-472.5 -32.5v291q236 5 471.5 12.5t472.5 30.5v-291zM727 406q0 -29 -14.5 -55t-40 -45.5t-59 -30.5t-70.5 -11q-39 0 -73.5 11t-59.5 30.5t-39.5 45.5t-14.5 55q0 30 14.5 56t39.5 45.5t59.5 30.5t73.5 11q37 0 70.5 -11t59 -30.5
t40 -45.5t14.5 -56zM727 1102q0 -29 -14.5 -55t-40 -45t-59 -30t-70.5 -11q-39 0 -73.5 11t-59.5 30t-39.5 45t-14.5 55q0 30 14.5 56t39.5 45.5t59.5 30.5t73.5 11q37 0 70.5 -11t59 -30.5t40 -45.5t14.5 -56z" />
    <glyph glyph-name="quotesinglbase" unicode="&#x201a;" horiz-adv-x="596" 
d="M510 61q-2 -68 -20.5 -131.5t-40.5 -113.5q-26 -58 -58 -109l-215 33q32 43 51.5 86t30.5 78q-37 5 -68.5 19t-54.5 35t-36 47t-13 56q0 34 17 64t46 52t67.5 35t82.5 13t82.5 -13t67 -35t45 -52t16.5 -64z" />
    <glyph glyph-name="quotedblbase" unicode="&#x201e;" horiz-adv-x="1079" 
d="M510 61q-2 -68 -20.5 -131.5t-40.5 -113.5q-26 -58 -58 -109l-215 33q32 43 51.5 86t30.5 78q-37 5 -68.5 19t-54.5 35t-36 47t-13 56q0 34 17 64t46 52t67.5 35t82.5 13t82.5 -13t67 -35t45 -52t16.5 -64zM993 61q-2 -68 -20.5 -131.5t-40.5 -113.5q-26 -58 -58 -109
l-215 33q32 43 51.5 86t30.5 78q-37 5 -68.5 19t-54.5 35t-36 47t-13 56q0 34 17 64t46 52t67.5 35t82.5 13t82.5 -13t67 -35t45 -52t16.5 -64z" />
    <glyph glyph-name="periodcentered" unicode="&#xb7;" horiz-adv-x="563" 
d="M467 758q0 -29 -14.5 -55t-40 -45.5t-59 -30.5t-70.5 -11q-39 0 -73.5 11t-59.5 30.5t-39.5 45.5t-14.5 55q0 30 14.5 56t39.5 45.5t59.5 30.5t73.5 11q37 0 70.5 -11t59 -30.5t40 -45.5t14.5 -56z" />
    <glyph glyph-name="exclamdown" unicode="&#xa1;" horiz-adv-x="633" 
d="M143 1133q0 30 14.5 55.5t39 44.5t58 30t71.5 11q39 0 72.5 -11t58.5 -30t39 -44.5t14 -55.5q0 -29 -14 -55t-39 -45.5t-58.5 -30.5t-72.5 -11q-38 0 -71.5 11t-58 30.5t-39 45.5t-14.5 55zM68 -281q57 284 85.5 565.5t34.5 565.5h279q2 -286 22.5 -567t65.5 -564h-487z
" />
    <glyph glyph-name="questiondown" unicode="&#xbf;" horiz-adv-x="1290" 
d="M520 1184q0 33 16 62t43.5 50.5t65 34t80.5 12.5t80.5 -12.5t65 -34t43.5 -50.5t16 -62q0 -32 -16 -61t-43.5 -50.5t-65 -34t-80.5 -12.5t-80.5 12.5t-65 34t-43.5 50.5t-16 61zM59 205q7 95 58 185q22 38 55 79t81.5 80.5t114 75.5t152.5 65l27 211h319
q-3 -15 -3.5 -30.5t-0.5 -30.5q0 -125 31 -246q-109 -12 -216 -32.5t-210 -51.5q-6 -60 -10 -120t-4 -120q0 -153 24 -307q64 -6 129 -6t130.5 6.5t131.5 20.5q2 20 2 38.5v38.5q0 70 -11.5 138.5t-31.5 136.5l324 31q24 -25 38.5 -57.5t22.5 -66.5t10.5 -66.5t2.5 -57.5
q0 -26 -4.5 -67t-21 -87.5t-50.5 -93.5t-92.5 -84.5t-146 -61.5t-212.5 -24q-175 0 -297 36.5t-198 102.5t-110 159t-34 206z" />
    <glyph glyph-name="hungarumlaut" unicode="&#x2dd;" horiz-adv-x="827" 
d="M496 1464l-361 -321l-135 35l258 381zM827 1464l-360 -321l-135 35l258 381z" />
    <glyph glyph-name="caron" unicode="&#x2c7;" horiz-adv-x="748" 
d="M0 1446l283 61l102 -262l98 246h265l-232 -328l-305 -26z" />
    <glyph glyph-name="dotaccent" unicode="&#x2d9;" horiz-adv-x="285" 
d="M285 1343q0 -22 -11.5 -41.5t-31 -34.5t-45.5 -23.5t-56 -8.5q-29 0 -55 8.5t-45 23.5t-30 34.5t-11 41.5q0 23 11 43.5t30 35.5t45 23.5t55 8.5q30 0 56 -8.5t45.5 -23.5t31 -35.5t11.5 -43.5z" />
    <glyph glyph-name="quoteright" unicode="&#x2019;" horiz-adv-x="565" 
d="M489 1296q-2 -69 -20.5 -132t-40.5 -113q-26 -58 -57 -109l-215 33q32 42 51.5 84.5t30.5 77.5q-37 5 -68.5 19.5t-54.5 35.5t-36 47.5t-13 56.5q0 34 17 63.5t46 52t67.5 35.5t82.5 13q43 0 81.5 -13t67 -35.5t45 -52t16.5 -63.5z" />
    <glyph glyph-name="quoteleft" unicode="&#x2018;" horiz-adv-x="569" 
d="M78 1106q0 66 18 129t41 114q26 58 60 111l215 -33q-34 -43 -53.5 -85.5t-28.5 -77.5q36 -6 67.5 -20t54.5 -34.5t36.5 -47t13.5 -56.5q0 -34 -17 -63.5t-46 -52t-67.5 -35.5t-82.5 -13t-82.5 13t-67 35.5t-45 52t-16.5 63.5z" />
    <glyph glyph-name="quotedblright" unicode="&#x201d;" horiz-adv-x="1053" 
d="M492 1298q-2 -69 -20.5 -132t-40.5 -113q-26 -58 -58 -109l-215 33q32 42 51.5 84.5t30.5 77.5q-37 5 -68.5 19.5t-54.5 35.5t-36 47.5t-13 56.5q0 34 17 64t46 52t67.5 35t82.5 13q43 0 81.5 -13t67.5 -35t45.5 -52t16.5 -64zM975 1298q-2 -69 -20.5 -132t-40.5 -113
q-26 -58 -58 -109l-215 33q32 42 51.5 84.5t30.5 77.5q-37 5 -68.5 19.5t-54.5 35.5t-36 47.5t-13 56.5q0 34 17 64t46 52t67.5 35t82.5 13t82.5 -13t67 -35t45 -52t16.5 -64z" />
    <glyph glyph-name="quotedblleft" unicode="&#x201c;" horiz-adv-x="1055" 
d="M563 1108q1 68 19 131t41 113q26 58 59 110l215 -32q-34 -44 -53.5 -86.5t-28.5 -77.5q36 -6 67.5 -20t54.5 -34.5t36.5 -47t13.5 -56.5q0 -34 -17 -63.5t-46 -52t-67.5 -35.5t-82.5 -13t-82.5 13t-67 35.5t-45 52t-16.5 63.5zM80 1108q0 66 18 129t41 114q26 58 60 111
l215 -32q-34 -44 -53.5 -86.5t-28.5 -77.5q36 -6 67.5 -20t54.5 -34.5t36.5 -47t13.5 -56.5q0 -34 -17 -63.5t-46 -52t-67.5 -35.5t-82.5 -13t-82.5 13t-67 35.5t-45 52t-16.5 63.5z" />
    <glyph glyph-name="approxequal" unicode="&#x2248;" horiz-adv-x="1710" 
d="M1591 1309q19 -85 19 -158q0 -92 -34 -172.5t-94 -140t-142 -93.5t-177 -34q-30 0 -77 3.5t-101 16t-108 37t-98 66t-71.5 103t-27.5 148.5l-197 -18q-8 -35 -12 -71t-4 -70q0 -47 6.5 -92.5t20.5 -90.5h-369q-12 51 -18.5 96.5t-6.5 86.5q0 79 18.5 140t49 106t69.5 76
t80 52q96 48 218 56q3 0 25.5 -0.5t58 -4.5t79.5 -12t89.5 -24t89.5 -40t78 -59t54.5 -83t20.5 -111q0 -14 -0.5 -29t-5.5 -30q26 -4 50.5 -6.5t47.5 -2.5q28 0 57 3t58 10q8 42 13 84t5 84t-5 81.5t-13 81.5zM1591 653q10 -43 14.5 -82.5t4.5 -74.5q0 -92 -34 -172.5
t-94 -140t-142 -94t-177 -34.5q-30 0 -77 3.5t-101 16.5t-108 37t-98 66t-71.5 103.5t-27.5 148.5l-197 -18q-8 -35 -12 -71.5t-4 -70.5q0 -46 6.5 -91.5t20.5 -90.5h-369q-12 51 -18.5 96.5t-6.5 85.5q0 79 18.5 140t49 106t69.5 76t80 52q96 48 218 56q3 0 25.5 -0.5
t58 -4.5t79.5 -12t89.5 -23.5t89.5 -39.5t78 -59.5t54.5 -83t20.5 -110.5q0 -14 -0.5 -29t-5.5 -31q26 -3 50.5 -5.5t47.5 -2.5q56 0 115 12q8 42 13 84t5 84t-5 82t-13 82z" />
    <glyph glyph-name="mu" unicode="&#xb5;" horiz-adv-x="1245" 
d="M1184 635q0 -86 -8.5 -168.5t-30 -157t-59 -139t-94.5 -113.5t-137 -80.5t-187 -39.5q-62 0 -116.5 7t-102.5 21q-2 -109 -0.5 -218t6.5 -218h-310q0 117 -4.5 234t-9.5 236t-9.5 240.5t-4.5 247.5v37.5t1 76t2.5 102t5.5 115.5t9.5 116t14.5 104h350q-19 -99 -28 -209
t-9 -225q0 -106 8.5 -210.5t28.5 -198.5q37 -5 72.5 -8t70.5 -3q34 0 70 3t71 8q11 94 17 197.5t6 209.5q0 116 -6 226.5t-17 209.5h363q22 -117 29.5 -221t7.5 -182z" />
    <glyph glyph-name="germandbls" unicode="&#xdf;" horiz-adv-x="1765" 
d="M1151 1161q0 -68 -16 -116.5t-40 -85t-51.5 -64t-51.5 -53.5t-40 -53.5t-16 -63.5q0 -46 20 -67t68 -33q65 -14 145 -21.5t161 -19.5t157.5 -33t136 -60t95.5 -101t36 -157q0 -88 -45 -146.5t-118 -94t-166 -50t-189 -14.5q-53 0 -113.5 6.5t-121.5 23t-118.5 44
t-104.5 69.5t-80.5 99t-45.5 133l406 4l16 -174h311l23 201q-62 14 -142 24t-164 24.5t-165 37.5t-144 63t-102 101t-39 151q0 56 16.5 94.5t41.5 69.5t54 59.5t54 64.5t41.5 86t16.5 124q-48 8 -95.5 11t-97.5 3q-37 0 -76 -2t-78 -8q-2 -51 -2 -101.5v-101.5
q0 -258 20 -510.5t60 -507.5l-372 -36q-11 120 -18 233t-11.5 215t-7.5 190.5t-4 159.5l-162 -6v250q40 -3 79.5 -5.5t80.5 -4.5q0 7 2 32t9 62t22 82t41 91t64.5 89.5t93.5 77t128.5 54t169.5 20.5q75 0 151 -21t137.5 -65.5t100.5 -112t39 -160.5z" />
    <glyph glyph-name="yen" unicode="&#xa5;" horiz-adv-x="1446" 
d="M1169 248l-229 4q3 -45 6 -81t8 -54l-446 -8q3 15 8 54t10 87l-227 -6v180q54 -2 115.5 -3t126.5 -1q3 25 3.5 44.5t2.5 27.5l-25 38l-223 -6v181q28 -2 57 -2.5t60 -0.5q-45 73 -92 152t-93 159t-89.5 159.5t-80.5 154.5l453 -20q17 -54 43.5 -125t60 -150.5t73.5 -163
t83 -163.5q57 105 111 213q22 46 46 97.5t46.5 104.5t42.5 105.5t35 101.5h327q-48 -112 -94 -206t-88 -171.5t-79 -139t-68 -108.5q31 0 60 1.5t56 3.5v-179l-233 4q-2 -15 -2 -34.5v-42.5v-35q128 0 235 6v-178z" />
    <glyph glyph-name="logicalnot" unicode="&#xac;" horiz-adv-x="1442" 
d="M1319 225h-377l23 377l-875 -2v291h181t214.5 0.5t230 0.5t227.5 0.5t207 0.5h169v-668z" />
    <glyph glyph-name="Scaron" unicode="&#x160;" horiz-adv-x="1430" 
d="M1384 418q0 -130 -51.5 -219.5t-143 -145t-217.5 -80t-274 -24.5q-67 0 -139 12.5t-142 40t-134 69.5t-114.5 101.5t-85 136.5t-44.5 174l436 9q-2 -28 -2 -57v-60q0 -87 6 -178q59 -7 118 -10t118 -3t117 3t118 10q5 34 8 66.5t3 66.5q0 55 -7 111t-18 112
q-70 8 -161 18t-186.5 29.5t-187 52t-163.5 86t-116 131.5t-44 189q0 77 28.5 140t77 112.5t113 86.5t136 61t145.5 36t143 12q151 0 266 -47t193.5 -122.5t121.5 -170.5t50 -190l-457 -49q5 38 6.5 76.5t1.5 76.5q0 87 -12 176q-34 5 -67.5 7t-67.5 2q-135 0 -273 -33
q-2 -25 -2 -49v-47q0 -70 5.5 -137.5t21.5 -135.5q83 -11 180 -23.5t194.5 -33t188 -51t160 -76t111.5 -110t42 -152.5zM358 1878l283 61l102 -262l98 246h265l-232 -328l-305 -26z" />
    <glyph glyph-name="scaron" unicode="&#x161;" horiz-adv-x="1206" 
d="M1153 233q0 -88 -45 -146.5t-118 -94t-166 -50t-189 -14.5q-53 0 -113.5 6.5t-121.5 23t-118.5 44t-104.5 69.5t-80.5 99t-45.5 133l406 4l16 -174h311l23 201q-62 14 -142 24t-164 24.5t-165 37.5t-144 63t-102 101t-39 151q0 97 47 163.5t123.5 107t173.5 59.5t197 22
q53 0 114.5 -6t122.5 -21.5t117.5 -42.5t101 -68.5t73 -100t32.5 -137.5l-393 -17v197h-338v-266q65 -14 145 -21.5t161 -19.5t157.5 -33t136 -60t95.5 -101t36 -157zM248 1446l283 61l102 -262l98 246h265l-232 -328l-305 -26z" />
    <glyph glyph-name="Yacute" unicode="&#xdd;" horiz-adv-x="1645" 
d="M1634 1479q-114 -261 -215 -446t-177 -303q-89 -138 -165 -228q-2 -22 -3 -50.5t-1 -62.5q0 -55 2 -118t5.5 -122t8 -107.5t9.5 -74.5l-557 -10q4 17 9.5 55.5t11 87t10 102.5t8.5 101.5t6.5 83.5t3.5 49q-43 67 -92 146.5t-102 167t-108 180t-108 186t-103.5 185.5
t-94.5 178l567 -25q21 -68 54 -156t75 -187.5t92 -204.5t104 -206q72 132 138 268q28 58 58 122t58 130.5t53 132t44 126.5h409zM1293 1747l-361 -321l-135 35l258 381z" />
    <glyph glyph-name="yacute" unicode="&#xfd;" horiz-adv-x="1290" 
d="M1200 1036q-5 -262 -13 -452t-16 -317q-9 -148 -18 -249q-6 -121 -44.5 -221t-108.5 -172t-170 -111.5t-230 -39.5q-87 0 -152 10.5t-113.5 31t-83 50.5t-60.5 69.5t-45.5 88.5t-37.5 106l367 8q0 -14 -1 -26.5t-1 -24.5q0 -75 12 -145q39 -5 68 -8t57 -3q38 0 78 5
t96 14q10 105 17 208.5t12 207.5q-42 -18 -80.5 -27.5t-67.5 -14.5q-34 -5 -65 -6q-145 0 -239 36.5t-151.5 103t-84 160t-36.5 206.5t-10 242.5t-3 269.5l409 -28q-8 -94 -13 -187t-5 -186q0 -96 5 -190.5t13 -188.5q37 -3 69 -3.5t64 -0.5q53 0 102.5 1.5t98.5 6.5
q2 32 2 65.5v65.5q0 167 -8.5 332t-28.5 330zM1065 1464l-361 -321l-135 35l258 381z" />
    <glyph glyph-name="Zcaron" unicode="&#x17d;" horiz-adv-x="1354" 
d="M1348 1479q-73 -161 -152 -312t-166 -299t-184 -296t-205 -304q159 0 317 6.5t328 20.5l-8 -315q-201 -13 -401.5 -17t-405.5 -4q-121 0 -241 1t-242 3q69 108 146 223.5t154.5 231.5t151.5 229t138.5 216.5t115.5 195t82 164.5q-46 3 -96 3.5t-102 0.5
q-63 0 -128.5 -1.5t-130.5 -3.5t-128.5 -5.5t-122.5 -6.5v269q161 -7 321.5 -11t325.5 -4q156 0 312 4t321 11zM313 1829l283 61l102 -262l98 246h265l-232 -328l-305 -26z" />
    <glyph glyph-name="zcaron" unicode="&#x17e;" horiz-adv-x="1065" 
d="M537 242q51 0 108 1t116.5 3.5t120.5 5.5t119 8l-6 -225q-244 -14 -488.5 -20.5t-496.5 -6.5q40 55 86 121t95 136t97.5 141t93.5 137q105 154 212 313q-96 -2 -190 -5q-40 -1 -83.5 -2.5l-87 -3t-84.5 -3.5t-77 -4v233q124 -5 248 -6.5t249 -1.5q121 0 240 1.5t240 6.5z
M176 1446l283 61l102 -262l98 246h265l-232 -328l-305 -26z" />
    <glyph glyph-name="Adieresis" unicode="&#xc4;" horiz-adv-x="1542" 
d="M1360 -61l-129.5 17.5t-104 12t-94.5 6.5t-100 2q26 87 44.5 178t29.5 187q-60 2 -123 3t-125 1q-127 0 -244 -6q5 -90 14 -179.5t23 -178.5q-71 -5 -127 -9t-99 -7.5t-74 -7t-53 -6.5q-51 -7 -69 -13q-13 65 -21.5 137t-13 143.5t-6.5 139.5t-2 126q0 121 9.5 243
t36 235t73.5 210.5t123 170t184 114t256 41.5q152 0 279 -46.5t218.5 -143.5t142 -246.5t50.5 -355.5q0 -53 -2.5 -132t-12.5 -178t-29.5 -215.5t-53.5 -242.5zM688 600q87 0 173.5 3.5t164.5 12.5q2 23 2 46.5v48.5q0 152 -13.5 293t-39.5 262q-23 2 -50.5 3t-58.5 1
q-41 0 -84.5 -1.5t-85 -4t-79.5 -6.5t-66 -9q-22 -159 -32.5 -319.5t-10.5 -325.5q43 -3 88.5 -3.5t91.5 -0.5zM705 1638q0 -22 -11.5 -41.5t-31 -34.5t-45.5 -23.5t-56 -8.5q-29 0 -55 8.5t-45 23.5t-30 34.5t-11 41.5q0 23 11 43.5t30 35.5t45 23.5t55 8.5q30 0 56 -8.5
t45.5 -23.5t31 -35.5t11.5 -43.5zM1125 1638q0 -22 -11.5 -41.5t-31 -34.5t-45.5 -23.5t-56 -8.5q-29 0 -54.5 8.5t-44.5 23.5t-30.5 34.5t-11.5 41.5q0 23 11.5 43.5t30.5 35.5t44.5 23.5t54.5 8.5q30 0 56 -8.5t45.5 -23.5t31 -35.5t11.5 -43.5z" />
    <glyph glyph-name="Aring" unicode="&#xc5;" horiz-adv-x="1542" 
d="M1055 1610q0 -41 -16.5 -77t-45.5 -65q105 -29 191 -89.5t147 -155t94 -223t33 -293.5q0 -53 -2.5 -132t-12.5 -178t-29.5 -215.5t-53.5 -242.5l-129.5 17.5t-104 12t-94.5 6.5t-100 2q26 87 44.5 178t29.5 187q-60 2 -123 3t-125 1q-127 0 -244 -6q5 -90 14 -179.5
t23 -178.5q-71 -5 -127 -9t-99 -7.5t-74 -7t-53 -6.5q-51 -7 -69 -13q-13 65 -21.5 137t-13 143.5t-6.5 139.5t-2 126q0 104 6.5 209t25 205t51 190t84 165t124.5 130t172 84q-29 29 -45.5 65t-16.5 77q0 47 22.5 88.5t61 72t90.5 48.5t111 18t110.5 -18t90 -48.5t60.5 -72
t22 -88.5zM688 600q87 0 173.5 3.5t164.5 12.5q2 23 2 46.5v48.5q0 152 -13.5 293t-39.5 262q-23 2 -50.5 3t-58.5 1q-41 0 -84.5 -1.5t-85 -4t-79.5 -6.5t-66 -9q-22 -159 -32.5 -319.5t-10.5 -325.5q43 -3 88.5 -3.5t91.5 -0.5zM866 1520q6 51 6 106q0 52 -6 100
q-11 0 -19 1.5t-16 1.5q-45 0 -86 -4.5t-81 -12.5q-5 -23 -7 -47t-2 -49q0 -23 2 -47.5t7 -48.5q26 -3 51.5 -5t48.5 -2q26 0 51 2t51 5z" />
    <glyph glyph-name="Ccedilla" unicode="&#xc7;" horiz-adv-x="1651" 
d="M1087 -287q0 -54 -26.5 -91t-64 -60.5t-79 -34t-71.5 -10.5q-25 -1 -62 2q-32 2 -80 6t-116 12v119q64 -6 127 -6q31 0 61 1.5t62 4.5q5 15 6.5 31.5t1.5 31.5q0 16 -1.5 31t-6.5 31q-23 3 -47.5 5.5t-49.5 2.5q-23 0 -48.5 -2.5t-51.5 -5.5q6 18 27 55t47 82
q-137 11 -239 48t-175 93t-120 127t-74 149.5t-37.5 160t-10.5 159.5q0 187 47 337t146.5 258t253.5 170.5t368 74.5q138 0 263 -41t224.5 -120t166.5 -196t88 -268q-65 0 -123 -1.5t-116 -4.5t-119 -8t-130 -12q10 51 14.5 110t4.5 121q0 38 -1.5 76t-6.5 72
q-72 20 -163 29.5t-183 9.5q-65 0 -126 -4.5t-112 -12.5q-20 -122 -29.5 -249.5t-9.5 -258.5q0 -140 10 -278t29 -273q37 -13 84 -23t98 -17t103.5 -11t101.5 -4q34 0 65.5 1.5t59.5 6.5q14 60 22.5 133.5t8.5 147.5q0 59 -6 115q80 -8 152.5 -11.5t148.5 -3.5q98 0 215 6
q-23 -131 -72.5 -226t-115 -162t-141 -109t-150 -66.5t-141.5 -34.5t-116 -12l-20 -49q88 -4 136 -28.5t70 -52.5q26 -33 29 -73z" />
    <glyph glyph-name="Eacute" unicode="&#xc9;" horiz-adv-x="1268" 
d="M1059 631q-65 5 -130 7.5t-130 2.5q-63 0 -126 -2.5t-128 -7.5v-168q0 -60 1 -115.5t3 -103.5q65 2 138.5 2h148.5t144 -0.5t123 -0.5q62 -1 118 -1q-1 -14 -2 -31q-1 -14 -1.5 -34t-0.5 -44q0 -31 1.5 -67t4.5 -74q-39 2 -79.5 2h-78.5q-239 0 -473.5 -7.5t-472.5 -23.5
q0 30 1 84t2.5 126.5t4 159t4.5 180.5t4.5 192t4 193.5t2.5 184t1 164.5q0 73 -0.5 129.5t-3.5 94.5q103 0 206 -1.5t208 -1.5q158 0 317 5t326 22q-5 -34 -6.5 -65.5t-1.5 -59.5q0 -27 1 -49.5t3 -38.5q2 -18 4 -33q-117 -6 -231 -10q-49 -2 -101.5 -3.5l-105 -3t-102 -2.5
t-91.5 -1q-2 -48 -5 -104q-2 -48 -4.5 -113t-4.5 -140q122 2 246.5 8t261.5 17q-3 -38 -5.5 -76.5t-2.5 -79.5q0 -27 1.5 -55t6.5 -57zM1082 1833l-361 -321l-135 35l258 381z" />
    <glyph glyph-name="Ntilde" unicode="&#xd1;" horiz-adv-x="1655" 
d="M1593 1542q-34 -300 -60 -588q-11 -123 -22 -255t-20 -261t-15 -249.5t-6 -219.5q-75 -8 -141.5 -11t-134.5 -3q-35 0 -73 1t-79 3l-567 1165q1 -69 2.5 -155t3.5 -179.5t4.5 -190.5t4.5 -187q4 -212 10 -435q-61 0 -126 -2q-56 -2 -124.5 -5.5t-136.5 -10.5
q7 100 12 226.5t8.5 266t5.5 283.5t2 279q0 140 -2.5 261t-5.5 206q81 -6 155 -8.5t148 -2.5q75 0 150.5 2.5t158.5 8.5q45 -127 100 -244t113.5 -231.5t117.5 -230t114 -238.5q0 66 1.5 144t3.5 161t4 167t5 162q5 182 13 371q55 -5 97.5 -7.5t84.5 -2.5t87 2.5t107 7.5z
M1284 1869q2 -20 4.5 -38t2.5 -35q0 -51 -12.5 -89t-33 -66.5t-46.5 -47.5t-53 -32q-63 -30 -144 -34q-53 2 -100 18q-40 13 -78 42t-54 82h-98q-6 -19 -8 -37.5t-2 -38.5q0 -17 1.5 -33t6.5 -33l-256 21q0 56 13.5 99t36 74.5t51 53.5t58.5 36q70 33 160 38q1 0 18 -1
t43 -6t55.5 -15.5t55.5 -30.5t43.5 -51t18.5 -76h92q2 14 2 26.5v24.5q0 37 -6.5 74.5t-22.5 74.5h252z" />
    <glyph glyph-name="Odieresis" unicode="&#xd6;" horiz-adv-x="1589" 
d="M1044 236q6 60 11 132t8 147t4.5 147.5t1.5 132.5q0 115 -6 239.5t-19 239.5q-15 1 -36 2t-43.5 1.5t-43.5 0.5h-36q-45 0 -95.5 -2t-102.5 -6.5t-102.5 -11t-95.5 -15.5q0 -22 -0.5 -56.5t-0.5 -71t-0.5 -70t-0.5 -54.5q0 -187 12.5 -380t37.5 -375q25 -4 56.5 -7
t64.5 -4.5t65 -2.5t57 -1q28 0 62 1t69 2.5t69.5 4.5t63.5 7zM1532 723q0 -164 -55 -305t-156 -244.5t-242.5 -163t-314.5 -59.5q-75 0 -156 17.5t-159 57t-148.5 102.5t-123.5 154t-84.5 212t-31.5 276q0 152 35.5 266t93.5 195.5t133.5 134.5t155.5 84t158 43t143 12
q101 0 195.5 -18.5t177.5 -58t152 -101.5t119 -149t78.5 -200t29.5 -255zM729 1656q0 -22 -11.5 -41.5t-31 -34.5t-45.5 -23.5t-56 -8.5q-29 0 -55 8.5t-45 23.5t-30 34.5t-11 41.5q0 23 11 43.5t30 35.5t45 23.5t55 8.5q30 0 56 -8.5t45.5 -23.5t31 -35.5t11.5 -43.5z
M1149 1656q0 -22 -11.5 -41.5t-31 -34.5t-45.5 -23.5t-56 -8.5q-29 0 -54.5 8.5t-44.5 23.5t-30.5 34.5t-11.5 41.5q0 23 11.5 43.5t30.5 35.5t44.5 23.5t54.5 8.5q30 0 56 -8.5t45.5 -23.5t31 -35.5t11.5 -43.5z" />
    <glyph glyph-name="Udieresis" unicode="&#xdc;" horiz-adv-x="1552" 
d="M1460 748q-1 -107 -16 -207t-48 -189t-86 -162.5t-129 -126.5t-177 -82.5t-230 -29.5q-152 0 -277 43.5t-214 140t-138 251.5t-49 378q0 117 6 223.5t17 195.5t25.5 159.5t31.5 115.5h393q-4 -24 -11.5 -84t-15 -141t-13 -175.5t-5.5 -185.5q0 -85 2.5 -175t8 -175.5
t14 -162t20.5 -134.5q44 -6 98 -9t111 -3t113 3t104 9q8 58 13 134t8 161t4.5 174.5t1.5 173.5q0 92 -2 173.5t-6 154.5t-8.5 138t-10.5 124h383q27 -135 43 -241.5t25 -192t11.5 -152.5t2.5 -124zM711 1630q0 -22 -11.5 -41.5t-31 -34.5t-45.5 -23.5t-56 -8.5
q-29 0 -55 8.5t-45 23.5t-30 34.5t-11 41.5q0 23 11 43.5t30 35.5t45 23.5t55 8.5q30 0 56 -8.5t45.5 -23.5t31 -35.5t11.5 -43.5zM1131 1630q0 -22 -11.5 -41.5t-31 -34.5t-45.5 -23.5t-56 -8.5q-29 0 -54.5 8.5t-44.5 23.5t-30.5 34.5t-11.5 41.5q0 23 11.5 43.5
t30.5 35.5t44.5 23.5t54.5 8.5q30 0 56 -8.5t45.5 -23.5t31 -35.5t11.5 -43.5z" />
    <glyph glyph-name="aacute" unicode="&#xe1;" 
d="M907 -33q0 29 -1 58.5t-1 58.5q-53 -48 -110.5 -72.5t-105.5 -36.5q-56 -14 -111 -16q-100 0 -192.5 30.5t-164.5 91.5t-116.5 152.5t-49.5 212.5q0 122 33 222.5t99 172.5t164 111.5t227 40.5q4 0 30.5 -1.5t65.5 -9t85 -24t91 -45.5l-16 123l395 27q-12 -287 -12 -571
q0 -69 0.5 -130.5t2 -122t4 -122t5.5 -129.5zM440 209q119 5 234 16t227 33q-3 124 -10.5 240t-20.5 237h-57q-97 0 -194.5 -6.5t-196.5 -21.5q-12 -105 -12 -211q0 -40 2 -74.5t5.5 -68.5t9 -69t13.5 -75zM1008 1375l-361 -321l-135 35l258 381z" />
    <glyph glyph-name="agrave" unicode="&#xe0;" 
d="M907 -33q0 29 -1 58.5t-1 58.5q-53 -48 -110.5 -72.5t-105.5 -36.5q-56 -14 -111 -16q-100 0 -192.5 30.5t-164.5 91.5t-116.5 152.5t-49.5 212.5q0 122 33 222.5t99 172.5t164 111.5t227 40.5q4 0 30.5 -1.5t65.5 -9t85 -24t91 -45.5l-16 123l395 27q-12 -287 -12 -571
q0 -69 0.5 -130.5t2 -122t4 -122t5.5 -129.5zM440 209q119 5 234 16t227 33q-3 124 -10.5 240t-20.5 237h-57q-97 0 -194.5 -6.5t-196.5 -21.5q-12 -105 -12 -211q0 -40 2 -74.5t5.5 -68.5t9 -69t13.5 -75zM379 1462l258 -381l-136 -35l-360 321z" />
    <glyph glyph-name="acircumflex" unicode="&#xe2;" 
d="M907 -33q0 29 -1 58.5t-1 58.5q-53 -48 -110.5 -72.5t-105.5 -36.5q-56 -14 -111 -16q-100 0 -192.5 30.5t-164.5 91.5t-116.5 152.5t-49.5 212.5q0 122 33 222.5t99 172.5t164 111.5t227 40.5q4 0 30.5 -1.5t65.5 -9t85 -24t91 -45.5l-16 123l395 27q-12 -287 -12 -571
q0 -69 0.5 -130.5t2 -122t4 -122t5.5 -129.5zM440 209q119 5 234 16t227 33q-3 124 -10.5 240t-20.5 237h-57q-97 0 -194.5 -6.5t-196.5 -21.5q-12 -105 -12 -211q0 -40 2 -74.5t5.5 -68.5t9 -69t13.5 -75zM996 1144l-283 -61l-103 262l-98 -246h-264l231 328l306 26z" />
    <glyph glyph-name="adieresis" unicode="&#xe4;" 
d="M907 -33q0 29 -1 58.5t-1 58.5q-53 -48 -110.5 -72.5t-105.5 -36.5q-56 -14 -111 -16q-100 0 -192.5 30.5t-164.5 91.5t-116.5 152.5t-49.5 212.5q0 122 33 222.5t99 172.5t164 111.5t227 40.5q4 0 30.5 -1.5t65.5 -9t85 -24t91 -45.5l-16 123l395 27q-12 -287 -12 -571
q0 -69 0.5 -130.5t2 -122t4 -122t5.5 -129.5zM440 209q119 5 234 16t227 33q-3 124 -10.5 240t-20.5 237h-57q-97 0 -194.5 -6.5t-196.5 -21.5q-12 -105 -12 -211q0 -40 2 -74.5t5.5 -68.5t9 -69t13.5 -75zM574 1219q0 -22 -11.5 -41.5t-31 -34.5t-45.5 -23.5t-56 -8.5
q-29 0 -55 8.5t-45 23.5t-30 34.5t-11 41.5q0 23 11 43.5t30 35.5t45 23.5t55 8.5q30 0 56 -8.5t45.5 -23.5t31 -35.5t11.5 -43.5zM994 1219q0 -22 -11.5 -41.5t-31 -34.5t-45.5 -23.5t-56 -8.5q-29 0 -54.5 8.5t-44.5 23.5t-30.5 34.5t-11.5 41.5q0 23 11.5 43.5t30.5 35.5
t44.5 23.5t54.5 8.5q30 0 56 -8.5t45.5 -23.5t31 -35.5t11.5 -43.5z" />
    <glyph glyph-name="atilde" unicode="&#xe3;" 
d="M907 -33q0 29 -1 58.5t-1 58.5q-53 -48 -110.5 -72.5t-105.5 -36.5q-56 -14 -111 -16q-100 0 -192.5 30.5t-164.5 91.5t-116.5 152.5t-49.5 212.5q0 122 33 222.5t99 172.5t164 111.5t227 40.5q4 0 30.5 -1.5t65.5 -9t85 -24t91 -45.5l-16 123l395 27q-12 -287 -12 -571
q0 -69 0.5 -130.5t2 -122t4 -122t5.5 -129.5zM440 209q119 5 234 16t227 33q-3 124 -10.5 240t-20.5 237h-57q-97 0 -194.5 -6.5t-196.5 -21.5q-12 -105 -12 -211q0 -40 2 -74.5t5.5 -68.5t9 -69t13.5 -75zM1073 1440q2 -20 4.5 -38t2.5 -35q0 -51 -12.5 -89t-33 -66.5
t-46.5 -47.5t-53 -32q-63 -30 -144 -34q-53 2 -100 18q-40 13 -78 42t-54 82h-98q-6 -19 -8 -37.5t-2 -38.5q0 -17 1.5 -33t6.5 -33l-256 21q0 56 13.5 99t36 74.5t51 53.5t58.5 36q70 33 160 38q1 0 18 -1t43 -6t55.5 -15.5t55.5 -30.5t43.5 -51t18.5 -76h92q2 14 2 26.5
v24.5q0 37 -6.5 74.5t-22.5 74.5h252z" />
    <glyph glyph-name="aring" unicode="&#xe5;" 
d="M907 -33q0 29 -1 58.5t-1 58.5q-53 -48 -110.5 -72.5t-105.5 -36.5q-56 -14 -111 -16q-100 0 -192.5 30.5t-164.5 91.5t-116.5 152.5t-49.5 212.5q0 122 33 222.5t99 172.5t164 111.5t227 40.5q4 0 30.5 -1.5t65.5 -9t85 -24t91 -45.5l-16 123l395 27q-12 -287 -12 -571
q0 -69 0.5 -130.5t2 -122t4 -122t5.5 -129.5zM440 209q119 5 234 16t227 33q-3 124 -10.5 240t-20.5 237h-57q-97 0 -194.5 -6.5t-196.5 -21.5q-12 -105 -12 -211q0 -40 2 -74.5t5.5 -68.5t9 -69t13.5 -75zM737 1203q3 26 4.5 53t1.5 53q0 51 -6 101q-11 0 -19 1t-16 1
q-86 0 -168 -17q-5 -23 -6.5 -47t-1.5 -49q0 -23 1.5 -47t6.5 -49q26 -3 51.5 -4.5t48.5 -1.5q50 0 103 6zM925 1293q0 -47 -22 -88t-60 -71.5t-89.5 -48t-110.5 -17.5t-111 17.5t-90.5 48t-61 71.5t-22.5 88t22.5 88.5t61 72t90.5 48.5t111 18t110.5 -18t89.5 -48.5t60 -72
t22 -88.5z" />
    <glyph glyph-name="ccedilla" unicode="&#xe7;" horiz-adv-x="1225" 
d="M870 -287q0 -54 -26.5 -91t-64 -60.5t-79 -34t-71.5 -10.5q-25 -1 -62 2q-32 2 -80 6t-116 12v119q64 -6 127 -6q31 0 61 1.5t62 4.5q5 15 6.5 31.5t1.5 31.5q0 16 -1.5 31t-6.5 31q-23 3 -47.5 5.5t-49.5 2.5q-23 0 -48.5 -2.5t-51.5 -5.5q4 11 13 29t21.5 41t28 49
t31.5 53q-99 13 -183.5 52.5t-146 111t-96.5 178.5t-35 254q0 135 47 232t125.5 160t182 92.5t217.5 29.5q101 0 192 -23.5t164.5 -72t125.5 -124t75 -179.5h-400q5 24 7 48.5t2 49.5q0 23 -2 45t-7 45q-43 8 -87 11t-91 3q-46 0 -93 -3t-95 -11q-5 -54 -7.5 -106t-2.5 -105
q0 -122 12.5 -241.5t34.5 -239.5q45 -5 86.5 -6.5t85.5 -1.5q43 0 85 1.5t87 6.5q2 21 3 41t1 39q0 18 -1 36t-3 35l377 -8q-26 -91 -75 -156.5t-115.5 -108.5t-148 -65t-171.5 -26l-33 -80q88 -4 136 -28.5t70 -52.5q26 -33 29 -73z" />
    <glyph glyph-name="eacute" unicode="&#xe9;" horiz-adv-x="1237" 
d="M1200 469l-782 -63q5 -62 14 -123t23 -123q88 -6 170 -6q45 0 87 1.5t87 4.5q2 20 3 40t1 40q0 18 -0.5 35.5t-3.5 35.5l377 -8q-28 -95 -80.5 -163t-124 -111.5t-159.5 -63.5t-185 -20q-119 0 -223.5 32t-182 103.5t-122 186.5t-44.5 282q0 135 47 232t125.5 160
t182 92.5t217.5 29.5q119 0 223.5 -32t182 -100t122.5 -174t45 -253v-35zM408 616h401q0 124 -25 236q-86 18 -180 18q-92 0 -186 -18q-6 -56 -8 -113.5t-2 -122.5zM1008 1461l-361 -321l-135 35l258 381z" />
    <glyph glyph-name="egrave" unicode="&#xe8;" horiz-adv-x="1237" 
d="M1200 469l-782 -63q5 -62 14 -123t23 -123q88 -6 170 -6q45 0 87 1.5t87 4.5q2 20 3 40t1 40q0 18 -0.5 35.5t-3.5 35.5l377 -8q-28 -95 -80.5 -163t-124 -111.5t-159.5 -63.5t-185 -20q-119 0 -223.5 32t-182 103.5t-122 186.5t-44.5 282q0 135 47 232t125.5 160
t182 92.5t217.5 29.5q119 0 223.5 -32t182 -100t122.5 -174t45 -253v-35zM408 616h401q0 124 -25 236q-86 18 -180 18q-92 0 -186 -18q-6 -56 -8 -113.5t-2 -122.5zM394 1559l258 -381l-136 -35l-360 321z" />
    <glyph glyph-name="ecircumflex" unicode="&#xea;" horiz-adv-x="1237" 
d="M1200 469l-782 -63q5 -62 14 -123t23 -123q88 -6 170 -6q45 0 87 1.5t87 4.5q2 20 3 40t1 40q0 18 -0.5 35.5t-3.5 35.5l377 -8q-28 -95 -80.5 -163t-124 -111.5t-159.5 -63.5t-185 -20q-119 0 -223.5 32t-182 103.5t-122 186.5t-44.5 282q0 135 47 232t125.5 160
t182 92.5t217.5 29.5q119 0 223.5 -32t182 -100t122.5 -174t45 -253v-35zM408 616h401q0 124 -25 236q-86 18 -180 18q-92 0 -186 -18q-6 -56 -8 -113.5t-2 -122.5zM981 1183l-283 -61l-103 262l-98 -246h-264l231 328l306 26z" />
    <glyph glyph-name="edieresis" unicode="&#xeb;" horiz-adv-x="1237" 
d="M1200 469l-782 -63q5 -62 14 -123t23 -123q88 -6 170 -6q45 0 87 1.5t87 4.5q2 20 3 40t1 40q0 18 -0.5 35.5t-3.5 35.5l377 -8q-28 -95 -80.5 -163t-124 -111.5t-159.5 -63.5t-185 -20q-119 0 -223.5 32t-182 103.5t-122 186.5t-44.5 282q0 135 47 232t125.5 160
t182 92.5t217.5 29.5q119 0 223.5 -32t182 -100t122.5 -174t45 -253v-35zM408 616h401q0 124 -25 236q-86 18 -180 18q-92 0 -186 -18q-6 -56 -8 -113.5t-2 -122.5zM559 1223q0 -22 -11.5 -41.5t-31 -34.5t-45.5 -23.5t-56 -8.5q-29 0 -55 8.5t-45 23.5t-30 34.5t-11 41.5
q0 23 11 43.5t30 35.5t45 23.5t55 8.5q30 0 56 -8.5t45.5 -23.5t31 -35.5t11.5 -43.5zM979 1223q0 -22 -11.5 -41.5t-31 -34.5t-45.5 -23.5t-56 -8.5q-29 0 -54.5 8.5t-44.5 23.5t-30.5 34.5t-11.5 41.5q0 23 11.5 43.5t30.5 35.5t44.5 23.5t54.5 8.5q30 0 56 -8.5
t45.5 -23.5t31 -35.5t11.5 -43.5z" />
    <glyph glyph-name="iacute" unicode="&#xed;" horiz-adv-x="547" 
d="M463 1044q-22 -223 -29.5 -440t-7.5 -434v-76.5t2 -77.5h-309q0 62 1 123t1 121q0 199 -9.5 394t-29.5 390h381zM682 1426l-361 -321l-135 35l258 381z" />
    <glyph glyph-name="igrave" unicode="&#xec;" horiz-adv-x="547" 
d="M463 1044q-22 -223 -29.5 -440t-7.5 -434v-76.5t2 -77.5h-309q0 62 1 123t1 121q0 199 -9.5 394t-29.5 390h381zM106 1533l258 -381l-136 -35l-360 321z" />
    <glyph glyph-name="icircumflex" unicode="&#xee;" horiz-adv-x="547" 
d="M463 1044q-22 -223 -29.5 -440t-7.5 -434v-76.5t2 -77.5h-309q0 62 1 123t1 121q0 199 -9.5 394t-29.5 390h381zM645 1183l-283 -61l-103 262l-98 -246h-264l231 328l306 26z" />
    <glyph glyph-name="idieresis" unicode="&#xef;" horiz-adv-x="547" 
d="M463 1044q-22 -223 -29.5 -440t-7.5 -434v-76.5t2 -77.5h-309q0 62 1 123t1 121q0 199 -9.5 394t-29.5 390h381zM206 1227q0 -22 -11.5 -41.5t-31 -34.5t-45.5 -23.5t-56 -8.5q-29 0 -55 8.5t-45 23.5t-30 34.5t-11 41.5q0 23 11 43.5t30 35.5t45 23.5t55 8.5
q30 0 56 -8.5t45.5 -23.5t31 -35.5t11.5 -43.5zM626 1227q0 -22 -11.5 -41.5t-31 -34.5t-45.5 -23.5t-56 -8.5q-29 0 -54.5 8.5t-44.5 23.5t-30.5 34.5t-11.5 41.5q0 23 11.5 43.5t30.5 35.5t44.5 23.5t54.5 8.5q30 0 56 -8.5t45.5 -23.5t31 -35.5t11.5 -43.5z" />
    <glyph glyph-name="ntilde" unicode="&#xf1;" horiz-adv-x="1264" 
d="M1184 522q0 -133 -14 -271t-48 -276h-348q13 149 20 294.5t7 293.5v99.5t-2 99.5q-45 5 -89 6.5t-89 1.5q-85 0 -175 -6q-3 -82 -4.5 -152t-1.5 -139q0 -51 1 -103.5t3.5 -112.5t6.5 -129.5t10 -152.5h-336q0 120 -1 212t-3 169.5t-5.5 148t-8.5 148t-11 169t-14 210.5
l379 23l-8 -142q57 40 117 62t110 33q58 12 113 14q73 0 130.5 -20t101 -55.5t73.5 -83.5t49.5 -103.5t28 -116.5t8.5 -121zM1065 1461q2 -20 4.5 -38t2.5 -35q0 -51 -12.5 -89t-33 -66.5t-46.5 -47.5t-53 -32q-63 -30 -144 -34q-53 2 -100 18q-40 13 -78 42t-54 82h-98
q-6 -19 -8 -37.5t-2 -38.5q0 -17 1.5 -33t6.5 -33l-256 21q0 56 13.5 99t36 74.5t51 53.5t58.5 36q70 33 160 38q1 0 18 -1t43 -6t55.5 -15.5t55.5 -30.5t43.5 -51t18.5 -76h92q2 14 2 26.5v24.5q0 37 -6.5 74.5t-22.5 74.5h252z" />
    <glyph glyph-name="oacute" unicode="&#xf3;" horiz-adv-x="1243" 
d="M823 207q6 85 8.5 165t2.5 158q0 81 -2.5 159.5t-8.5 162.5q-34 5 -67.5 6.5t-67.5 1.5q-140 0 -270 -31q-3 -54 -5.5 -107t-2.5 -106q0 -106 8.5 -211.5t25.5 -220.5q23 -2 46.5 -2h48.5q69 0 140.5 6t143.5 19zM1194 522q0 -119 -46.5 -223.5t-126.5 -182.5
t-187.5 -123.5t-229.5 -45.5q-121 0 -222.5 45.5t-175 123.5t-114.5 182.5t-41 223.5q0 147 41 255t114.5 179t175 105.5t222.5 34.5q122 0 229.5 -39t187.5 -113t126.5 -180.5t46.5 -241.5zM1053 1464l-361 -321l-135 35l258 381z" />
    <glyph glyph-name="ograve" unicode="&#xf2;" horiz-adv-x="1243" 
d="M823 207q6 85 8.5 165t2.5 158q0 81 -2.5 159.5t-8.5 162.5q-34 5 -67.5 6.5t-67.5 1.5q-140 0 -270 -31q-3 -54 -5.5 -107t-2.5 -106q0 -106 8.5 -211.5t25.5 -220.5q23 -2 46.5 -2h48.5q69 0 140.5 6t143.5 19zM1194 522q0 -119 -46.5 -223.5t-126.5 -182.5
t-187.5 -123.5t-229.5 -45.5q-121 0 -222.5 45.5t-175 123.5t-114.5 182.5t-41 223.5q0 147 41 255t114.5 179t175 105.5t222.5 34.5q122 0 229.5 -39t187.5 -113t126.5 -180.5t46.5 -241.5zM406 1559l258 -381l-136 -35l-360 321z" />
    <glyph glyph-name="ocircumflex" unicode="&#xf4;" horiz-adv-x="1243" 
d="M823 207q6 85 8.5 165t2.5 158q0 81 -2.5 159.5t-8.5 162.5q-34 5 -67.5 6.5t-67.5 1.5q-140 0 -270 -31q-3 -54 -5.5 -107t-2.5 -106q0 -106 8.5 -211.5t25.5 -220.5q23 -2 46.5 -2h48.5q69 0 140.5 6t143.5 19zM1194 522q0 -119 -46.5 -223.5t-126.5 -182.5
t-187.5 -123.5t-229.5 -45.5q-121 0 -222.5 45.5t-175 123.5t-114.5 182.5t-41 223.5q0 147 41 255t114.5 179t175 105.5t222.5 34.5q122 0 229.5 -39t187.5 -113t126.5 -180.5t46.5 -241.5zM975 1198l-283 -61l-103 262l-98 -246h-264l231 328l306 26z" />
    <glyph glyph-name="odieresis" unicode="&#xf6;" horiz-adv-x="1243" 
d="M823 207q6 85 8.5 165t2.5 158q0 81 -2.5 159.5t-8.5 162.5q-34 5 -67.5 6.5t-67.5 1.5q-140 0 -270 -31q-3 -54 -5.5 -107t-2.5 -106q0 -106 8.5 -211.5t25.5 -220.5q23 -2 46.5 -2h48.5q69 0 140.5 6t143.5 19zM1194 522q0 -119 -46.5 -223.5t-126.5 -182.5
t-187.5 -123.5t-229.5 -45.5q-121 0 -222.5 45.5t-175 123.5t-114.5 182.5t-41 223.5q0 147 41 255t114.5 179t175 105.5t222.5 34.5q122 0 229.5 -39t187.5 -113t126.5 -180.5t46.5 -241.5zM555 1256q0 -22 -11.5 -41.5t-31 -34.5t-45.5 -23.5t-56 -8.5q-29 0 -55 8.5
t-45 23.5t-30 34.5t-11 41.5q0 23 11 43.5t30 35.5t45 23.5t55 8.5q30 0 56 -8.5t45.5 -23.5t31 -35.5t11.5 -43.5zM975 1256q0 -22 -11.5 -41.5t-31 -34.5t-45.5 -23.5t-56 -8.5q-29 0 -54.5 8.5t-44.5 23.5t-30.5 34.5t-11.5 41.5q0 23 11.5 43.5t30.5 35.5t44.5 23.5
t54.5 8.5q30 0 56 -8.5t45.5 -23.5t31 -35.5t11.5 -43.5z" />
    <glyph glyph-name="otilde" unicode="&#xf5;" horiz-adv-x="1243" 
d="M823 207q6 85 8.5 165t2.5 158q0 81 -2.5 159.5t-8.5 162.5q-34 5 -67.5 6.5t-67.5 1.5q-140 0 -270 -31q-3 -54 -5.5 -107t-2.5 -106q0 -106 8.5 -211.5t25.5 -220.5q23 -2 46.5 -2h48.5q69 0 140.5 6t143.5 19zM1194 522q0 -119 -46.5 -223.5t-126.5 -182.5
t-187.5 -123.5t-229.5 -45.5q-121 0 -222.5 45.5t-175 123.5t-114.5 182.5t-41 223.5q0 147 41 255t114.5 179t175 105.5t222.5 34.5q122 0 229.5 -39t187.5 -113t126.5 -180.5t46.5 -241.5zM1054 1483q2 -20 4.5 -38t2.5 -35q0 -51 -12.5 -89t-33 -66.5t-46.5 -47.5
t-53 -32q-63 -30 -144 -34q-53 2 -100 18q-40 13 -78 42t-54 82h-98q-6 -19 -8 -37.5t-2 -38.5q0 -17 1.5 -33t6.5 -33l-256 21q0 56 13.5 99t36 74.5t51 53.5t58.5 36q70 33 160 38q1 0 18 -1t43 -6t55.5 -15.5t55.5 -30.5t43.5 -51t18.5 -76h92q2 14 2 26.5v24.5
q0 37 -6.5 74.5t-22.5 74.5h252z" />
    <glyph glyph-name="uacute" unicode="&#xfa;" horiz-adv-x="1217" 
d="M1151 635q0 -86 -8.5 -168.5t-30 -157t-59 -139t-94.5 -113.5t-137 -80.5t-187 -39.5q-275 0 -413 139t-138 411v37.5t1 76t2.5 102t5.5 115.5t9.5 116t14.5 104h350q-19 -99 -28 -209t-9 -225q0 -106 8.5 -210.5t28.5 -198.5q37 -5 72.5 -8t70.5 -3q34 0 70.5 3t71.5 8
q11 94 16.5 197.5t5.5 209.5q0 116 -5.5 226.5t-16.5 209.5h362q22 -117 29.5 -221t7.5 -182zM1031 1399l-361 -321l-135 35l258 381z" />
    <glyph glyph-name="ugrave" unicode="&#xf9;" horiz-adv-x="1217" 
d="M1151 635q0 -86 -8.5 -168.5t-30 -157t-59 -139t-94.5 -113.5t-137 -80.5t-187 -39.5q-275 0 -413 139t-138 411v37.5t1 76t2.5 102t5.5 115.5t9.5 116t14.5 104h350q-19 -99 -28 -209t-9 -225q0 -106 8.5 -210.5t28.5 -198.5q37 -5 72.5 -8t70.5 -3q34 0 70.5 3t71.5 8
q11 94 16.5 197.5t5.5 209.5q0 116 -5.5 226.5t-16.5 209.5h362q22 -117 29.5 -221t7.5 -182zM426 1511l258 -381l-136 -35l-360 321z" />
    <glyph glyph-name="ucircumflex" unicode="&#xfb;" horiz-adv-x="1217" 
d="M1151 635q0 -86 -8.5 -168.5t-30 -157t-59 -139t-94.5 -113.5t-137 -80.5t-187 -39.5q-275 0 -413 139t-138 411v37.5t1 76t2.5 102t5.5 115.5t9.5 116t14.5 104h350q-19 -99 -28 -209t-9 -225q0 -106 8.5 -210.5t28.5 -198.5q37 -5 72.5 -8t70.5 -3q34 0 70.5 3t71.5 8
q11 94 16.5 197.5t5.5 209.5q0 116 -5.5 226.5t-16.5 209.5h362q22 -117 29.5 -221t7.5 -182zM996 1170l-283 -61l-103 262l-98 -246h-264l231 328l306 26z" />
    <glyph glyph-name="udieresis" unicode="&#xfc;" horiz-adv-x="1217" 
d="M1151 635q0 -86 -8.5 -168.5t-30 -157t-59 -139t-94.5 -113.5t-137 -80.5t-187 -39.5q-275 0 -413 139t-138 411v37.5t1 76t2.5 102t5.5 115.5t9.5 116t14.5 104h350q-19 -99 -28 -209t-9 -225q0 -106 8.5 -210.5t28.5 -198.5q37 -5 72.5 -8t70.5 -3q34 0 70.5 3t71.5 8
q11 94 16.5 197.5t5.5 209.5q0 116 -5.5 226.5t-16.5 209.5h362q22 -117 29.5 -221t7.5 -182zM549 1235q0 -22 -11.5 -41.5t-31 -34.5t-45.5 -23.5t-56 -8.5q-29 0 -55 8.5t-45 23.5t-30 34.5t-11 41.5q0 23 11 43.5t30 35.5t45 23.5t55 8.5q30 0 56 -8.5t45.5 -23.5
t31 -35.5t11.5 -43.5zM969 1235q0 -22 -11.5 -41.5t-31 -34.5t-45.5 -23.5t-56 -8.5q-29 0 -54.5 8.5t-44.5 23.5t-30.5 34.5t-11.5 41.5q0 23 11.5 43.5t30.5 35.5t44.5 23.5t54.5 8.5q30 0 56 -8.5t45.5 -23.5t31 -35.5t11.5 -43.5z" />
    <glyph glyph-name="Agrave" unicode="&#xc0;" horiz-adv-x="1542" 
d="M1360 -61l-129.5 17.5t-104 12t-94.5 6.5t-100 2q26 87 44.5 178t29.5 187q-60 2 -123 3t-125 1q-127 0 -244 -6q5 -90 14 -179.5t23 -178.5q-71 -5 -127 -9t-99 -7.5t-74 -7t-53 -6.5q-51 -7 -69 -13q-13 65 -21.5 137t-13 143.5t-6.5 139.5t-2 126q0 121 9.5 243
t36 235t73.5 210.5t123 170t184 114t256 41.5q152 0 279 -46.5t218.5 -143.5t142 -246.5t50.5 -355.5q0 -53 -2.5 -132t-12.5 -178t-29.5 -215.5t-53.5 -242.5zM688 600q87 0 173.5 3.5t164.5 12.5q2 23 2 46.5v48.5q0 152 -13.5 293t-39.5 262q-23 2 -50.5 3t-58.5 1
q-41 0 -84.5 -1.5t-85 -4t-79.5 -6.5t-66 -9q-22 -159 -32.5 -319.5t-10.5 -325.5q43 -3 88.5 -3.5t91.5 -0.5zM537 1948l258 -381l-136 -35l-360 321z" />
    <glyph glyph-name="Atilde" unicode="&#xc3;" horiz-adv-x="1542" 
d="M1360 -61l-129.5 17.5t-104 12t-94.5 6.5t-100 2q26 87 44.5 178t29.5 187q-60 2 -123 3t-125 1q-127 0 -244 -6q5 -90 14 -179.5t23 -178.5q-71 -5 -127 -9t-99 -7.5t-74 -7t-53 -6.5q-51 -7 -69 -13q-13 65 -21.5 137t-13 143.5t-6.5 139.5t-2 126q0 121 9.5 243
t36 235t73.5 210.5t123 170t184 114t256 41.5q152 0 279 -46.5t218.5 -143.5t142 -246.5t50.5 -355.5q0 -53 -2.5 -132t-12.5 -178t-29.5 -215.5t-53.5 -242.5zM688 600q87 0 173.5 3.5t164.5 12.5q2 23 2 46.5v48.5q0 152 -13.5 293t-39.5 262q-23 2 -50.5 3t-58.5 1
q-41 0 -84.5 -1.5t-85 -4t-79.5 -6.5t-66 -9q-22 -159 -32.5 -319.5t-10.5 -325.5q43 -3 88.5 -3.5t91.5 -0.5zM1204 1884q2 -20 4.5 -38t2.5 -35q0 -51 -12.5 -89t-33 -66.5t-46.5 -47.5t-53 -32q-63 -30 -144 -34q-53 2 -100 18q-40 13 -78 42t-54 82h-98q-6 -19 -8 -37.5
t-2 -38.5q0 -17 1.5 -33t6.5 -33l-256 21q0 56 13.5 99t36 74.5t51 53.5t58.5 36q70 33 160 38q1 0 18 -1t43 -6t55.5 -15.5t55.5 -30.5t43.5 -51t18.5 -76h92q2 14 2 26.5v24.5q0 37 -6.5 74.5t-22.5 74.5h252z" />
    <glyph glyph-name="Otilde" unicode="&#xd5;" horiz-adv-x="1589" 
d="M1044 236q6 60 11 132t8 147t4.5 147.5t1.5 132.5q0 115 -6 239.5t-19 239.5q-15 1 -36 2t-43.5 1.5t-43.5 0.5h-36q-45 0 -95.5 -2t-102.5 -6.5t-102.5 -11t-95.5 -15.5q0 -22 -0.5 -56.5t-0.5 -71t-0.5 -70t-0.5 -54.5q0 -187 12.5 -380t37.5 -375q25 -4 56.5 -7
t64.5 -4.5t65 -2.5t57 -1q28 0 62 1t69 2.5t69.5 4.5t63.5 7zM1532 723q0 -164 -55 -305t-156 -244.5t-242.5 -163t-314.5 -59.5q-75 0 -156 17.5t-159 57t-148.5 102.5t-123.5 154t-84.5 212t-31.5 276q0 152 35.5 266t93.5 195.5t133.5 134.5t155.5 84t158 43t143 12
q101 0 195.5 -18.5t177.5 -58t152 -101.5t119 -149t78.5 -200t29.5 -255zM1198 1888q2 -20 4.5 -38t2.5 -35q0 -51 -12.5 -89t-33 -66.5t-46.5 -47.5t-53 -32q-63 -30 -144 -34q-53 2 -100 18q-40 13 -78 42t-54 82h-98q-6 -19 -8 -37.5t-2 -38.5q0 -17 1.5 -33t6.5 -33
l-256 21q0 56 13.5 99t36 74.5t51 53.5t58.5 36q70 33 160 38q1 0 18 -1t43 -6t55.5 -15.5t55.5 -30.5t43.5 -51t18.5 -76h92q2 14 2 26.5v24.5q0 37 -6.5 74.5t-22.5 74.5h252z" />
    <glyph glyph-name="ydieresis" unicode="&#xff;" horiz-adv-x="1290" 
d="M1200 1036q-5 -262 -13 -452t-16 -317q-9 -148 -18 -249q-6 -121 -44.5 -221t-108.5 -172t-170 -111.5t-230 -39.5q-87 0 -152 10.5t-113.5 31t-83 50.5t-60.5 69.5t-45.5 88.5t-37.5 106l367 8q0 -14 -1 -26.5t-1 -24.5q0 -75 12 -145q39 -5 68 -8t57 -3q38 0 78 5
t96 14q10 105 17 208.5t12 207.5q-42 -18 -80.5 -27.5t-67.5 -14.5q-34 -5 -65 -6q-145 0 -239 36.5t-151.5 103t-84 160t-36.5 206.5t-10 242.5t-3 269.5l409 -28q-8 -94 -13 -187t-5 -186q0 -96 5 -190.5t13 -188.5q37 -3 69 -3.5t64 -0.5q53 0 102.5 1.5t98.5 6.5
q2 32 2 65.5v65.5q0 167 -8.5 332t-28.5 330zM555 1252q0 -22 -11.5 -41.5t-31 -34.5t-45.5 -23.5t-56 -8.5q-29 0 -55 8.5t-45 23.5t-30 34.5t-11 41.5q0 23 11 43.5t30 35.5t45 23.5t55 8.5q30 0 56 -8.5t45.5 -23.5t31 -35.5t11.5 -43.5zM975 1252q0 -22 -11.5 -41.5
t-31 -34.5t-45.5 -23.5t-56 -8.5q-29 0 -54.5 8.5t-44.5 23.5t-30.5 34.5t-11.5 41.5q0 23 11.5 43.5t30.5 35.5t44.5 23.5t54.5 8.5q30 0 56 -8.5t45.5 -23.5t31 -35.5t11.5 -43.5z" />
    <glyph glyph-name="Ydieresis" unicode="&#x178;" horiz-adv-x="1645" 
d="M1634 1479q-114 -261 -215 -446t-177 -303q-89 -138 -165 -228q-2 -22 -3 -50.5t-1 -62.5q0 -55 2 -118t5.5 -122t8 -107.5t9.5 -74.5l-557 -10q4 17 9.5 55.5t11 87t10 102.5t8.5 101.5t6.5 83.5t3.5 49q-43 67 -92 146.5t-102 167t-108 180t-108 186t-103.5 185.5
t-94.5 178l567 -25q21 -68 54 -156t75 -187.5t92 -204.5t104 -206q72 132 138 268q28 58 58 122t58 130.5t53 132t44 126.5h409zM797 1624q0 -22 -11.5 -41.5t-31 -34.5t-45.5 -23.5t-56 -8.5q-29 0 -55 8.5t-45 23.5t-30 34.5t-11 41.5q0 23 11 43.5t30 35.5t45 23.5
t55 8.5q30 0 56 -8.5t45.5 -23.5t31 -35.5t11.5 -43.5zM1217 1624q0 -22 -11.5 -41.5t-31 -34.5t-45.5 -23.5t-56 -8.5q-29 0 -54.5 8.5t-44.5 23.5t-30.5 34.5t-11.5 41.5q0 23 11.5 43.5t30.5 35.5t44.5 23.5t54.5 8.5q30 0 56 -8.5t45.5 -23.5t31 -35.5t11.5 -43.5z" />
    <glyph glyph-name="Acircumflex" unicode="&#xc2;" horiz-adv-x="1542" 
d="M1360 -61l-129.5 17.5t-104 12t-94.5 6.5t-100 2q26 87 44.5 178t29.5 187q-60 2 -123 3t-125 1q-127 0 -244 -6q5 -90 14 -179.5t23 -178.5q-71 -5 -127 -9t-99 -7.5t-74 -7t-53 -6.5q-51 -7 -69 -13q-13 65 -21.5 137t-13 143.5t-6.5 139.5t-2 126q0 121 9.5 243
t36 235t73.5 210.5t123 170t184 114t256 41.5q152 0 279 -46.5t218.5 -143.5t142 -246.5t50.5 -355.5q0 -53 -2.5 -132t-12.5 -178t-29.5 -215.5t-53.5 -242.5zM688 600q87 0 173.5 3.5t164.5 12.5q2 23 2 46.5v48.5q0 152 -13.5 293t-39.5 262q-23 2 -50.5 3t-58.5 1
q-41 0 -84.5 -1.5t-85 -4t-79.5 -6.5t-66 -9q-22 -159 -32.5 -319.5t-10.5 -325.5q43 -3 88.5 -3.5t91.5 -0.5zM1125 1606l-283 -61l-103 262l-98 -246h-264l231 328l306 26z" />
    <glyph glyph-name="Ecircumflex" unicode="&#xca;" horiz-adv-x="1268" 
d="M1059 631q-65 5 -130 7.5t-130 2.5q-63 0 -126 -2.5t-128 -7.5v-168q0 -60 1 -115.5t3 -103.5q65 2 138.5 2h148.5t144 -0.5t123 -0.5q62 -1 118 -1q-1 -14 -2 -31q-1 -14 -1.5 -34t-0.5 -44q0 -31 1.5 -67t4.5 -74q-39 2 -79.5 2h-78.5q-239 0 -473.5 -7.5t-472.5 -23.5
q0 30 1 84t2.5 126.5t4 159t4.5 180.5t4.5 192t4 193.5t2.5 184t1 164.5q0 73 -0.5 129.5t-3.5 94.5q103 0 206 -1.5t208 -1.5q158 0 317 5t326 22q-5 -34 -6.5 -65.5t-1.5 -59.5q0 -27 1 -49.5t3 -38.5q2 -18 4 -33q-117 -6 -231 -10q-49 -2 -101.5 -3.5l-105 -3t-102 -2.5
t-91.5 -1q-2 -48 -5 -104q-2 -48 -4.5 -113t-4.5 -140q122 2 246.5 8t261.5 17q-3 -38 -5.5 -76.5t-2.5 -79.5q0 -27 1.5 -55t6.5 -57zM1024 1571l-283 -61l-103 262l-98 -246h-264l231 328l306 26z" />
    <glyph glyph-name="Aacute" unicode="&#xc1;" horiz-adv-x="1542" 
d="M1360 -61l-129.5 17.5t-104 12t-94.5 6.5t-100 2q26 87 44.5 178t29.5 187q-60 2 -123 3t-125 1q-127 0 -244 -6q5 -90 14 -179.5t23 -178.5q-71 -5 -127 -9t-99 -7.5t-74 -7t-53 -6.5q-51 -7 -69 -13q-13 65 -21.5 137t-13 143.5t-6.5 139.5t-2 126q0 121 9.5 243
t36 235t73.5 210.5t123 170t184 114t256 41.5q152 0 279 -46.5t218.5 -143.5t142 -246.5t50.5 -355.5q0 -53 -2.5 -132t-12.5 -178t-29.5 -215.5t-53.5 -242.5zM688 600q87 0 173.5 3.5t164.5 12.5q2 23 2 46.5v48.5q0 152 -13.5 293t-39.5 262q-23 2 -50.5 3t-58.5 1
q-41 0 -84.5 -1.5t-85 -4t-79.5 -6.5t-66 -9q-22 -159 -32.5 -319.5t-10.5 -325.5q43 -3 88.5 -3.5t91.5 -0.5zM1217 1867l-361 -321l-135 35l258 381z" />
    <glyph glyph-name="Edieresis" unicode="&#xcb;" horiz-adv-x="1268" 
d="M1059 631q-65 5 -130 7.5t-130 2.5q-63 0 -126 -2.5t-128 -7.5v-168q0 -60 1 -115.5t3 -103.5q65 2 138.5 2h148.5t144 -0.5t123 -0.5q62 -1 118 -1q-1 -14 -2 -31q-1 -14 -1.5 -34t-0.5 -44q0 -31 1.5 -67t4.5 -74q-39 2 -79.5 2h-78.5q-239 0 -473.5 -7.5t-472.5 -23.5
q0 30 1 84t2.5 126.5t4 159t4.5 180.5t4.5 192t4 193.5t2.5 184t1 164.5q0 73 -0.5 129.5t-3.5 94.5q103 0 206 -1.5t208 -1.5q158 0 317 5t326 22q-5 -34 -6.5 -65.5t-1.5 -59.5q0 -27 1 -49.5t3 -38.5q2 -18 4 -33q-117 -6 -231 -10q-49 -2 -101.5 -3.5l-105 -3t-102 -2.5
t-91.5 -1q-2 -48 -5 -104q-2 -48 -4.5 -113t-4.5 -140q122 2 246.5 8t261.5 17q-3 -38 -5.5 -76.5t-2.5 -79.5q0 -27 1.5 -55t6.5 -57zM602 1636q0 -22 -11.5 -41.5t-31 -34.5t-45.5 -23.5t-56 -8.5q-29 0 -55 8.5t-45 23.5t-30 34.5t-11 41.5q0 23 11 43.5t30 35.5t45 23.5
t55 8.5q30 0 56 -8.5t45.5 -23.5t31 -35.5t11.5 -43.5zM1022 1636q0 -22 -11.5 -41.5t-31 -34.5t-45.5 -23.5t-56 -8.5q-29 0 -54.5 8.5t-44.5 23.5t-30.5 34.5t-11.5 41.5q0 23 11.5 43.5t30.5 35.5t44.5 23.5t54.5 8.5q30 0 56 -8.5t45.5 -23.5t31 -35.5t11.5 -43.5z" />
    <glyph glyph-name="Egrave" unicode="&#xc8;" horiz-adv-x="1268" 
d="M1059 631q-65 5 -130 7.5t-130 2.5q-63 0 -126 -2.5t-128 -7.5v-168q0 -60 1 -115.5t3 -103.5q65 2 138.5 2h148.5t144 -0.5t123 -0.5q62 -1 118 -1q-1 -14 -2 -31q-1 -14 -1.5 -34t-0.5 -44q0 -31 1.5 -67t4.5 -74q-39 2 -79.5 2h-78.5q-239 0 -473.5 -7.5t-472.5 -23.5
q0 30 1 84t2.5 126.5t4 159t4.5 180.5t4.5 192t4 193.5t2.5 184t1 164.5q0 73 -0.5 129.5t-3.5 94.5q103 0 206 -1.5t208 -1.5q158 0 317 5t326 22q-5 -34 -6.5 -65.5t-1.5 -59.5q0 -27 1 -49.5t3 -38.5q2 -18 4 -33q-117 -6 -231 -10q-49 -2 -101.5 -3.5l-105 -3t-102 -2.5
t-91.5 -1q-2 -48 -5 -104q-2 -48 -4.5 -113t-4.5 -140q122 2 246.5 8t261.5 17q-3 -38 -5.5 -76.5t-2.5 -79.5q0 -27 1.5 -55t6.5 -57zM471 1921l258 -381l-136 -35l-360 321z" />
    <glyph glyph-name="Iacute" unicode="&#xcd;" horiz-adv-x="969" 
d="M930 1243q-129 6 -256 6h-6q0 -42 -0.5 -117.5t-0.5 -169t-1 -197.5t-1 -202t-0.5 -182.5t-0.5 -140.5h219v-252h-828v252h178q2 52 4.5 126t5.5 160t6.5 180t6 187.5t4.5 181.5t2 162q-48 -2 -95 -4.5t-95 -5.5q3 43 5.5 80.5t2.5 74.5q0 29 -1.5 58.5t-6.5 64.5
q72 -5 163 -6.5t187 -1.5t186.5 1t162.5 3q84 2 159 4v-262zM904 1865l-361 -321l-135 35l258 381z" />
    <glyph glyph-name="Icircumflex" unicode="&#xce;" horiz-adv-x="969" 
d="M930 1243q-129 6 -256 6h-6q0 -42 -0.5 -117.5t-0.5 -169t-1 -197.5t-1 -202t-0.5 -182.5t-0.5 -140.5h219v-252h-828v252h178q2 52 4.5 126t5.5 160t6.5 180t6 187.5t4.5 181.5t2 162q-48 -2 -95 -4.5t-95 -5.5q3 43 5.5 80.5t2.5 74.5q0 29 -1.5 58.5t-6.5 64.5
q72 -5 163 -6.5t187 -1.5t186.5 1t162.5 3q84 2 159 4v-262zM846 1599l-283 -61l-103 262l-98 -246h-264l231 328l306 26z" />
    <glyph glyph-name="Idieresis" unicode="&#xcf;" horiz-adv-x="969" 
d="M930 1243q-129 6 -256 6h-6q0 -42 -0.5 -117.5t-0.5 -169t-1 -197.5t-1 -202t-0.5 -182.5t-0.5 -140.5h219v-252h-828v252h178q2 52 4.5 126t5.5 160t6.5 180t6 187.5t4.5 181.5t2 162q-48 -2 -95 -4.5t-95 -5.5q3 43 5.5 80.5t2.5 74.5q0 29 -1.5 58.5t-6.5 64.5
q72 -5 163 -6.5t187 -1.5t186.5 1t162.5 3q84 2 159 4v-262zM424 1654q0 -22 -11.5 -41.5t-31 -34.5t-45.5 -23.5t-56 -8.5q-29 0 -55 8.5t-45 23.5t-30 34.5t-11 41.5q0 23 11 43.5t30 35.5t45 23.5t55 8.5q30 0 56 -8.5t45.5 -23.5t31 -35.5t11.5 -43.5zM844 1654
q0 -22 -11.5 -41.5t-31 -34.5t-45.5 -23.5t-56 -8.5q-29 0 -54.5 8.5t-44.5 23.5t-30.5 34.5t-11.5 41.5q0 23 11.5 43.5t30.5 35.5t44.5 23.5t54.5 8.5q30 0 56 -8.5t45.5 -23.5t31 -35.5t11.5 -43.5z" />
    <glyph glyph-name="Igrave" unicode="&#xcc;" horiz-adv-x="969" 
d="M930 1243q-129 6 -256 6h-6q0 -42 -0.5 -117.5t-0.5 -169t-1 -197.5t-1 -202t-0.5 -182.5t-0.5 -140.5h219v-252h-828v252h178q2 52 4.5 126t5.5 160t6.5 180t6 187.5t4.5 181.5t2 162q-48 -2 -95 -4.5t-95 -5.5q3 43 5.5 80.5t2.5 74.5q0 29 -1.5 58.5t-6.5 64.5
q72 -5 163 -6.5t187 -1.5t186.5 1t162.5 3q84 2 159 4v-262zM281 1960l258 -381l-136 -35l-360 321z" />
    <glyph glyph-name="Oacute" unicode="&#xd3;" horiz-adv-x="1589" 
d="M1044 236q6 60 11 132t8 147t4.5 147.5t1.5 132.5q0 115 -6 239.5t-19 239.5q-15 1 -36 2t-43.5 1.5t-43.5 0.5h-36q-45 0 -95.5 -2t-102.5 -6.5t-102.5 -11t-95.5 -15.5q0 -22 -0.5 -56.5t-0.5 -71t-0.5 -70t-0.5 -54.5q0 -187 12.5 -380t37.5 -375q25 -4 56.5 -7
t64.5 -4.5t65 -2.5t57 -1q28 0 62 1t69 2.5t69.5 4.5t63.5 7zM1532 723q0 -164 -55 -305t-156 -244.5t-242.5 -163t-314.5 -59.5q-75 0 -156 17.5t-159 57t-148.5 102.5t-123.5 154t-84.5 212t-31.5 276q0 152 35.5 266t93.5 195.5t133.5 134.5t155.5 84t158 43t143 12
q101 0 195.5 -18.5t177.5 -58t152 -101.5t119 -149t78.5 -200t29.5 -255zM1248 1863l-361 -321l-135 35l258 381z" />
    <glyph glyph-name="Ocircumflex" unicode="&#xd4;" horiz-adv-x="1589" 
d="M1044 236q6 60 11 132t8 147t4.5 147.5t1.5 132.5q0 115 -6 239.5t-19 239.5q-15 1 -36 2t-43.5 1.5t-43.5 0.5h-36q-45 0 -95.5 -2t-102.5 -6.5t-102.5 -11t-95.5 -15.5q0 -22 -0.5 -56.5t-0.5 -71t-0.5 -70t-0.5 -54.5q0 -187 12.5 -380t37.5 -375q25 -4 56.5 -7
t64.5 -4.5t65 -2.5t57 -1q28 0 62 1t69 2.5t69.5 4.5t63.5 7zM1532 723q0 -164 -55 -305t-156 -244.5t-242.5 -163t-314.5 -59.5q-75 0 -156 17.5t-159 57t-148.5 102.5t-123.5 154t-84.5 212t-31.5 276q0 152 35.5 266t93.5 195.5t133.5 134.5t155.5 84t158 43t143 12
q101 0 195.5 -18.5t177.5 -58t152 -101.5t119 -149t78.5 -200t29.5 -255zM1149 1601l-283 -61l-103 262l-98 -246h-264l231 328l306 26z" />
    <glyph glyph-name="Ograve" unicode="&#xd2;" horiz-adv-x="1589" 
d="M1044 236q6 60 11 132t8 147t4.5 147.5t1.5 132.5q0 115 -6 239.5t-19 239.5q-15 1 -36 2t-43.5 1.5t-43.5 0.5h-36q-45 0 -95.5 -2t-102.5 -6.5t-102.5 -11t-95.5 -15.5q0 -22 -0.5 -56.5t-0.5 -71t-0.5 -70t-0.5 -54.5q0 -187 12.5 -380t37.5 -375q25 -4 56.5 -7
t64.5 -4.5t65 -2.5t57 -1q28 0 62 1t69 2.5t69.5 4.5t63.5 7zM1532 723q0 -164 -55 -305t-156 -244.5t-242.5 -163t-314.5 -59.5q-75 0 -156 17.5t-159 57t-148.5 102.5t-123.5 154t-84.5 212t-31.5 276q0 152 35.5 266t93.5 195.5t133.5 134.5t155.5 84t158 43t143 12
q101 0 195.5 -18.5t177.5 -58t152 -101.5t119 -149t78.5 -200t29.5 -255zM523 1950l258 -381l-136 -35l-360 321z" />
    <glyph glyph-name="Uacute" unicode="&#xda;" horiz-adv-x="1552" 
d="M1460 748q-1 -107 -16 -207t-48 -189t-86 -162.5t-129 -126.5t-177 -82.5t-230 -29.5q-152 0 -277 43.5t-214 140t-138 251.5t-49 378q0 117 6 223.5t17 195.5t25.5 159.5t31.5 115.5h393q-4 -24 -11.5 -84t-15 -141t-13 -175.5t-5.5 -185.5q0 -85 2.5 -175t8 -175.5
t14 -162t20.5 -134.5q44 -6 98 -9t111 -3t113 3t104 9q8 58 13 134t8 161t4.5 174.5t1.5 173.5q0 92 -2 173.5t-6 154.5t-8.5 138t-10.5 124h383q27 -135 43 -241.5t25 -192t11.5 -152.5t2.5 -124zM1192 1808l-361 -321l-135 35l258 381z" />
    <glyph glyph-name="Ucircumflex" unicode="&#xdb;" horiz-adv-x="1552" 
d="M1460 748q-1 -107 -16 -207t-48 -189t-86 -162.5t-129 -126.5t-177 -82.5t-230 -29.5q-152 0 -277 43.5t-214 140t-138 251.5t-49 378q0 117 6 223.5t17 195.5t25.5 159.5t31.5 115.5h393q-4 -24 -11.5 -84t-15 -141t-13 -175.5t-5.5 -185.5q0 -85 2.5 -175t8 -175.5
t14 -162t20.5 -134.5q44 -6 98 -9t111 -3t113 3t104 9q8 58 13 134t8 161t4.5 174.5t1.5 173.5q0 92 -2 173.5t-6 154.5t-8.5 138t-10.5 124h383q27 -135 43 -241.5t25 -192t11.5 -152.5t2.5 -124zM1131 1552l-283 -61l-103 262l-98 -246h-264l231 328l306 26z" />
    <glyph glyph-name="Ugrave" unicode="&#xd9;" horiz-adv-x="1552" 
d="M1460 748q-1 -107 -16 -207t-48 -189t-86 -162.5t-129 -126.5t-177 -82.5t-230 -29.5q-152 0 -277 43.5t-214 140t-138 251.5t-49 378q0 117 6 223.5t17 195.5t25.5 159.5t31.5 115.5h393q-4 -24 -11.5 -84t-15 -141t-13 -175.5t-5.5 -185.5q0 -85 2.5 -175t8 -175.5
t14 -162t20.5 -134.5q44 -6 98 -9t111 -3t113 3t104 9q8 58 13 134t8 161t4.5 174.5t1.5 173.5q0 92 -2 173.5t-6 154.5t-8.5 138t-10.5 124h383q27 -135 43 -241.5t25 -192t11.5 -152.5t2.5 -124zM603 1901l258 -381l-136 -35l-360 321z" />
    <glyph glyph-name="numbersign" unicode="#" horiz-adv-x="1624" 
d="M1518 748l-304 4q-3 -35 -5.5 -69.5t-4.5 -68.5q54 3 109 7.5t110 9.5l-37 -213l-192 -4q-6 -129 -6 -262h-373l43 256l-168 -7q-5 -55 -9 -110t-7 -111h-352l38 211q-68 -2 -135 -4.5t-135 -5.5l33 194q68 0 134 0.5t134 2.5l25 165l-326 -10l27 180l321 7
q11 92 19 182.5t16 183.5h342q-18 -90 -33.5 -178t-27.5 -176q42 2 83 3.5t83 4.5q8 97 12.5 193.5t7.5 193.5h356q-18 -93 -33 -185t-26 -186q80 5 161 11t163 12zM709 588q45 2 88 3.5t88 4.5q5 38 9 76.5t7 77.5h-172q-6 -42 -10.5 -82t-9.5 -80z" />
    <glyph glyph-name="plusminus" unicode="&#xb1;" horiz-adv-x="1137" 
d="M1038 643q-185 0 -372 -6q2 -71 6 -141t10 -140l-320 -43q8 78 14 155t9 155q-74 -5 -146.5 -11t-144.5 -12v291q72 2 144.5 2.5t144.5 3.5q-3 65 -8 129t-13 127h320q-5 -62 -8.5 -123t-5.5 -123q186 9 370 27v-291zM1038 -33q-236 0 -471 -10.5t-473 -32.5v291
q237 5 472.5 12.5t471.5 30.5v-291z" />
    <glyph glyph-name="ellipsis" unicode="&#x2026;" horiz-adv-x="1616" 
d="M459 61q0 -29 -14.5 -54.5t-40 -45t-59 -30.5t-71.5 -11q-39 0 -73 11t-59 30.5t-39.5 45t-14.5 54.5q0 30 14.5 56t39.5 45.5t59 31t73 11.5q38 0 71.5 -11.5t59 -31t40 -45.5t14.5 -56zM993 61q0 -29 -14.5 -54.5t-40 -45t-59 -30.5t-70.5 -11q-39 0 -73 11t-59 30.5
t-39.5 45t-14.5 54.5q0 30 14.5 56t39.5 45.5t59 31t73 11.5q37 0 70.5 -11.5t59 -31t40 -45.5t14.5 -56zM1528 61q0 -29 -14.5 -54.5t-40 -45t-59 -30.5t-71.5 -11q-39 0 -73 11t-59 30.5t-39.5 45t-14.5 54.5q0 30 14.5 56t39.5 45.5t59 31t73 11.5q38 0 71.5 -11.5
t59 -31t40 -45.5t14.5 -56z" />
    <glyph glyph-name="nonbreakingspace" unicode="&#xa0;" horiz-adv-x="614" 
 />
    <glyph glyph-name="dotlessj" unicode="&#x237;" horiz-adv-x="555" 
d="M461 1063q-5 -191 -9 -347t-8 -281.5t-8 -221.5l-7 -168q-8 -168 -15 -254q-4 -101 -46.5 -178.5t-112 -131t-161 -81t-194.5 -27.5q-84 0 -163.5 27t-144.5 79t-110.5 127t-61.5 171l379 45q0 -60 7 -117t30 -119q62 6 126 14.5t132 22.5q8 178 13.5 353t5.5 352
q0 174 -5 346.5t-14 345.5z" />
    <glyph glyph-name="uni00AD" unicode="&#xad;" horiz-adv-x="1059" 
d="M938 602h-147t-133 -0.5t-126.5 -0.5t-127 -0.5t-135 -0.5h-150.5v291q118 0 220.5 0.5t199.5 0.5t194 0.5t205 0.5v-291z" />
    <glyph glyph-name="uni0312" unicode="&#x312;" horiz-adv-x="440" 
d="M72 1237q0 46 13 90.5t29 79.5q18 41 42 78l149 -23q-23 -31 -37 -60.5t-20 -53.5q25 -4 47 -14t38.5 -25t26 -33t9.5 -39q0 -24 -12 -44.5t-32.5 -36.5t-47.5 -25t-58 -9t-57.5 9t-46.5 25t-31.5 36.5t-11.5 44.5z" />
    <glyph glyph-name="uni0315" unicode="&#x315;" horiz-adv-x="297" 
d="M297 1370q-1 -48 -14 -92.5t-29 -79.5q-18 -40 -41 -76l-150 23q23 29 36.5 58.5t21.5 53.5q-53 8 -87 39.5t-34 73.5q0 24 12 45t32.5 36.5t47.5 24.5t58 9q30 0 57 -9t47 -24.5t31.5 -36.5t11.5 -45z" />
    <glyph glyph-name="uni0326" unicode="&#x326;" horiz-adv-x="440" 
d="M369 -213q-1 -48 -14 -92.5t-29 -79.5q-18 -40 -41 -76l-150 23q23 31 36.5 60.5t21.5 53.5q-53 8 -87 38.5t-34 72.5q0 24 11.5 44.5t32 36.5t47.5 25t58 9t58 -9t47 -25t31.5 -36.5t11.5 -44.5z" />
    <glyph glyph-name="currency" unicode="&#xa4;" horiz-adv-x="983" 
d="M612 563q3 42 3.5 82t0.5 80t-0.5 79t-3.5 81q-17 3 -33.5 3.5t-33.5 0.5q-35 0 -69 -3.5t-66 -11.5q-2 -27 -3 -53.5t-1 -52.5q0 -54 4 -107t12 -110h47q69 0 143 12zM901 993l-139 -131q17 -29 26 -65t9 -76q0 -49 -17 -92q29 -31 59.5 -60.5t61.5 -58.5l-239 -184
q-3 4 -16.5 21t-28.5 36t-28.5 35.5t-17.5 21.5q-17 -5 -34 -6.5t-35 -1.5q-44 0 -81 11.5t-69 31.5l-125 -121l-145 97l166 153q-23 54 -23 117q0 72 19 123q-38 43 -79 85.5t-83 86.5l295 104l80 -116q11 2 21.5 3t23.5 1q42 0 79.5 -9t69.5 -26l123 108z" />
    <glyph glyph-name="Amacron" unicode="&#x100;" horiz-adv-x="1542" 
d="M1360 -61l-129.5 17.5t-104 12t-94.5 6.5t-100 2q26 87 44.5 178t29.5 187q-60 2 -123 3t-125 1q-127 0 -244 -6q5 -90 14 -179.5t23 -178.5q-71 -5 -127 -9t-99 -7.5t-74 -7t-53 -6.5q-51 -7 -69 -13q-13 65 -21.5 137t-13 143.5t-6.5 139.5t-2 126q0 121 9.5 243
t36 235t73.5 210.5t123 170t184 114t256 41.5q152 0 279 -46.5t218.5 -143.5t142 -246.5t50.5 -355.5q0 -53 -2.5 -132t-12.5 -178t-29.5 -215.5t-53.5 -242.5zM688 600q87 0 173.5 3.5t164.5 12.5q2 23 2 46.5v48.5q0 152 -13.5 293t-39.5 262q-23 2 -50.5 3t-58.5 1
q-41 0 -84.5 -1.5t-85 -4t-79.5 -6.5t-66 -9q-22 -159 -32.5 -319.5t-10.5 -325.5q43 -3 88.5 -3.5t91.5 -0.5zM1122 1573h-702v211h702v-211z" />
    <glyph glyph-name="Abreve" unicode="&#x102;" horiz-adv-x="1542" 
d="M1360 -61l-129.5 17.5t-104 12t-94.5 6.5t-100 2q26 87 44.5 178t29.5 187q-60 2 -123 3t-125 1q-127 0 -244 -6q5 -90 14 -179.5t23 -178.5q-71 -5 -127 -9t-99 -7.5t-74 -7t-53 -6.5q-51 -7 -69 -13q-13 65 -21.5 137t-13 143.5t-6.5 139.5t-2 126q0 121 9.5 243
t36 235t73.5 210.5t123 170t184 114t256 41.5q152 0 279 -46.5t218.5 -143.5t142 -246.5t50.5 -355.5q0 -53 -2.5 -132t-12.5 -178t-29.5 -215.5t-53.5 -242.5zM688 600q87 0 173.5 3.5t164.5 12.5q2 23 2 46.5v48.5q0 152 -13.5 293t-39.5 262q-23 2 -50.5 3t-58.5 1
q-41 0 -84.5 -1.5t-85 -4t-79.5 -6.5t-66 -9q-22 -159 -32.5 -319.5t-10.5 -325.5q43 -3 88.5 -3.5t91.5 -0.5zM1149 1903q0 -62 -16.5 -108.5t-43 -81t-60.5 -58.5t-70 -39q-84 -36 -189 -41q-106 5 -190 39q-36 15 -70 37.5t-60.5 55.5t-42.5 78t-16 104l246 14
q0 -8 -2 -14.5t-2 -14.5q0 -83 43 -159q21 -4 45 -5.5t49 -1.5q23 0 48.5 1.5t51.5 5.5q6 24 9.5 48.5t3.5 47.5q0 25 -3.5 47.5t-9.5 44.5h279z" />
    <glyph glyph-name="Aogonek" unicode="&#x104;" horiz-adv-x="1542" 
d="M1458 -412q-54 -28 -113.5 -44.5t-125.5 -16.5q-57 0 -108.5 11t-90 33.5t-61.5 56.5t-23 81q0 35 12 70t31.5 69t45.5 65.5t54 59.5q-35 3 -70 3.5t-77 0.5q26 87 44.5 178t29.5 187q-60 2 -123 3t-125 1q-127 0 -244 -6q5 -90 14 -179.5t23 -178.5q-71 -5 -127 -9
t-99 -7.5t-74 -7t-53 -6.5q-51 -7 -69 -13q-13 65 -21.5 137t-13 143.5t-6.5 139.5t-2 126q0 121 9.5 243t36 235t73.5 210.5t123 170t184 114t256 41.5q152 0 279 -46.5t218.5 -143.5t142 -246.5t50.5 -355.5q0 -53 -2.5 -132t-12.5 -178t-29.5 -215.5t-53.5 -242.5
l-121 18q-72 -122 -90 -256q78 5 155 14.5t154 26.5v-154zM688 600q87 0 173.5 3.5t164.5 12.5q2 23 2 46.5v48.5q0 152 -13.5 293t-39.5 262q-23 2 -50.5 3t-58.5 1q-41 0 -84.5 -1.5t-85 -4t-79.5 -6.5t-66 -9q-22 -159 -32.5 -319.5t-10.5 -325.5q43 -3 88.5 -3.5
t91.5 -0.5z" />
    <glyph glyph-name="Cacute" unicode="&#x106;" horiz-adv-x="1649" 
d="M1616 870q-65 0 -123 -1.5t-116 -4.5t-119 -8t-130 -12q10 51 14.5 110t4.5 121q0 38 -1.5 76t-6.5 72q-72 20 -163 29.5t-183 9.5q-65 0 -126 -4.5t-112 -12.5q-20 -122 -29.5 -249.5t-9.5 -258.5q0 -140 10 -278t29 -273q37 -13 84 -23t98 -17t103.5 -11t101.5 -4
q34 0 65.5 1.5t59.5 6.5q14 60 22.5 133.5t8.5 147.5q0 59 -6 115q80 -8 152.5 -11.5t148.5 -3.5q98 0 215 6q-19 -109 -57 -193t-88.5 -147t-110 -108t-122 -75t-124.5 -48t-116.5 -27t-99 -11.5t-71.5 -2.5q-160 0 -278.5 32t-202.5 87t-138.5 128t-85.5 155.5t-43 169.5
t-12 169q0 187 47 337t146.5 258t253.5 170.5t368 74.5q138 0 263 -41t224.5 -120t166.5 -196t88 -268zM1325 1874l-361 -321l-135 35l258 381z" />
    <glyph glyph-name="Ccircumflex" unicode="&#x108;" horiz-adv-x="1649" 
d="M1616 870q-65 0 -123 -1.5t-116 -4.5t-119 -8t-130 -12q10 51 14.5 110t4.5 121q0 38 -1.5 76t-6.5 72q-72 20 -163 29.5t-183 9.5q-65 0 -126 -4.5t-112 -12.5q-20 -122 -29.5 -249.5t-9.5 -258.5q0 -140 10 -278t29 -273q37 -13 84 -23t98 -17t103.5 -11t101.5 -4
q34 0 65.5 1.5t59.5 6.5q14 60 22.5 133.5t8.5 147.5q0 59 -6 115q80 -8 152.5 -11.5t148.5 -3.5q98 0 215 6q-19 -109 -57 -193t-88.5 -147t-110 -108t-122 -75t-124.5 -48t-116.5 -27t-99 -11.5t-71.5 -2.5q-160 0 -278.5 32t-202.5 87t-138.5 128t-85.5 155.5t-43 169.5
t-12 169q0 187 47 337t146.5 258t253.5 170.5t368 74.5q138 0 263 -41t224.5 -120t166.5 -196t88 -268zM1199 1608l-283 -61l-103 262l-98 -246h-264l231 328l306 26z" />
    <glyph glyph-name="Cdotaccent" unicode="&#x10a;" horiz-adv-x="1649" 
d="M1616 870q-65 0 -123 -1.5t-116 -4.5t-119 -8t-130 -12q10 51 14.5 110t4.5 121q0 38 -1.5 76t-6.5 72q-72 20 -163 29.5t-183 9.5q-65 0 -126 -4.5t-112 -12.5q-20 -122 -29.5 -249.5t-9.5 -258.5q0 -140 10 -278t29 -273q37 -13 84 -23t98 -17t103.5 -11t101.5 -4
q34 0 65.5 1.5t59.5 6.5q14 60 22.5 133.5t8.5 147.5q0 59 -6 115q80 -8 152.5 -11.5t148.5 -3.5q98 0 215 6q-19 -109 -57 -193t-88.5 -147t-110 -108t-122 -75t-124.5 -48t-116.5 -27t-99 -11.5t-71.5 -2.5q-160 0 -278.5 32t-202.5 87t-138.5 128t-85.5 155.5t-43 169.5
t-12 169q0 187 47 337t146.5 258t253.5 170.5t368 74.5q138 0 263 -41t224.5 -120t166.5 -196t88 -268zM1016 1665q0 -22 -11.5 -41.5t-31 -34.5t-45.5 -23.5t-56 -8.5q-29 0 -55 8.5t-45 23.5t-30 34.5t-11 41.5q0 23 11 43.5t30 35.5t45 23.5t55 8.5q30 0 56 -8.5
t45.5 -23.5t31 -35.5t11.5 -43.5z" />
    <glyph glyph-name="Ccaron" unicode="&#x10c;" horiz-adv-x="1649" 
d="M1616 870q-65 0 -123 -1.5t-116 -4.5t-119 -8t-130 -12q10 51 14.5 110t4.5 121q0 38 -1.5 76t-6.5 72q-72 20 -163 29.5t-183 9.5q-65 0 -126 -4.5t-112 -12.5q-20 -122 -29.5 -249.5t-9.5 -258.5q0 -140 10 -278t29 -273q37 -13 84 -23t98 -17t103.5 -11t101.5 -4
q34 0 65.5 1.5t59.5 6.5q14 60 22.5 133.5t8.5 147.5q0 59 -6 115q80 -8 152.5 -11.5t148.5 -3.5q98 0 215 6q-19 -109 -57 -193t-88.5 -147t-110 -108t-122 -75t-124.5 -48t-116.5 -27t-99 -11.5t-71.5 -2.5q-160 0 -278.5 32t-202.5 87t-138.5 128t-85.5 155.5t-43 169.5
t-12 169q0 187 47 337t146.5 258t253.5 170.5t368 74.5q138 0 263 -41t224.5 -120t166.5 -196t88 -268zM451 1856l283 61l102 -262l98 246h265l-232 -328l-305 -26z" />
    <glyph glyph-name="Dcaron" unicode="&#x10e;" horiz-adv-x="1542" 
d="M1026 246q20 105 29.5 220.5t9.5 235.5q0 127 -10 252.5t-29 241.5q-56 16 -122 28q-57 11 -132.5 20t-163.5 9h-35t-36 -2v-58t0.5 -100.5t1 -134t1.5 -156.5t3 -168t5 -170t6.5 -161.5t8.5 -142.5q92 4 175.5 18t147.5 29q75 18 140 39zM430 1493q118 0 242.5 -12
t242 -43t222.5 -85t183.5 -137t124.5 -199.5t46 -273.5q0 -152 -40 -270t-108.5 -207.5t-160.5 -151.5t-196.5 -101t-216.5 -56.5t-220 -17.5q-105 0 -185 4.5t-136 9.5q-65 6 -113 14q12 196 21 391t9 392q0 97 -2.5 185t-6.5 174t-9.5 173.5t-11.5 185.5q83 16 163 20.5
t152 4.5zM397 1856l283 61l102 -262l98 246h265l-232 -328l-305 -26z" />
    <glyph glyph-name="Dcroat" unicode="&#x110;" horiz-adv-x="1575" 
d="M463 1493q118 0 242.5 -12t242 -43t222.5 -85t183.5 -137t124.5 -199.5t46 -273.5q0 -152 -40 -270t-108.5 -207.5t-160.5 -151.5t-196.5 -101t-216.5 -56.5t-220 -17.5q-105 0 -185 4.5t-136 9.5q-65 6 -114 14q10 164 18 325.5t11 325.5h-213v207h215q-1 84 -3.5 162
t-7 155.5t-9.5 157.5t-11 168q84 16 164 20.5t152 4.5zM782 618h-207q4 -124 8.5 -244t12.5 -214q92 4 175.5 18t147.5 29q75 18 140 39q20 105 29.5 220.5t9.5 235.5q0 127 -10.5 252.5t-28.5 241.5q-55 16 -122 28q-57 11 -133 20t-163 9h-35t-37 -2v-55v-95.5t0.5 -126
t1.5 -147.5h211v-209z" />
    <glyph glyph-name="Emacron" unicode="&#x112;" horiz-adv-x="1268" 
d="M1059 631q-65 5 -130 7.5t-130 2.5q-63 0 -126 -2.5t-128 -7.5v-168q0 -60 1 -115.5t3 -103.5q65 2 138.5 2h148.5t144 -0.5t123 -0.5q62 -1 118 -1q-1 -14 -2 -31q-1 -14 -1.5 -34t-0.5 -44q0 -31 1.5 -67t4.5 -74q-39 2 -79.5 2h-78.5q-239 0 -473.5 -7.5t-472.5 -23.5
q0 30 1 84t2.5 126.5t4 159t4.5 180.5t4.5 192t4 193.5t2.5 184t1 164.5q0 73 -0.5 129.5t-3.5 94.5q103 0 206 -1.5t208 -1.5q158 0 317 5t326 22q-5 -34 -6.5 -65.5t-1.5 -59.5q0 -27 1 -49.5t3 -38.5q2 -18 4 -33q-117 -6 -231 -10q-49 -2 -101.5 -3.5l-105 -3t-102 -2.5
t-91.5 -1q-2 -48 -5 -104q-2 -48 -4.5 -113t-4.5 -140q122 2 246.5 8t261.5 17q-3 -38 -5.5 -76.5t-2.5 -79.5q0 -27 1.5 -55t6.5 -57zM985 1544h-702v211h702v-211z" />
    <glyph glyph-name="Ebreve" unicode="&#x114;" horiz-adv-x="1268" 
d="M1059 631q-65 5 -130 7.5t-130 2.5q-63 0 -126 -2.5t-128 -7.5v-168q0 -60 1 -115.5t3 -103.5q65 2 138.5 2h148.5t144 -0.5t123 -0.5q62 -1 118 -1q-1 -14 -2 -31q-1 -14 -1.5 -34t-0.5 -44q0 -31 1.5 -67t4.5 -74q-39 2 -79.5 2h-78.5q-239 0 -473.5 -7.5t-472.5 -23.5
q0 30 1 84t2.5 126.5t4 159t4.5 180.5t4.5 192t4 193.5t2.5 184t1 164.5q0 73 -0.5 129.5t-3.5 94.5q103 0 206 -1.5t208 -1.5q158 0 317 5t326 22q-5 -34 -6.5 -65.5t-1.5 -59.5q0 -27 1 -49.5t3 -38.5q2 -18 4 -33q-117 -6 -231 -10q-49 -2 -101.5 -3.5l-105 -3t-102 -2.5
t-91.5 -1q-2 -48 -5 -104q-2 -48 -4.5 -113t-4.5 -140q122 2 246.5 8t261.5 17q-3 -38 -5.5 -76.5t-2.5 -79.5q0 -27 1.5 -55t6.5 -57zM1012 1843q0 -62 -16.5 -108.5t-43 -81t-60.5 -58.5t-70 -39q-84 -36 -189 -41q-106 5 -190 39q-36 15 -70 37.5t-60.5 55.5t-42.5 78
t-16 104l246 14q0 -8 -2 -14.5t-2 -14.5q0 -83 43 -159q21 -4 45 -5.5t49 -1.5q23 0 48.5 1.5t51.5 5.5q6 24 9.5 48.5t3.5 47.5q0 25 -3.5 47.5t-9.5 44.5h279z" />
    <glyph glyph-name="Edotaccent" unicode="&#x116;" horiz-adv-x="1268" 
d="M1059 631q-65 5 -130 7.5t-130 2.5q-63 0 -126 -2.5t-128 -7.5v-168q0 -60 1 -115.5t3 -103.5q65 2 138.5 2h148.5t144 -0.5t123 -0.5q62 -1 118 -1q-1 -14 -2 -31q-1 -14 -1.5 -34t-0.5 -44q0 -31 1.5 -67t4.5 -74q-39 2 -79.5 2h-78.5q-239 0 -473.5 -7.5t-472.5 -23.5
q0 30 1 84t2.5 126.5t4 159t4.5 180.5t4.5 192t4 193.5t2.5 184t1 164.5q0 73 -0.5 129.5t-3.5 94.5q103 0 206 -1.5t208 -1.5q158 0 317 5t326 22q-5 -34 -6.5 -65.5t-1.5 -59.5q0 -27 1 -49.5t3 -38.5q2 -18 4 -33q-117 -6 -231 -10q-49 -2 -101.5 -3.5l-105 -3t-102 -2.5
t-91.5 -1q-2 -48 -5 -104q-2 -48 -4.5 -113t-4.5 -140q122 2 246.5 8t261.5 17q-3 -38 -5.5 -76.5t-2.5 -79.5q0 -27 1.5 -55t6.5 -57zM777 1632q0 -22 -11.5 -41.5t-31 -34.5t-45.5 -23.5t-56 -8.5q-29 0 -55 8.5t-45 23.5t-30 34.5t-11 41.5q0 23 11 43.5t30 35.5t45 23.5
t55 8.5q30 0 56 -8.5t45.5 -23.5t31 -35.5t11.5 -43.5z" />
    <glyph glyph-name="Eogonek" unicode="&#x118;" horiz-adv-x="1268" 
d="M1223 -412q-54 -28 -114 -44.5t-126 -16.5q-57 0 -108.5 11t-90 33.5t-61.5 56.5t-23 81q0 39 14 77t37.5 74.5t53 70.5t61.5 65q-189 -3 -373.5 -10.5t-373.5 -20.5q0 30 1 84t2.5 126.5t4 159t4.5 180.5t4.5 192t4 193.5t2.5 184t1 164.5q0 73 -0.5 129.5t-3.5 94.5
q103 0 206 -1.5t208 -1.5q158 0 317 5t326 22q-5 -34 -6.5 -65.5t-1.5 -59.5q0 -27 1 -49.5t3 -38.5q2 -18 4 -33q-117 -6 -231 -10q-49 -2 -101.5 -3.5l-105 -3t-102 -2.5t-91.5 -1q-2 -48 -5 -104q-2 -48 -4.5 -113t-4.5 -140q122 2 246.5 8t261.5 17q-3 -38 -5.5 -76.5
t-2.5 -79.5q0 -27 1.5 -55t6.5 -57q-65 5 -130 7.5t-130 2.5q-63 0 -126 -2.5t-128 -7.5v-168q0 -60 1 -115.5t3 -103.5q65 2 138.5 2h148.5t144 -0.5t123 -0.5q62 -1 118 -1q-1 -14 -2 -31q-1 -14 -1.5 -34t-0.5 -44q0 -31 1.5 -67t4.5 -74q-39 2 -79.5 2h-78.5h-35
q-46 -68 -76 -142.5t-41 -152.5q79 5 155.5 14.5t154.5 26.5v-154z" />
    <glyph glyph-name="Ecaron" unicode="&#x11a;" horiz-adv-x="1268" 
d="M1059 631q-65 5 -130 7.5t-130 2.5q-63 0 -126 -2.5t-128 -7.5v-168q0 -60 1 -115.5t3 -103.5q65 2 138.5 2h148.5t144 -0.5t123 -0.5q62 -1 118 -1q-1 -14 -2 -31q-1 -14 -1.5 -34t-0.5 -44q0 -31 1.5 -67t4.5 -74q-39 2 -79.5 2h-78.5q-239 0 -473.5 -7.5t-472.5 -23.5
q0 30 1 84t2.5 126.5t4 159t4.5 180.5t4.5 192t4 193.5t2.5 184t1 164.5q0 73 -0.5 129.5t-3.5 94.5q103 0 206 -1.5t208 -1.5q158 0 317 5t326 22q-5 -34 -6.5 -65.5t-1.5 -59.5q0 -27 1 -49.5t3 -38.5q2 -18 4 -33q-117 -6 -231 -10q-49 -2 -101.5 -3.5l-105 -3t-102 -2.5
t-91.5 -1q-2 -48 -5 -104q-2 -48 -4.5 -113t-4.5 -140q122 2 246.5 8t261.5 17q-3 -38 -5.5 -76.5t-2.5 -79.5q0 -27 1.5 -55t6.5 -57zM260 1856l283 61l102 -262l98 246h265l-232 -328l-305 -26z" />
    <glyph glyph-name="Gcircumflex" unicode="&#x11c;" horiz-adv-x="1647" 
d="M1618 743q-5 -148 -41 -261t-91.5 -196t-126 -140.5t-144.5 -94.5t-145 -57.5t-129 -30t-97 -11t-47 -1.5q-140 0 -248.5 27t-190.5 76t-138.5 117.5t-92 152t-51 179.5t-15.5 199q0 172 52 313.5t152.5 245t247.5 164.5t337 72q90 0 176.5 -12.5t164 -41t144.5 -73.5
t119 -109.5t87 -151t48 -196.5q-62 -2 -118.5 -6.5t-111.5 -11t-111.5 -14.5t-119.5 -17q8 35 11.5 78.5t3.5 89.5q0 54 -4.5 108.5t-14.5 102.5q-52 8 -121 11t-143 3q-83 0 -162 -3t-139 -11q-29 -134 -44 -285t-15 -309q0 -114 7.5 -226t22.5 -220q29 -3 65 -4.5t77 -1.5
q57 0 120 3t124.5 8.5t120 14t106.5 19.5q3 28 5.5 63t2.5 72q0 34 -1.5 66.5t-6.5 58.5q-74 -1 -143 -5q-29 -2 -60.5 -4t-61.5 -4.5t-56.5 -5.5t-47.5 -6q21 96 21 199v33.5t-2 33.5q190 -12 387 -12q106 0 214 3t224 9zM1197 1608l-283 -61l-103 262l-98 -246h-264
l231 328l306 26z" />
    <glyph glyph-name="Gbreve" unicode="&#x11e;" horiz-adv-x="1647" 
d="M1618 743q-5 -148 -41 -261t-91.5 -196t-126 -140.5t-144.5 -94.5t-145 -57.5t-129 -30t-97 -11t-47 -1.5q-140 0 -248.5 27t-190.5 76t-138.5 117.5t-92 152t-51 179.5t-15.5 199q0 172 52 313.5t152.5 245t247.5 164.5t337 72q90 0 176.5 -12.5t164 -41t144.5 -73.5
t119 -109.5t87 -151t48 -196.5q-62 -2 -118.5 -6.5t-111.5 -11t-111.5 -14.5t-119.5 -17q8 35 11.5 78.5t3.5 89.5q0 54 -4.5 108.5t-14.5 102.5q-52 8 -121 11t-143 3q-83 0 -162 -3t-139 -11q-29 -134 -44 -285t-15 -309q0 -114 7.5 -226t22.5 -220q29 -3 65 -4.5t77 -1.5
q57 0 120 3t124.5 8.5t120 14t106.5 19.5q3 28 5.5 63t2.5 72q0 34 -1.5 66.5t-6.5 58.5q-74 -1 -143 -5q-29 -2 -60.5 -4t-61.5 -4.5t-56.5 -5.5t-47.5 -6q21 96 21 199v33.5t-2 33.5q190 -12 387 -12q106 0 214 3t224 9zM1202 1882q0 -62 -16.5 -108.5t-43 -81
t-60.5 -58.5t-70 -39q-84 -36 -189 -41q-106 5 -190 39q-36 15 -70 37.5t-60.5 55.5t-42.5 78t-16 104l246 14q0 -8 -2 -14.5t-2 -14.5q0 -83 43 -159q21 -4 45 -5.5t49 -1.5q23 0 48.5 1.5t51.5 5.5q6 24 9.5 48.5t3.5 47.5q0 25 -3.5 47.5t-9.5 44.5h279z" />
    <glyph glyph-name="Gdotaccent" unicode="&#x120;" horiz-adv-x="1647" 
d="M1618 743q-5 -148 -41 -261t-91.5 -196t-126 -140.5t-144.5 -94.5t-145 -57.5t-129 -30t-97 -11t-47 -1.5q-140 0 -248.5 27t-190.5 76t-138.5 117.5t-92 152t-51 179.5t-15.5 199q0 172 52 313.5t152.5 245t247.5 164.5t337 72q90 0 176.5 -12.5t164 -41t144.5 -73.5
t119 -109.5t87 -151t48 -196.5q-62 -2 -118.5 -6.5t-111.5 -11t-111.5 -14.5t-119.5 -17q8 35 11.5 78.5t3.5 89.5q0 54 -4.5 108.5t-14.5 102.5q-52 8 -121 11t-143 3q-83 0 -162 -3t-139 -11q-29 -134 -44 -285t-15 -309q0 -114 7.5 -226t22.5 -220q29 -3 65 -4.5t77 -1.5
q57 0 120 3t124.5 8.5t120 14t106.5 19.5q3 28 5.5 63t2.5 72q0 34 -1.5 66.5t-6.5 58.5q-74 -1 -143 -5q-29 -2 -60.5 -4t-61.5 -4.5t-56.5 -5.5t-47.5 -6q21 96 21 199v33.5t-2 33.5q190 -12 387 -12q106 0 214 3t224 9zM1008 1660q0 -22 -11.5 -41.5t-31 -34.5
t-45.5 -23.5t-56 -8.5q-29 0 -55 8.5t-45 23.5t-30 34.5t-11 41.5q0 23 11 43.5t30 35.5t45 23.5t55 8.5q30 0 56 -8.5t45.5 -23.5t31 -35.5t11.5 -43.5z" />
    <glyph glyph-name="Gcommaaccent" unicode="&#x122;" horiz-adv-x="1647" 
d="M1618 743q-5 -148 -41 -261t-91.5 -196t-126 -140.5t-144.5 -94.5t-145 -57.5t-129 -30t-97 -11t-47 -1.5q-140 0 -248.5 27t-190.5 76t-138.5 117.5t-92 152t-51 179.5t-15.5 199q0 172 52 313.5t152.5 245t247.5 164.5t337 72q90 0 176.5 -12.5t164 -41t144.5 -73.5
t119 -109.5t87 -151t48 -196.5q-62 -2 -118.5 -6.5t-111.5 -11t-111.5 -14.5t-119.5 -17q8 35 11.5 78.5t3.5 89.5q0 54 -4.5 108.5t-14.5 102.5q-52 8 -121 11t-143 3q-83 0 -162 -3t-139 -11q-29 -134 -44 -285t-15 -309q0 -114 7.5 -226t22.5 -220q29 -3 65 -4.5t77 -1.5
q57 0 120 3t124.5 8.5t120 14t106.5 19.5q3 28 5.5 63t2.5 72q0 34 -1.5 66.5t-6.5 58.5q-74 -1 -143 -5q-29 -2 -60.5 -4t-61.5 -4.5t-56.5 -5.5t-47.5 -6q21 96 21 199v33.5t-2 33.5q190 -12 387 -12q106 0 214 3t224 9zM936 -241q-1 -48 -14 -92.5t-29 -79.5
q-18 -40 -41 -76l-150 23q23 31 36.5 60.5t21.5 53.5q-53 8 -87 38.5t-34 72.5q0 24 11.5 44.5t32 36.5t47.5 25t58 9t58 -9t47 -25t31.5 -36.5t11.5 -44.5z" />
    <glyph glyph-name="Hcircumflex" unicode="&#x124;" horiz-adv-x="1544" 
d="M1438 1466q-19 -309 -28 -612t-9 -606v-135t2 -136q-56 0 -117 -1.5t-112 -3.5q-60 -3 -117 -5q8 124 13.5 247.5t8.5 248.5q-17 0 -34 1t-35 1q-103 0 -215 -10t-217 -21q5 -115 11 -228.5t15 -228.5q-46 2 -88 3.5t-84 1.5q-78 0 -156.5 -4.5t-169.5 -10.5
q20 187 30.5 372.5t10.5 375.5q0 187 -10.5 372t-30.5 377q60 0 114.5 1t111 3t119.5 6.5t141 10.5q-11 -159 -17 -318.5t-6 -320.5v-174h66q109 0 224 4.5t226 13.5q0 59 1 118t1 118q0 133 -2.5 265t-7.5 265h95t74.5 1t80 3t111.5 6zM1145 1608l-283 -61l-103 262
l-98 -246h-264l231 328l306 26z" />
    <glyph glyph-name="Hbar" unicode="&#x126;" horiz-adv-x="1544" 
d="M1438 1466q-6 -97 -11 -193l-10 -192q34 2 62 4.5t51 6.5l-17 -291l-104 8q-5 -142 -6.5 -281.5t-1.5 -279.5v-135t2 -136q-56 0 -117 -1.5t-112 -3.5q-60 -3 -117 -5q8 124 13.5 247.5t8.5 248.5q-17 0 -34 1t-35 1q-103 0 -215 -10t-217 -21q5 -115 11 -228.5
t15 -228.5q-46 2 -88 3.5t-84 1.5q-78 0 -156.5 -4.5t-169.5 -10.5q20 187 30.5 372.5t10.5 375.5v94q-38 -3 -71.5 -5t-61.5 -5l-14 291q29 -4 63 -6.5t74 -4.5q-6 96 -13.5 191t-17.5 194q60 0 114.5 1t111 3t119.5 6.5t141 10.5q-8 -105 -13.5 -209.5t-7.5 -210.5
q130 -2 262.5 -0.5t253.5 4.5q-2 97 -4.5 193.5t-5.5 193.5h95t74.5 1t80 3t111.5 6zM1087 821q-123 3 -255.5 3.5t-262.5 -1.5v-151h66q109 0 224 4.5t226 13.5v65.5t2 65.5z" />
    <glyph glyph-name="Itilde" unicode="&#x128;" horiz-adv-x="969" 
d="M930 1243q-129 6 -256 6h-6q0 -42 -0.5 -117.5t-0.5 -169t-1 -197.5t-1 -202t-0.5 -182.5t-0.5 -140.5h219v-252h-828v252h178q2 52 4.5 126t5.5 160t6.5 180t6 187.5t4.5 181.5t2 162q-48 -2 -95 -4.5t-95 -5.5q3 43 5.5 80.5t2.5 74.5q0 29 -1.5 58.5t-6.5 64.5
q72 -5 163 -6.5t187 -1.5t186.5 1t162.5 3q84 2 159 4v-262zM915 1921q2 -20 4.5 -38t2.5 -35q0 -51 -12.5 -89t-33 -66.5t-46.5 -47.5t-53 -32q-63 -30 -144 -34q-53 2 -100 18q-40 13 -78 42t-54 82h-98q-6 -19 -8 -37.5t-2 -38.5q0 -17 1.5 -33t6.5 -33l-256 21
q0 56 13.5 99t36 74.5t51 53.5t58.5 36q70 33 160 38q1 0 18 -1t43 -6t55.5 -15.5t55.5 -30.5t43.5 -51t18.5 -76h92q2 14 2 26.5v24.5q0 37 -6.5 74.5t-22.5 74.5h252z" />
    <glyph glyph-name="Imacron" unicode="&#x12a;" horiz-adv-x="969" 
d="M930 1243q-129 6 -256 6h-6q0 -42 -0.5 -117.5t-0.5 -169t-1 -197.5t-1 -202t-0.5 -182.5t-0.5 -140.5h219v-252h-828v252h178q2 52 4.5 126t5.5 160t6.5 180t6 187.5t4.5 181.5t2 162q-48 -2 -95 -4.5t-95 -5.5q3 43 5.5 80.5t2.5 74.5q0 29 -1.5 58.5t-6.5 64.5
q72 -5 163 -6.5t187 -1.5t186.5 1t162.5 3q84 2 159 4v-262zM835 1579h-702v211h702v-211z" />
    <glyph glyph-name="Ibreve" unicode="&#x12c;" horiz-adv-x="969" 
d="M930 1243q-129 6 -256 6h-6q0 -42 -0.5 -117.5t-0.5 -169t-1 -197.5t-1 -202t-0.5 -182.5t-0.5 -140.5h219v-252h-828v252h178q2 52 4.5 126t5.5 160t6.5 180t6 187.5t4.5 181.5t2 162q-48 -2 -95 -4.5t-95 -5.5q3 43 5.5 80.5t2.5 74.5q0 29 -1.5 58.5t-6.5 64.5
q72 -5 163 -6.5t187 -1.5t186.5 1t162.5 3q84 2 159 4v-262zM862 1903q0 -62 -16.5 -108.5t-43 -81t-60.5 -58.5t-70 -39q-84 -36 -189 -41q-106 5 -190 39q-36 15 -70 37.5t-60.5 55.5t-42.5 78t-16 104l246 14q0 -8 -2 -14.5t-2 -14.5q0 -83 43 -159q21 -4 45 -5.5
t49 -1.5q23 0 48.5 1.5t51.5 5.5q6 24 9.5 48.5t3.5 47.5q0 25 -3.5 47.5t-9.5 44.5h279z" />
    <glyph glyph-name="Iogonek" unicode="&#x12e;" horiz-adv-x="969" 
d="M727 -412q-54 -28 -114 -44.5t-126 -16.5q-57 0 -108 11t-89.5 33.5t-61.5 56.5t-23 81q0 38 13.5 75t36 72.5t51 68.5t59.5 63h-310v252h178q2 52 4.5 126t5.5 160t6.5 180t6 187.5t4.5 181.5t2 162q-48 -2 -95 -4.5t-95 -5.5q3 43 5.5 80.5t2.5 74.5q0 29 -1.5 58.5
t-6.5 64.5q72 -5 163 -6.5t187 -1.5t186.5 1t162.5 3q84 2 159 4v-262q-129 6 -256 6h-6q0 -42 -0.5 -117.5t-0.5 -169t-1 -197.5t-1 -202t-0.5 -182.5t-0.5 -140.5h219v-252h-355q-43 -66 -72 -139t-38 -148q78 5 155 14.5t154 26.5v-154z" />
    <glyph glyph-name="Idotaccent" unicode="&#x130;" horiz-adv-x="969" 
d="M930 1243q-129 6 -256 6h-6q0 -42 -0.5 -117.5t-0.5 -169t-1 -197.5t-1 -202t-0.5 -182.5t-0.5 -140.5h219v-252h-828v252h178q2 52 4.5 126t5.5 160t6.5 180t6 187.5t4.5 181.5t2 162q-48 -2 -95 -4.5t-95 -5.5q3 43 5.5 80.5t2.5 74.5q0 29 -1.5 58.5t-6.5 64.5
q72 -5 163 -6.5t187 -1.5t186.5 1t162.5 3q84 2 159 4v-262zM627 1669q0 -22 -11.5 -41.5t-31 -34.5t-45.5 -23.5t-56 -8.5q-29 0 -55 8.5t-45 23.5t-30 34.5t-11 41.5q0 23 11 43.5t30 35.5t45 23.5t55 8.5q30 0 56 -8.5t45.5 -23.5t31 -35.5t11.5 -43.5z" />
    <glyph glyph-name="IJ" unicode="&#x132;" horiz-adv-x="2324" 
d="M930 1243q-129 6 -256 6h-6q0 -42 -0.5 -117.5t-0.5 -169t-1 -197.5t-1 -202t-0.5 -182.5t-0.5 -140.5h219v-252h-828v252h178q2 52 4.5 126t5.5 160t6.5 180t6 187.5t4.5 181.5t2 162q-48 -2 -95 -4.5t-95 -5.5q3 43 5.5 80.5t2.5 74.5q0 29 -1.5 58.5t-6.5 64.5
q72 -5 163 -6.5t187 -1.5t186.5 1t162.5 3q84 2 159 4v-262zM2228 692q-2 -150 -42.5 -283.5t-122.5 -234.5t-206 -160t-293 -59q-147 0 -257.5 36.5t-183.5 113t-109.5 195.5t-36.5 284q0 37 1.5 75t6.5 76q57 -3 102 -5.5t88 -2.5q44 0 90 3t109 9q-2 -46 -3 -94
q-2 -42 -2.5 -93.5t-0.5 -102.5q0 -60 1.5 -112t6.5 -77q41 0 94.5 1t110.5 3.5t113 6t102 8.5q18 117 25.5 255t7.5 283q0 113 -3 224t-8 214q-29 0 -64 -1.5t-71.5 -4.5t-72 -8t-66.5 -12l-18 276q115 -6 229 -6q102 0 206 4.5t220 14.5q14 -166 23 -314.5t14 -263.5
q6 -134 10 -248z" />
    <glyph glyph-name="Jcircumflex" unicode="&#x134;" horiz-adv-x="1376" 
d="M1280 692q-2 -150 -42.5 -283.5t-122.5 -234.5t-206 -160t-293 -59q-147 0 -257.5 36.5t-183.5 113t-109.5 195.5t-36.5 284q0 37 1.5 75t6.5 76q57 -3 102 -5.5t88 -2.5q44 0 90 3t109 9q-2 -46 -3 -94q-2 -42 -2.5 -93.5t-0.5 -102.5q0 -60 1.5 -112t6.5 -77
q41 0 94.5 1t110.5 3.5t113 6t102 8.5q18 117 25.5 255t7.5 283q0 113 -3 224t-8 214q-29 0 -64 -1.5t-71.5 -4.5t-72 -8t-66.5 -12l-18 276q115 -6 229 -6q102 0 206 4.5t220 14.5q14 -166 23 -314.5t14 -263.5q6 -134 10 -248zM1291 1608l-283 -61l-103 262l-98 -246h-264
l231 328l306 26z" />
    <glyph glyph-name="Kcommaaccent" unicode="&#x136;" horiz-adv-x="1491" 
d="M1028 -53q-105 159 -229 322t-248 333v-620l-436 -19q14 196 22 393t8 400q0 358 -30 714h436v-686l655 686l291 -71l-584 -631q141 -189 249.5 -330t183.5 -237q87 -112 151 -191zM893 -213q-1 -48 -14 -92.5t-29 -79.5q-18 -40 -41 -76l-150 23q23 31 36.5 60.5
t21.5 53.5q-53 8 -87 38.5t-34 72.5q0 24 11.5 44.5t32 36.5t47.5 25t58 9t58 -9t47 -25t31.5 -36.5t11.5 -44.5z" />
    <glyph glyph-name="Lacute" unicode="&#x139;" horiz-adv-x="1174" 
d="M1157 -35q-137 9 -276 14t-279 5q-119 0 -238 -4t-241 -15q8 180 12 357.5t4 357.5q0 201 -4 400.5t-12 394.5h442q-4 -237 -8 -461q-2 -96 -3 -198t-2.5 -201t-2 -189.5t-0.5 -163.5l608 17v-314zM834 1874l-361 -321l-135 35l258 381z" />
    <glyph glyph-name="Lcommaaccent" unicode="&#x13b;" horiz-adv-x="1174" 
d="M1157 -35q-137 9 -276 14t-279 5q-119 0 -238 -4t-241 -15q8 180 12 357.5t4 357.5q0 201 -4 400.5t-12 394.5h442q-4 -237 -8 -461q-2 -96 -3 -198t-2.5 -201t-2 -189.5t-0.5 -163.5l608 17v-314zM736 -213q-1 -48 -14 -92.5t-29 -79.5q-18 -40 -41 -76l-150 23
q23 31 36.5 60.5t21.5 53.5q-53 8 -87 38.5t-34 72.5q0 24 11.5 44.5t32 36.5t47.5 25t58 9t58 -9t47 -25t31.5 -36.5t11.5 -44.5z" />
    <glyph glyph-name="Ldot" unicode="&#x13f;" horiz-adv-x="1487" 
d="M1157 -35q-137 9 -276 14t-279 5q-119 0 -238 -4t-241 -15q8 180 12 357.5t4 357.5q0 201 -4 400.5t-12 394.5h442q-4 -237 -8 -461q-2 -96 -3 -198t-2.5 -201t-2 -189.5t-0.5 -163.5l608 17v-314zM1391 758q0 -29 -14.5 -55t-40 -45.5t-59 -30.5t-70.5 -11
q-39 0 -73.5 11t-59.5 30.5t-39.5 45.5t-14.5 55q0 30 14.5 56t39.5 45.5t59.5 30.5t73.5 11q37 0 70.5 -11t59 -30.5t40 -45.5t14.5 -56z" />
    <glyph glyph-name="Lcaron" unicode="&#x13d;" horiz-adv-x="1174" 
d="M1157 -35q-137 9 -276 14t-279 5q-119 0 -238 -4t-241 -15q8 180 12 357.5t4 357.5q0 201 -4 400.5t-12 394.5h442q-4 -237 -8 -461q-2 -96 -3 -198t-2.5 -201t-2 -189.5t-0.5 -163.5l608 17v-314zM936 1581q-1 -48 -14 -92.5t-29 -79.5q-18 -40 -41 -76l-150 23
q23 29 36.5 58.5t21.5 53.5q-53 8 -87 39.5t-34 73.5q0 24 12 45t32.5 36.5t47.5 24.5t58 9q30 0 57 -9t47 -24.5t31.5 -36.5t11.5 -45z" />
    <glyph glyph-name="Nacute" unicode="&#x143;" horiz-adv-x="1655" 
d="M1593 1542q-34 -300 -60 -588q-11 -123 -22 -255t-20 -261t-15 -249.5t-6 -219.5q-75 -8 -141.5 -11t-134.5 -3q-35 0 -73 1t-79 3l-567 1165q1 -69 2.5 -155t3.5 -179.5t4.5 -190.5t4.5 -187q4 -212 10 -435q-61 0 -126 -2q-56 -2 -124.5 -5.5t-136.5 -10.5
q7 100 12 226.5t8.5 266t5.5 283.5t2 279q0 140 -2.5 261t-5.5 206q81 -6 155 -8.5t148 -2.5q75 0 150.5 2.5t158.5 8.5q45 -127 100 -244t113.5 -231.5t117.5 -230t114 -238.5q0 66 1.5 144t3.5 161t4 167t5 162q5 182 13 371q55 -5 97.5 -7.5t84.5 -2.5t87 2.5t107 7.5z
M1229 1874l-361 -321l-135 35l258 381z" />
    <glyph glyph-name="Ncommaaccent" unicode="&#x145;" horiz-adv-x="1655" 
d="M1593 1542q-34 -300 -60 -588q-11 -123 -22 -255t-20 -261t-15 -249.5t-6 -219.5q-75 -8 -141.5 -11t-134.5 -3q-35 0 -73 1t-79 3l-567 1165q1 -69 2.5 -155t3.5 -179.5t4.5 -190.5t4.5 -187q4 -212 10 -435q-61 0 -126 -2q-56 -2 -124.5 -5.5t-136.5 -10.5
q7 100 12 226.5t8.5 266t5.5 283.5t2 279q0 140 -2.5 261t-5.5 206q81 -6 155 -8.5t148 -2.5q75 0 150.5 2.5t158.5 8.5q45 -127 100 -244t113.5 -231.5t117.5 -230t114 -238.5q0 66 1.5 144t3.5 161t4 167t5 162q5 182 13 371q55 -5 97.5 -7.5t84.5 -2.5t87 2.5t107 7.5z
M975 -213q-1 -48 -14 -92.5t-29 -79.5q-18 -40 -41 -76l-150 23q23 31 36.5 60.5t21.5 53.5q-53 8 -87 38.5t-34 72.5q0 24 11.5 44.5t32 36.5t47.5 25t58 9t58 -9t47 -25t31.5 -36.5t11.5 -44.5z" />
    <glyph glyph-name="Ncaron" unicode="&#x147;" horiz-adv-x="1655" 
d="M1593 1542q-34 -300 -60 -588q-11 -123 -22 -255t-20 -261t-15 -249.5t-6 -219.5q-75 -8 -141.5 -11t-134.5 -3q-35 0 -73 1t-79 3l-567 1165q1 -69 2.5 -155t3.5 -179.5t4.5 -190.5t4.5 -187q4 -212 10 -435q-61 0 -126 -2q-56 -2 -124.5 -5.5t-136.5 -10.5
q7 100 12 226.5t8.5 266t5.5 283.5t2 279q0 140 -2.5 261t-5.5 206q81 -6 155 -8.5t148 -2.5q75 0 150.5 2.5t158.5 8.5q45 -127 100 -244t113.5 -231.5t117.5 -230t114 -238.5q0 66 1.5 144t3.5 161t4 167t5 162q5 182 13 371q55 -5 97.5 -7.5t84.5 -2.5t87 2.5t107 7.5z
M453 1856l283 61l102 -262l98 246h265l-232 -328l-305 -26z" />
    <glyph glyph-name="Eng" unicode="&#x14a;" horiz-adv-x="1655" 
d="M1593 1542q-29 -300 -55 -588q-11 -123 -22 -255t-20 -261t-16 -249.5t-10 -219.5q-7 -222 -50.5 -383t-127.5 -265t-209 -154t-295 -50q-147 0 -257.5 41.5t-183.5 113.5t-109.5 168t-36.5 204q0 37 1.5 75t6.5 76q57 -3 102 -5.5t88 -2.5q44 0 90 3t109 9
q-2 -45 -2 -109t1 -124q1 -70 3 -144q41 0 94.5 1.5t110.5 3.5t113 5.5t102 8.5q17 112 23 245t-1 273l-567 1165q1 -69 2.5 -155t3.5 -179.5t4.5 -190.5t4.5 -187q4 -212 10 -435q-61 0 -126 -2q-56 -2 -124.5 -5.5t-136.5 -10.5q7 100 12 226.5t8.5 266t5.5 283.5t2 279
q0 140 -2.5 261t-5.5 206q81 -6 155 -8.5t148 -2.5q75 0 150.5 2.5t158.5 8.5q45 -127 100 -244t113.5 -231.5t117.5 -230t114 -238.5q0 66 1.5 144t3.5 161t4 167t5 162q5 182 13 371q55 -5 97.5 -7.5t84.5 -2.5t87 2.5t107 7.5z" />
    <glyph glyph-name="Omacron" unicode="&#x14c;" horiz-adv-x="1589" 
d="M1044 236q6 60 11 132t8 147t4.5 147.5t1.5 132.5q0 115 -6 239.5t-19 239.5q-15 1 -36 2t-43.5 1.5t-43.5 0.5h-36q-45 0 -95.5 -2t-102.5 -6.5t-102.5 -11t-95.5 -15.5q0 -22 -0.5 -56.5t-0.5 -71t-0.5 -70t-0.5 -54.5q0 -187 12.5 -380t37.5 -375q25 -4 56.5 -7
t64.5 -4.5t65 -2.5t57 -1q28 0 62 1t69 2.5t69.5 4.5t63.5 7zM1532 723q0 -164 -55 -305t-156 -244.5t-242.5 -163t-314.5 -59.5q-75 0 -156 17.5t-159 57t-148.5 102.5t-123.5 154t-84.5 212t-31.5 276q0 152 35.5 266t93.5 195.5t133.5 134.5t155.5 84t158 43t143 12
q101 0 195.5 -18.5t177.5 -58t152 -101.5t119 -149t78.5 -200t29.5 -255zM1144 1562h-702v211h702v-211z" />
    <glyph glyph-name="Obreve" unicode="&#x14e;" horiz-adv-x="1589" 
d="M1044 236q6 60 11 132t8 147t4.5 147.5t1.5 132.5q0 115 -6 239.5t-19 239.5q-15 1 -36 2t-43.5 1.5t-43.5 0.5h-36q-45 0 -95.5 -2t-102.5 -6.5t-102.5 -11t-95.5 -15.5q0 -22 -0.5 -56.5t-0.5 -71t-0.5 -70t-0.5 -54.5q0 -187 12.5 -380t37.5 -375q25 -4 56.5 -7
t64.5 -4.5t65 -2.5t57 -1q28 0 62 1t69 2.5t69.5 4.5t63.5 7zM1532 723q0 -164 -55 -305t-156 -244.5t-242.5 -163t-314.5 -59.5q-75 0 -156 17.5t-159 57t-148.5 102.5t-123.5 154t-84.5 212t-31.5 276q0 152 35.5 266t93.5 195.5t133.5 134.5t155.5 84t158 43t143 12
q101 0 195.5 -18.5t177.5 -58t152 -101.5t119 -149t78.5 -200t29.5 -255zM1174 1903q0 -62 -16.5 -108.5t-43 -81t-60.5 -58.5t-70 -39q-84 -36 -189 -41q-106 5 -190 39q-36 15 -70 37.5t-60.5 55.5t-42.5 78t-16 104l246 14q0 -8 -2 -14.5t-2 -14.5q0 -83 43 -159
q21 -4 45 -5.5t49 -1.5q23 0 48.5 1.5t51.5 5.5q6 24 9.5 48.5t3.5 47.5q0 25 -3.5 47.5t-9.5 44.5h279z" />
    <glyph glyph-name="Ohungarumlaut" unicode="&#x150;" horiz-adv-x="1589" 
d="M1044 236q6 60 11 132t8 147t4.5 147.5t1.5 132.5q0 115 -6 239.5t-19 239.5q-15 1 -36 2t-43.5 1.5t-43.5 0.5h-36q-45 0 -95.5 -2t-102.5 -6.5t-102.5 -11t-95.5 -15.5q0 -22 -0.5 -56.5t-0.5 -71t-0.5 -70t-0.5 -54.5q0 -187 12.5 -380t37.5 -375q25 -4 56.5 -7
t64.5 -4.5t65 -2.5t57 -1q28 0 62 1t69 2.5t69.5 4.5t63.5 7zM1532 723q0 -164 -55 -305t-156 -244.5t-242.5 -163t-314.5 -59.5q-75 0 -156 17.5t-159 57t-148.5 102.5t-123.5 154t-84.5 212t-31.5 276q0 152 35.5 266t93.5 195.5t133.5 134.5t155.5 84t158 43t143 12
q101 0 195.5 -18.5t177.5 -58t152 -101.5t119 -149t78.5 -200t29.5 -255zM1078 1874l-361 -321l-135 35l258 381zM1409 1874l-360 -321l-135 35l258 381z" />
    <glyph glyph-name="Racute" unicode="&#x154;" horiz-adv-x="1417" 
d="M1331 997q0 -78 -25 -144.5t-72 -122t-114 -100.5t-151 -79l442 -547l-463 -51l-291 510q-31 -6 -64 -11t-67 -10q8 -103 19.5 -215t25.5 -239l-473 -33q20 257 31.5 511.5t11.5 512.5q0 67 -0.5 122t-2 107t-4.5 107t-7 123q121 37 246.5 53t259.5 16q67 0 145 -9
t155.5 -31t149 -59t127 -94t88.5 -135t33 -182zM500 1296q0 -164 2.5 -316.5t11.5 -313.5h41q88 0 177 5t169 19q14 54 20.5 123.5t6.5 144.5q0 48 -3 96.5t-8 94t-13.5 86.5t-18.5 74q-14 2 -32.5 3t-41.5 1q-46 0 -99.5 -3t-101.5 -6zM1106 1874l-361 -321l-135 35
l258 381z" />
    <glyph glyph-name="Rcommaaccent" unicode="&#x156;" horiz-adv-x="1417" 
d="M1331 997q0 -78 -25 -144.5t-72 -122t-114 -100.5t-151 -79l442 -547l-463 -51l-291 510q-31 -6 -64 -11t-67 -10q8 -103 19.5 -215t25.5 -239l-473 -33q20 257 31.5 511.5t11.5 512.5q0 67 -0.5 122t-2 107t-4.5 107t-7 123q121 37 246.5 53t259.5 16q67 0 145 -9
t155.5 -31t149 -59t127 -94t88.5 -135t33 -182zM500 1296q0 -164 2.5 -316.5t11.5 -313.5h41q88 0 177 5t169 19q14 54 20.5 123.5t6.5 144.5q0 48 -3 96.5t-8 94t-13.5 86.5t-18.5 74q-14 2 -32.5 3t-41.5 1q-46 0 -99.5 -3t-101.5 -6zM856 -213q-1 -48 -14 -92.5
t-29 -79.5q-18 -40 -41 -76l-150 23q23 31 36.5 60.5t21.5 53.5q-53 8 -87 38.5t-34 72.5q0 24 11.5 44.5t32 36.5t47.5 25t58 9t58 -9t47 -25t31.5 -36.5t11.5 -44.5z" />
    <glyph glyph-name="Rcaron" unicode="&#x158;" horiz-adv-x="1417" 
d="M1331 997q0 -78 -25 -144.5t-72 -122t-114 -100.5t-151 -79l442 -547l-463 -51l-291 510q-31 -6 -64 -11t-67 -10q8 -103 19.5 -215t25.5 -239l-473 -33q20 257 31.5 511.5t11.5 512.5q0 67 -0.5 122t-2 107t-4.5 107t-7 123q121 37 246.5 53t259.5 16q67 0 145 -9
t155.5 -31t149 -59t127 -94t88.5 -135t33 -182zM500 1296q0 -164 2.5 -316.5t11.5 -313.5h41q88 0 177 5t169 19q14 54 20.5 123.5t6.5 144.5q0 48 -3 96.5t-8 94t-13.5 86.5t-18.5 74q-14 2 -32.5 3t-41.5 1q-46 0 -99.5 -3t-101.5 -6zM334 1856l283 61l102 -262l98 246
h265l-232 -328l-305 -26z" />
    <glyph glyph-name="Sacute" unicode="&#x15a;" horiz-adv-x="1430" 
d="M1384 418q0 -130 -51.5 -219.5t-143 -145t-217.5 -80t-274 -24.5q-67 0 -139 12.5t-142 40t-134 69.5t-114.5 101.5t-85 136.5t-44.5 174l436 9q-2 -28 -2 -57v-60q0 -87 6 -178q59 -7 118 -10t118 -3t117 3t118 10q5 34 8 66.5t3 66.5q0 55 -7 111t-18 112
q-70 8 -161 18t-186.5 29.5t-187 52t-163.5 86t-116 131.5t-44 189q0 77 28.5 140t77 112.5t113 86.5t136 61t145.5 36t143 12q151 0 266 -47t193.5 -122.5t121.5 -170.5t50 -190l-457 -49q5 38 6.5 76.5t1.5 76.5q0 87 -12 176q-34 5 -67.5 7t-67.5 2q-135 0 -273 -33
q-2 -25 -2 -49v-47q0 -70 5.5 -137.5t21.5 -135.5q83 -11 180 -23.5t194.5 -33t188 -51t160 -76t111.5 -110t42 -152.5zM1129 1874l-361 -321l-135 35l258 381z" />
    <glyph glyph-name="Scircumflex" unicode="&#x15c;" horiz-adv-x="1430" 
d="M1384 418q0 -130 -51.5 -219.5t-143 -145t-217.5 -80t-274 -24.5q-67 0 -139 12.5t-142 40t-134 69.5t-114.5 101.5t-85 136.5t-44.5 174l436 9q-2 -28 -2 -57v-60q0 -87 6 -178q59 -7 118 -10t118 -3t117 3t118 10q5 34 8 66.5t3 66.5q0 55 -7 111t-18 112
q-70 8 -161 18t-186.5 29.5t-187 52t-163.5 86t-116 131.5t-44 189q0 77 28.5 140t77 112.5t113 86.5t136 61t145.5 36t143 12q151 0 266 -47t193.5 -122.5t121.5 -170.5t50 -190l-457 -49q5 38 6.5 76.5t1.5 76.5q0 87 -12 176q-34 5 -67.5 7t-67.5 2q-135 0 -273 -33
q-2 -25 -2 -49v-47q0 -70 5.5 -137.5t21.5 -135.5q83 -11 180 -23.5t194.5 -33t188 -51t160 -76t111.5 -110t42 -152.5zM1088 1608l-283 -61l-103 262l-98 -246h-264l231 328l306 26z" />
    <glyph glyph-name="Scedilla" unicode="&#x15e;" horiz-adv-x="1430" 
d="M965 -287q0 -54 -26.5 -91t-64.5 -60.5t-79.5 -34t-71.5 -10.5q-25 -1 -62 2q-32 2 -80 6t-116 12v119q64 -6 127 -6q31 0 61 1.5t62 4.5q5 15 6.5 31.5t1.5 31.5q0 16 -1.5 31t-6.5 31q-23 3 -47.5 5.5t-49.5 2.5q-23 0 -48.5 -2.5t-51.5 -5.5q4 11 13 29t21.5 41t28 49
t31.5 53q-63 7 -127.5 25t-125 48t-114.5 72.5t-97 99t-71.5 127.5t-37.5 158l436 9q-2 -28 -2 -57v-60q0 -87 6 -178q59 -7 118 -10t118 -3t117 3t118 10q5 34 8 66.5t3 66.5q0 55 -7 111t-18 112q-70 8 -161 18t-186.5 29.5t-187 52t-163.5 86t-116 131.5t-44 189
q0 77 28.5 140t77 112.5t113 86.5t136 61t145.5 36t143 12q151 0 266 -47t193.5 -122.5t121.5 -170.5t50 -190l-457 -49q5 38 6.5 76.5t1.5 76.5q0 87 -12 176q-34 5 -67.5 7t-67.5 2q-135 0 -273 -33q-2 -25 -2 -49v-47q0 -70 5.5 -137.5t21.5 -135.5q83 -11 180 -23.5
t194.5 -33t188 -51t160 -76t111.5 -110t42 -152.5q0 -123 -46.5 -209.5t-129 -142.5t-196 -83.5t-248.5 -31.5l-35 -84q44 -2 77.5 -9.5t58.5 -19t42 -25t28 -27.5q26 -33 30 -73z" />
    <glyph glyph-name="Tcommaaccent" unicode="&#x162;" horiz-adv-x="1262" 
d="M1243 1219q-74 0 -149.5 1t-153.5 1h-88q0 -308 4 -617t21 -618h-455q10 226 20 448q4 94 8 197t8 205t6.5 198.5t4.5 179.5q-115 -3 -226.5 -7t-224.5 -9v299q158 -6 313.5 -8t313.5 -2q152 0 301 2t297 8v-278zM779 -213q-1 -48 -14 -92.5t-29 -79.5q-18 -40 -41 -76
l-150 23q23 31 36.5 60.5t21.5 53.5q-53 8 -87 38.5t-34 72.5q0 24 11.5 44.5t32 36.5t47.5 25t58 9t58 -9t47 -25t31.5 -36.5t11.5 -44.5z" />
    <glyph glyph-name="Tcaron" unicode="&#x164;" horiz-adv-x="1262" 
d="M1243 1219q-74 0 -149.5 1t-153.5 1h-88q0 -308 4 -617t21 -618h-455q10 226 20 448q4 94 8 197t8 205t6.5 198.5t4.5 179.5q-115 -3 -226.5 -7t-224.5 -9v299q158 -6 313.5 -8t313.5 -2q152 0 301 2t297 8v-278zM295 1856l283 61l102 -262l98 246h265l-232 -328
l-305 -26z" />
    <glyph glyph-name="Tbar" unicode="&#x166;" horiz-adv-x="1262" 
d="M1040 571h-184q2 -148 7.5 -293.5t13.5 -291.5h-455q5 80 9 174q4 81 8.5 186t9.5 223h-228v291h238l10 354q-115 -3 -226.5 -7t-224.5 -9v299q158 -6 313.5 -8t313.5 -2q152 0 301 2t297 8v-278q-74 0 -149.5 1t-153.5 1h-88v-359h188v-291z" />
    <glyph glyph-name="Utilde" unicode="&#x168;" horiz-adv-x="1552" 
d="M1460 748q-1 -107 -16 -207t-48 -189t-86 -162.5t-129 -126.5t-177 -82.5t-230 -29.5q-152 0 -277 43.5t-214 140t-138 251.5t-49 378q0 117 6 223.5t17 195.5t25.5 159.5t31.5 115.5h393q-4 -24 -11.5 -84t-15 -141t-13 -175.5t-5.5 -185.5q0 -85 2.5 -175t8 -175.5
t14 -162t20.5 -134.5q44 -6 98 -9t111 -3t113 3t104 9q8 58 13 134t8 161t4.5 174.5t1.5 173.5q0 92 -2 173.5t-6 154.5t-8.5 138t-10.5 124h383q27 -135 43 -241.5t25 -192t11.5 -152.5t2.5 -124zM1208 1878q2 -20 4.5 -38t2.5 -35q0 -51 -12.5 -89t-33 -66.5t-46.5 -47.5
t-53 -32q-63 -30 -144 -34q-53 2 -100 18q-40 13 -78 42t-54 82h-98q-6 -19 -8 -37.5t-2 -38.5q0 -17 1.5 -33t6.5 -33l-256 21q0 56 13.5 99t36 74.5t51 53.5t58.5 36q70 33 160 38q1 0 18 -1t43 -6t55.5 -15.5t55.5 -30.5t43.5 -51t18.5 -76h92q2 14 2 26.5v24.5
q0 37 -6.5 74.5t-22.5 74.5h252z" />
    <glyph glyph-name="Umacron" unicode="&#x16a;" horiz-adv-x="1552" 
d="M1460 748q-1 -107 -16 -207t-48 -189t-86 -162.5t-129 -126.5t-177 -82.5t-230 -29.5q-152 0 -277 43.5t-214 140t-138 251.5t-49 378q0 117 6 223.5t17 195.5t25.5 159.5t31.5 115.5h393q-4 -24 -11.5 -84t-15 -141t-13 -175.5t-5.5 -185.5q0 -85 2.5 -175t8 -175.5
t14 -162t20.5 -134.5q44 -6 98 -9t111 -3t113 3t104 9q8 58 13 134t8 161t4.5 174.5t1.5 173.5q0 92 -2 173.5t-6 154.5t-8.5 138t-10.5 124h383q27 -135 43 -241.5t25 -192t11.5 -152.5t2.5 -124zM1126 1536h-702v211h702v-211z" />
    <glyph glyph-name="Ubreve" unicode="&#x16c;" horiz-adv-x="1552" 
d="M1460 748q-1 -107 -16 -207t-48 -189t-86 -162.5t-129 -126.5t-177 -82.5t-230 -29.5q-152 0 -277 43.5t-214 140t-138 251.5t-49 378q0 117 6 223.5t17 195.5t25.5 159.5t31.5 115.5h393q-4 -24 -11.5 -84t-15 -141t-13 -175.5t-5.5 -185.5q0 -85 2.5 -175t8 -175.5
t14 -162t20.5 -134.5q44 -6 98 -9t111 -3t113 3t104 9q8 58 13 134t8 161t4.5 174.5t1.5 173.5q0 92 -2 173.5t-6 154.5t-8.5 138t-10.5 124h383q27 -135 43 -241.5t25 -192t11.5 -152.5t2.5 -124zM1155 1849q0 -62 -16.5 -108.5t-43 -81t-60.5 -58.5t-70 -39
q-84 -36 -189 -41q-106 5 -190 39q-36 15 -70 37.5t-60.5 55.5t-42.5 78t-16 104l246 14q0 -8 -2 -14.5t-2 -14.5q0 -83 43 -159q21 -4 45 -5.5t49 -1.5q23 0 48.5 1.5t51.5 5.5q6 24 9.5 48.5t3.5 47.5q0 25 -3.5 47.5t-9.5 44.5h279z" />
    <glyph glyph-name="Uring" unicode="&#x16e;" horiz-adv-x="1552" 
d="M1460 748q-1 -107 -16 -207t-48 -189t-86 -162.5t-129 -126.5t-177 -82.5t-230 -29.5q-152 0 -277 43.5t-214 140t-138 251.5t-49 378q0 117 6 223.5t17 195.5t25.5 159.5t31.5 115.5h393q-4 -24 -11.5 -84t-15 -141t-13 -175.5t-5.5 -185.5q0 -85 2.5 -175t8 -175.5
t14 -162t20.5 -134.5q44 -6 98 -9t111 -3t113 3t104 9q8 58 13 134t8 161t4.5 174.5t1.5 173.5q0 92 -2 173.5t-6 154.5t-8.5 138t-10.5 124h383q27 -135 43 -241.5t25 -192t11.5 -152.5t2.5 -124zM871 1643q3 26 4.5 53t1.5 53q0 51 -6 101q-11 0 -19 1t-16 1
q-86 0 -168 -17q-5 -23 -6.5 -47t-1.5 -49q0 -23 1.5 -47t6.5 -49q26 -3 51.5 -4.5t48.5 -1.5q50 0 103 6zM1059 1733q0 -47 -22 -88t-60 -71.5t-89.5 -48t-110.5 -17.5t-111 17.5t-90.5 48t-61 71.5t-22.5 88t22.5 88.5t61 72t90.5 48.5t111 18t110.5 -18t89.5 -48.5
t60 -72t22 -88.5z" />
    <glyph glyph-name="Uhungarumlaut" unicode="&#x170;" horiz-adv-x="1552" 
d="M1460 748q-1 -107 -16 -207t-48 -189t-86 -162.5t-129 -126.5t-177 -82.5t-230 -29.5q-152 0 -277 43.5t-214 140t-138 251.5t-49 378q0 117 6 223.5t17 195.5t25.5 159.5t31.5 115.5h393q-4 -24 -11.5 -84t-15 -141t-13 -175.5t-5.5 -185.5q0 -85 2.5 -175t8 -175.5
t14 -162t20.5 -134.5q44 -6 98 -9t111 -3t113 3t104 9q8 58 13 134t8 161t4.5 174.5t1.5 173.5q0 92 -2 173.5t-6 154.5t-8.5 138t-10.5 124h383q27 -135 43 -241.5t25 -192t11.5 -152.5t2.5 -124zM1045 1849l-361 -321l-135 35l258 381zM1376 1849l-360 -321l-135 35
l258 381z" />
    <glyph glyph-name="Uogonek" unicode="&#x172;" horiz-adv-x="1552" 
d="M1081 -412q-54 -28 -113.5 -44.5t-125.5 -16.5q-57 0 -108.5 11t-90 33.5t-61.5 56.5t-23 81q0 32 10 64t27 63.5t40.5 61t49.5 57.5q-134 12 -242.5 62t-186 147.5t-119.5 245t-42 354.5q0 117 6 223.5t17 195.5t25.5 159.5t31.5 115.5h393q-4 -24 -11.5 -84t-15 -141
t-13 -175.5t-5.5 -185.5q0 -85 2.5 -175t8 -175.5t14 -162t20.5 -134.5q44 -6 98 -9t111 -3t113 3t104 9q8 58 13 134t8 161t4.5 174.5t1.5 173.5q0 92 -2 173.5t-6 154.5t-8.5 138t-10.5 124h383q27 -135 43 -241.5t25 -192t11.5 -152.5t2.5 -124q-1 -101 -14 -195.5
t-42.5 -179.5t-75.5 -157t-112.5 -126.5t-154 -89.5t-199.5 -45q-35 -60 -58 -124t-32 -130q79 5 155.5 14.5t153.5 26.5v-154z" />
    <glyph glyph-name="Wcircumflex" unicode="&#x174;" horiz-adv-x="2152" 
d="M2124 1487l-312 -1487l-622 -33q-11 95 -24.5 200t-28 210.5t-29.5 207t-28.5 190.5t-25.5 160.5t-20 117.5q-8 -56 -23 -142t-33 -187.5t-38 -210.5t-38.5 -211.5t-33.5 -190t-24 -144.5h-512l-293 1481l473 39q46 -273 86 -503q17 -98 33.5 -196.5t31 -183t25.5 -148.5
t17 -94q16 61 32 137.5t32.5 160.5t32 172t30 172.5t26.5 161t21.5 137.5t15.5 102t8 55l471 27q36 -228 71 -440q15 -91 30.5 -187t31.5 -188t31 -175t27 -147q9 64 21.5 147.5t27 175.5t30.5 188l31 186q35 212 74 440h375zM1485 1608l-283 -61l-103 262l-98 -246h-264
l231 328l306 26z" />
    <glyph glyph-name="Wgrave" unicode="&#x1e80;" horiz-adv-x="2152" 
d="M2124 1487l-312 -1487l-622 -33q-11 95 -24.5 200t-28 210.5t-29.5 207t-28.5 190.5t-25.5 160.5t-20 117.5q-8 -56 -23 -142t-33 -187.5t-38 -210.5t-38.5 -211.5t-33.5 -190t-24 -144.5h-512l-293 1481l473 39q46 -273 86 -503q17 -98 33.5 -196.5t31 -183t25.5 -148.5
t17 -94q16 61 32 137.5t32.5 160.5t32 172t30 172.5t26.5 161t21.5 137.5t15.5 102t8 55l471 27q36 -228 71 -440q15 -91 30.5 -187t31.5 -188t31 -175t27 -147q9 64 21.5 147.5t27 175.5t30.5 188l31 186q35 212 74 440h375zM957 1969l258 -381l-136 -35l-360 321z" />
    <glyph glyph-name="Wacute" unicode="&#x1e82;" horiz-adv-x="2152" 
d="M2124 1487l-312 -1487l-622 -33q-11 95 -24.5 200t-28 210.5t-29.5 207t-28.5 190.5t-25.5 160.5t-20 117.5q-8 -56 -23 -142t-33 -187.5t-38 -210.5t-38.5 -211.5t-33.5 -190t-24 -144.5h-512l-293 1481l473 39q46 -273 86 -503q17 -98 33.5 -196.5t31 -183t25.5 -148.5
t17 -94q16 61 32 137.5t32.5 160.5t32 172t30 172.5t26.5 161t21.5 137.5t15.5 102t8 55l471 27q36 -228 71 -440q15 -91 30.5 -187t31.5 -188t31 -175t27 -147q9 64 21.5 147.5t27 175.5t30.5 188l31 186q35 212 74 440h375zM1549 1863l-361 -321l-135 35l258 381z" />
    <glyph glyph-name="Wdieresis" unicode="&#x1e84;" horiz-adv-x="2152" 
d="M2124 1487l-312 -1487l-622 -33q-11 95 -24.5 200t-28 210.5t-29.5 207t-28.5 190.5t-25.5 160.5t-20 117.5q-8 -56 -23 -142t-33 -187.5t-38 -210.5t-38.5 -211.5t-33.5 -190t-24 -144.5h-512l-293 1481l473 39q46 -273 86 -503q17 -98 33.5 -196.5t31 -183t25.5 -148.5
t17 -94q16 61 32 137.5t32.5 160.5t32 172t30 172.5t26.5 161t21.5 137.5t15.5 102t8 55l471 27q36 -228 71 -440q15 -91 30.5 -187t31.5 -188t31 -175t27 -147q9 64 21.5 147.5t27 175.5t30.5 188l31 186q35 212 74 440h375zM1078 1665q0 -22 -11.5 -41.5t-31 -34.5
t-45.5 -23.5t-56 -8.5q-29 0 -55 8.5t-45 23.5t-30 34.5t-11 41.5q0 23 11 43.5t30 35.5t45 23.5t55 8.5q30 0 56 -8.5t45.5 -23.5t31 -35.5t11.5 -43.5zM1498 1665q0 -22 -11.5 -41.5t-31 -34.5t-45.5 -23.5t-56 -8.5q-29 0 -54.5 8.5t-44.5 23.5t-30.5 34.5t-11.5 41.5
q0 23 11.5 43.5t30.5 35.5t44.5 23.5t54.5 8.5q30 0 56 -8.5t45.5 -23.5t31 -35.5t11.5 -43.5z" />
    <glyph glyph-name="Ycircumflex" unicode="&#x176;" horiz-adv-x="1645" 
d="M1634 1479q-114 -261 -215 -446t-177 -303q-89 -138 -165 -228q-2 -22 -3 -50.5t-1 -62.5q0 -55 2 -118t5.5 -122t8 -107.5t9.5 -74.5l-557 -10q4 17 9.5 55.5t11 87t10 102.5t8.5 101.5t6.5 83.5t3.5 49q-43 67 -92 146.5t-102 167t-108 180t-108 186t-103.5 185.5
t-94.5 178l567 -25q21 -68 54 -156t75 -187.5t92 -204.5t104 -206q72 132 138 268q28 58 58 122t58 130.5t53 132t44 126.5h409zM1225 1585l-283 -61l-103 262l-98 -246h-264l231 328l306 26z" />
    <glyph glyph-name="Ygrave" unicode="&#x1ef2;" horiz-adv-x="1645" 
d="M1634 1479q-114 -261 -215 -446t-177 -303q-89 -138 -165 -228q-2 -22 -3 -50.5t-1 -62.5q0 -55 2 -118t5.5 -122t8 -107.5t9.5 -74.5l-557 -10q4 17 9.5 55.5t11 87t10 102.5t8.5 101.5t6.5 83.5t3.5 49q-43 67 -92 146.5t-102 167t-108 180t-108 186t-103.5 185.5
t-94.5 178l567 -25q21 -68 54 -156t75 -187.5t92 -204.5t104 -206q72 132 138 268q28 58 58 122t58 130.5t53 132t44 126.5h409zM719 1848l258 -381l-136 -35l-360 321z" />
    <glyph glyph-name="Zacute" unicode="&#x179;" horiz-adv-x="1354" 
d="M1348 1479q-73 -161 -152 -312t-166 -299t-184 -296t-205 -304q159 0 317 6.5t328 20.5l-8 -315q-201 -13 -401.5 -17t-405.5 -4q-121 0 -241 1t-242 3q69 108 146 223.5t154.5 231.5t151.5 229t138.5 216.5t115.5 195t82 164.5q-46 3 -96 3.5t-102 0.5
q-63 0 -128.5 -1.5t-130.5 -3.5t-128.5 -5.5t-122.5 -6.5v269q161 -7 321.5 -11t325.5 -4q156 0 312 4t321 11zM1108 1849l-361 -321l-135 35l258 381z" />
    <glyph glyph-name="Zdotaccent" unicode="&#x17b;" horiz-adv-x="1354" 
d="M1348 1479q-73 -161 -152 -312t-166 -299t-184 -296t-205 -304q159 0 317 6.5t328 20.5l-8 -315q-201 -13 -401.5 -17t-405.5 -4q-121 0 -241 1t-242 3q69 108 146 223.5t154.5 231.5t151.5 229t138.5 216.5t115.5 195t82 164.5q-46 3 -96 3.5t-102 0.5
q-63 0 -128.5 -1.5t-130.5 -3.5t-128.5 -5.5t-122.5 -6.5v269q161 -7 321.5 -11t325.5 -4q156 0 312 4t321 11zM820 1640q0 -22 -11.5 -41.5t-31 -34.5t-45.5 -23.5t-56 -8.5q-29 0 -55 8.5t-45 23.5t-30 34.5t-11 41.5q0 23 11 43.5t30 35.5t45 23.5t55 8.5q30 0 56 -8.5
t45.5 -23.5t31 -35.5t11.5 -43.5z" />
    <glyph glyph-name="AEacute" unicode="&#x1fc;" horiz-adv-x="2181" 
d="M2134 244q-1 -14 -2 -31q-1 -14 -1.5 -34t-0.5 -44q0 -31 1.5 -67t4.5 -74q-38 2 -78.5 2h-79.5q-92 0 -171 -0.5t-154.5 -1t-151.5 -2t-161.5 -4t-185 -5t-222.5 -6.5q26 87 44.5 178t29.5 187q-60 2 -123 3t-125 1q-127 0 -244 -6q5 -90 14 -179.5t23 -178.5
q-71 -5 -127 -9t-99 -7.5t-74 -7t-53 -6.5q-51 -7 -69 -13q-13 65 -21.5 137t-13 143.5t-6.5 139.5t-2 126q0 121 9.5 243t36 235t73.5 210.5t123 170t184 114t256 41.5q78 0 150 -12t137 -37q0 6 -1 11t-1 12q103 0 205.5 -1.5t207.5 -1.5q158 0 317 5t326 22
q-5 -34 -6.5 -65.5t-1.5 -59.5q0 -27 1 -49.5t3 -38.5q2 -18 4 -33q-117 -6 -231 -10q-48 -2 -101 -3.5t-105 -3t-101.5 -2.5t-91.5 -1q-2 -47 -5 -104q-2 -49 -5 -114.5t-5 -140.5q122 4 246.5 10t261.5 17q-3 -38 -5.5 -76.5t-2.5 -79.5q0 -27 1.5 -55t6.5 -57
q-65 5 -130 7.5t-130 2.5q-63 0 -126 -2.5t-128 -7.5v-168q0 -60 1 -115.5t3 -103.5q65 2 139 2h148q75 0 144.5 -0.5t123.5 -0.5q62 -1 117 -1zM688 600q87 0 173.5 3.5t164.5 12.5q2 23 2 46.5v48.5q0 152 -13.5 293t-39.5 262q-23 2 -50.5 3t-58.5 1q-41 0 -84.5 -1.5
t-85 -4t-79.5 -6.5t-66 -9q-22 -159 -32.5 -319.5t-10.5 -325.5q43 -3 88.5 -3.5t91.5 -0.5zM1504 1874l-361 -321l-135 35l258 381z" />
    <glyph glyph-name="Oslashacute" unicode="&#x1fe;" horiz-adv-x="1589" 
d="M1370 1470q-20 -32 -41 -64.5t-41 -66.5q55 -46 99.5 -106.5t76 -137t49 -169t19.5 -203.5q0 -164 -55 -305t-156 -244.5t-242.5 -163t-314.5 -59.5q-63 0 -130.5 12.5t-135.5 38.5q-11 -19 -20.5 -38.5t-20.5 -39.5l-234 51l88 142q-54 48 -99.5 111t-79 143.5
t-52.5 179.5t-19 219q0 152 35.5 266t93.5 195.5t133.5 134.5t155.5 84t158 43t143 12q85 0 166.5 -13t155.5 -42l20 39zM487 991q0 -134 6.5 -273t18.5 -276q130 209 255.5 419.5t240.5 414.5q-32 2 -67 2h-56q-45 0 -95.5 -2t-102.5 -6.5t-102.5 -11t-95.5 -15.5
q0 -22 -0.5 -56.5t-0.5 -71t-0.5 -70t-0.5 -54.5zM1044 236q6 60 11 132t8 147t4.5 147.5t1.5 132.5q0 45 -1 90.5t-3 93.5q-113 -184 -225.5 -374t-218.5 -380q42 -3 84.5 -3.5t74.5 -0.5q28 0 62 1t69 2.5t69.5 4.5t63.5 7zM1229 1874l-361 -321l-135 35l258 381z" />
    <glyph glyph-name="amacron" unicode="&#x101;" 
d="M907 -33q0 29 -1 58.5t-1 58.5q-53 -48 -110.5 -72.5t-105.5 -36.5q-56 -14 -111 -16q-100 0 -192.5 30.5t-164.5 91.5t-116.5 152.5t-49.5 212.5q0 122 33 222.5t99 172.5t164 111.5t227 40.5q4 0 30.5 -1.5t65.5 -9t85 -24t91 -45.5l-16 123l395 27q-12 -287 -12 -571
q0 -69 0.5 -130.5t2 -122t4 -122t5.5 -129.5zM440 209q119 5 234 16t227 33q-3 124 -10.5 240t-20.5 237h-57q-97 0 -194.5 -6.5t-196.5 -21.5q-12 -105 -12 -211q0 -40 2 -74.5t5.5 -68.5t9 -69t13.5 -75zM1015 1135h-702v211h702v-211z" />
    <glyph glyph-name="abreve" unicode="&#x103;" 
d="M907 -33q0 29 -1 58.5t-1 58.5q-53 -48 -110.5 -72.5t-105.5 -36.5q-56 -14 -111 -16q-100 0 -192.5 30.5t-164.5 91.5t-116.5 152.5t-49.5 212.5q0 122 33 222.5t99 172.5t164 111.5t227 40.5q4 0 30.5 -1.5t65.5 -9t85 -24t91 -45.5l-16 123l395 27q-12 -287 -12 -571
q0 -69 0.5 -130.5t2 -122t4 -122t5.5 -129.5zM440 209q119 5 234 16t227 33q-3 124 -10.5 240t-20.5 237h-57q-97 0 -194.5 -6.5t-196.5 -21.5q-12 -105 -12 -211q0 -40 2 -74.5t5.5 -68.5t9 -69t13.5 -75zM1043 1410q0 -62 -16.5 -108.5t-43 -81t-60.5 -58.5t-70 -39
q-84 -36 -189 -41q-106 5 -190 39q-36 15 -70 37.5t-60.5 55.5t-42.5 78t-16 104l246 14q0 -8 -2 -14.5t-2 -14.5q0 -83 43 -159q21 -4 45 -5.5t49 -1.5q23 0 48.5 1.5t51.5 5.5q6 24 9.5 48.5t3.5 47.5q0 25 -3.5 47.5t-9.5 44.5h279z" />
    <glyph glyph-name="aogonek" unicode="&#x105;" 
d="M1341 -412q-54 -28 -113.5 -44.5t-125.5 -16.5q-57 0 -108.5 11t-90 33.5t-61.5 56.5t-23 81q0 34 11.5 68.5t31 68t45 65t54.5 60.5l-54 -4q0 29 -1 58.5t-1 58.5q-53 -48 -110.5 -72.5t-105.5 -36.5q-56 -14 -111 -16q-100 0 -192.5 30.5t-164.5 91.5t-116.5 152.5
t-49.5 212.5q0 122 33 222.5t99 172.5t164 111.5t227 40.5q4 0 30.5 -1.5t65.5 -9t85 -24t91 -45.5l-16 123l395 27q-12 -287 -12 -571q0 -69 0.5 -130.5t2 -122t4 -122t5.5 -129.5l-90 -6q-42 -66 -70 -136.5t-37 -144.5q79 5 155.5 14.5t153.5 26.5v-154zM440 209
q119 5 234 16t227 33q-3 124 -10.5 240t-20.5 237h-57q-97 0 -194.5 -6.5t-196.5 -21.5q-12 -105 -12 -211q0 -40 2 -74.5t5.5 -68.5t9 -69t13.5 -75z" />
    <glyph glyph-name="cacute" unicode="&#x107;" horiz-adv-x="1221" 
d="M784 664q5 24 7 48.5t2 49.5q0 23 -2 45t-7 45q-43 8 -87 11t-91 3q-46 0 -93 -3t-95 -11q-5 -54 -7.5 -106t-2.5 -105q0 -122 12.5 -241.5t34.5 -239.5q45 -5 86.5 -6.5t85.5 -1.5q43 0 85 1.5t87 6.5q2 21 3 41t1 39q0 18 -1 36t-3 35l377 -8q-28 -95 -80.5 -163
t-124 -111.5t-159.5 -63.5t-185 -20q-119 0 -223.5 32t-182 103.5t-122 186.5t-44.5 282q0 135 47 232t125.5 160t182 92.5t217.5 29.5q101 0 192 -23.5t164.5 -72t125.5 -124t75 -179.5h-400zM1088 1464l-361 -321l-135 35l258 381z" />
    <glyph glyph-name="ccircumflex" unicode="&#x109;" horiz-adv-x="1221" 
d="M784 664q5 24 7 48.5t2 49.5q0 23 -2 45t-7 45q-43 8 -87 11t-91 3q-46 0 -93 -3t-95 -11q-5 -54 -7.5 -106t-2.5 -105q0 -122 12.5 -241.5t34.5 -239.5q45 -5 86.5 -6.5t85.5 -1.5q43 0 85 1.5t87 6.5q2 21 3 41t1 39q0 18 -1 36t-3 35l377 -8q-28 -95 -80.5 -163
t-124 -111.5t-159.5 -63.5t-185 -20q-119 0 -223.5 32t-182 103.5t-122 186.5t-44.5 282q0 135 47 232t125.5 160t182 92.5t217.5 29.5q101 0 192 -23.5t164.5 -72t125.5 -124t75 -179.5h-400zM984 1198l-283 -61l-103 262l-98 -246h-264l231 328l306 26z" />
    <glyph glyph-name="cdotaccent" unicode="&#x10b;" horiz-adv-x="1221" 
d="M784 664q5 24 7 48.5t2 49.5q0 23 -2 45t-7 45q-43 8 -87 11t-91 3q-46 0 -93 -3t-95 -11q-5 -54 -7.5 -106t-2.5 -105q0 -122 12.5 -241.5t34.5 -239.5q45 -5 86.5 -6.5t85.5 -1.5q43 0 85 1.5t87 6.5q2 21 3 41t1 39q0 18 -1 36t-3 35l377 -8q-28 -95 -80.5 -163
t-124 -111.5t-159.5 -63.5t-185 -20q-119 0 -223.5 32t-182 103.5t-122 186.5t-44.5 282q0 135 47 232t125.5 160t182 92.5t217.5 29.5q101 0 192 -23.5t164.5 -72t125.5 -124t75 -179.5h-400zM762 1238q0 -22 -11.5 -41.5t-31 -34.5t-45.5 -23.5t-56 -8.5q-29 0 -55 8.5
t-45 23.5t-30 34.5t-11 41.5q0 23 11 43.5t30 35.5t45 23.5t55 8.5q30 0 56 -8.5t45.5 -23.5t31 -35.5t11.5 -43.5z" />
    <glyph glyph-name="ccaron" unicode="&#x10d;" horiz-adv-x="1221" 
d="M784 664q5 24 7 48.5t2 49.5q0 23 -2 45t-7 45q-43 8 -87 11t-91 3q-46 0 -93 -3t-95 -11q-5 -54 -7.5 -106t-2.5 -105q0 -122 12.5 -241.5t34.5 -239.5q45 -5 86.5 -6.5t85.5 -1.5q43 0 85 1.5t87 6.5q2 21 3 41t1 39q0 18 -1 36t-3 35l377 -8q-28 -95 -80.5 -163
t-124 -111.5t-159.5 -63.5t-185 -20q-119 0 -223.5 32t-182 103.5t-122 186.5t-44.5 282q0 135 47 232t125.5 160t182 92.5t217.5 29.5q101 0 192 -23.5t164.5 -72t125.5 -124t75 -179.5h-400zM236 1446l283 61l102 -262l98 246h265l-232 -328l-305 -26z" />
    <glyph glyph-name="dcaron" unicode="&#x10f;" horiz-adv-x="1626" 
d="M1255 1446q-23 -358 -33 -725.5t-10 -730.5h-333l6 112q-48 -46 -106 -71t-110 -36q-61 -13 -122 -15q-114 0 -205.5 41t-155 115t-97.5 178t-34 229q0 83 20 154t55 129t82 102t100 74t110 45.5t113 15.5q69 -2 135 -18q28 -7 58 -17.5t59.5 -25.5t57 -35t50.5 -47
q-3 139 -7 275.5t-9 272.5zM764 242h59.5t65.5 2q5 103 6.5 207.5t1.5 210.5v122q-75 8 -138.5 13.5t-135.5 5.5q-38 0 -78.5 -1.5t-89.5 -4.5q-13 -90 -19 -179t-6 -180q0 -45 0.5 -89t5.5 -89q50 -5 92.5 -8t82 -5.5t77 -3.5t76.5 -1zM1626 1370q-1 -48 -14 -92.5
t-29 -79.5q-18 -40 -41 -76l-150 23q23 29 36.5 58.5t21.5 53.5q-53 8 -87 39.5t-34 73.5q0 24 12 45t32.5 36.5t47.5 24.5t58 9q30 0 57 -9t47 -24.5t31.5 -36.5t11.5 -45z" />
    <glyph glyph-name="dcroat" unicode="&#x111;" 
d="M1255 1446l-6 -103l148 -6l-17 -270l-145 4q-12 -270 -17.5 -541t-5.5 -540h-333l6 112q-48 -46 -106 -71t-110 -36q-61 -13 -122 -15q-114 0 -205.5 41t-155 115t-97.5 178t-34 229q0 83 20 154t55 129t82 102t100 74t110 45.5t113 15.5q69 -2 135 -18q28 -7 58 -17.5
t59.5 -25.5t57 -35t50.5 -47l-4 165l-211 9l14 278l189 -10q-2 26 -3 53t-1 53zM764 242h59.5t65.5 2q5 103 6.5 207.5t1.5 210.5v122q-75 8 -138.5 13.5t-135.5 5.5q-38 0 -78.5 -1.5t-89.5 -4.5q-13 -90 -19 -179t-6 -180q0 -45 0.5 -89t5.5 -89q50 -5 92.5 -8t82 -5.5
t77 -3.5t76.5 -1z" />
    <glyph glyph-name="emacron" unicode="&#x113;" horiz-adv-x="1237" 
d="M1200 469l-782 -63q5 -62 14 -123t23 -123q88 -6 170 -6q45 0 87 1.5t87 4.5q2 20 3 40t1 40q0 18 -0.5 35.5t-3.5 35.5l377 -8q-28 -95 -80.5 -163t-124 -111.5t-159.5 -63.5t-185 -20q-119 0 -223.5 32t-182 103.5t-122 186.5t-44.5 282q0 135 47 232t125.5 160
t182 92.5t217.5 29.5q119 0 223.5 -32t182 -100t122.5 -174t45 -253v-35zM408 616h401q0 124 -25 236q-86 18 -180 18q-92 0 -186 -18q-6 -56 -8 -113.5t-2 -122.5zM968 1139h-702v211h702v-211z" />
    <glyph glyph-name="ebreve" unicode="&#x115;" horiz-adv-x="1237" 
d="M1200 469l-782 -63q5 -62 14 -123t23 -123q88 -6 170 -6q45 0 87 1.5t87 4.5q2 20 3 40t1 40q0 18 -0.5 35.5t-3.5 35.5l377 -8q-28 -95 -80.5 -163t-124 -111.5t-159.5 -63.5t-185 -20q-119 0 -223.5 32t-182 103.5t-122 186.5t-44.5 282q0 135 47 232t125.5 160
t182 92.5t217.5 29.5q119 0 223.5 -32t182 -100t122.5 -174t45 -253v-35zM408 616h401q0 124 -25 236q-86 18 -180 18q-92 0 -186 -18q-6 -56 -8 -113.5t-2 -122.5zM998 1447q0 -62 -16.5 -108.5t-43 -81t-60.5 -58.5t-70 -39q-84 -36 -189 -41q-106 5 -190 39
q-36 15 -70 37.5t-60.5 55.5t-42.5 78t-16 104l246 14q0 -8 -2 -14.5t-2 -14.5q0 -83 43 -159q21 -4 45 -5.5t49 -1.5q23 0 48.5 1.5t51.5 5.5q6 24 9.5 48.5t3.5 47.5q0 25 -3.5 47.5t-9.5 44.5h279z" />
    <glyph glyph-name="edotaccent" unicode="&#x117;" horiz-adv-x="1237" 
d="M1200 469l-782 -63q5 -62 14 -123t23 -123q88 -6 170 -6q45 0 87 1.5t87 4.5q2 20 3 40t1 40q0 18 -0.5 35.5t-3.5 35.5l377 -8q-28 -95 -80.5 -163t-124 -111.5t-159.5 -63.5t-185 -20q-119 0 -223.5 32t-182 103.5t-122 186.5t-44.5 282q0 135 47 232t125.5 160
t182 92.5t217.5 29.5q119 0 223.5 -32t182 -100t122.5 -174t45 -253v-35zM408 616h401q0 124 -25 236q-86 18 -180 18q-92 0 -186 -18q-6 -56 -8 -113.5t-2 -122.5zM760 1238q0 -22 -11.5 -41.5t-31 -34.5t-45.5 -23.5t-56 -8.5q-29 0 -55 8.5t-45 23.5t-30 34.5t-11 41.5
q0 23 11 43.5t30 35.5t45 23.5t55 8.5q30 0 56 -8.5t45.5 -23.5t31 -35.5t11.5 -43.5z" />
    <glyph glyph-name="eogonek" unicode="&#x119;" horiz-adv-x="1237" 
d="M1092 -412q-54 -28 -114 -44.5t-126 -16.5q-57 0 -108.5 11t-90 33.5t-61.5 56.5t-23 81q0 31 9.5 62t25.5 61t38 59t46 56q-15 0 -30.5 -1t-30.5 -1q-119 0 -223.5 32t-182 103.5t-122 186.5t-44.5 282q0 135 47 232t125.5 160t182 92.5t217.5 29.5q119 0 223.5 -32
t182 -100t122.5 -174t45 -253v-35l-782 -63q5 -62 14 -123t23 -123q88 -6 170 -6q45 0 87 1.5t87 4.5q2 20 3 40t1 40q0 18 -0.5 35.5t-3.5 35.5l377 -8q-36 -121 -108.5 -197t-172.5 -114q-45 -68 -73.5 -141t-39.5 -150q79 5 155.5 14.5t154.5 26.5v-154zM809 616
q0 124 -25 236q-86 18 -180 18q-92 0 -186 -18q-6 -56 -8 -113.5t-2 -122.5h401z" />
    <glyph glyph-name="ecaron" unicode="&#x11b;" horiz-adv-x="1237" 
d="M1200 469l-782 -63q5 -62 14 -123t23 -123q88 -6 170 -6q45 0 87 1.5t87 4.5q2 20 3 40t1 40q0 18 -0.5 35.5t-3.5 35.5l377 -8q-28 -95 -80.5 -163t-124 -111.5t-159.5 -63.5t-185 -20q-119 0 -223.5 32t-182 103.5t-122 186.5t-44.5 282q0 135 47 232t125.5 160
t182 92.5t217.5 29.5q119 0 223.5 -32t182 -100t122.5 -174t45 -253v-35zM408 616h401q0 124 -25 236q-86 18 -180 18q-92 0 -186 -18q-6 -56 -8 -113.5t-2 -122.5zM244 1446l283 61l102 -262l98 246h265l-232 -328l-305 -26z" />
    <glyph glyph-name="gcircumflex" unicode="&#x11d;" horiz-adv-x="1286" 
d="M1200 1063q-15 -307 -23.5 -526t-12.5 -359q-5 -165 -7 -272q-5 -127 -55.5 -219t-131 -153t-183 -93t-212.5 -39q-111 0 -202.5 27t-159 76t-110 116t-54.5 148l406 28q-10 -26 -12.5 -53t-2.5 -55q0 -25 2.5 -51t12.5 -52q14 -2 28 -2h29q143 0 283 31q9 112 15 222.5
t11 221.5q-48 -30 -98 -45.5t-92 -23.5q-49 -9 -96 -10q-56 0 -113 15.5t-110 45.5t-100 74t-82 102t-55 128.5t-20 154.5q0 125 33.5 228.5t96.5 178t154 115.5t206 41q47 -1 96 -10q42 -8 92 -24.5t96 -47.5q0 26 -1 53t-1 53zM834 612q0 47 -0.5 93.5t-2.5 93.5
q-18 2 -36 2h-35q-38 0 -75 -1t-76 -3.5t-82 -6t-93 -8.5q-3 -46 -4.5 -89.5t-1.5 -88.5q0 -91 7 -179.5t20 -178.5q48 -3 88 -4.5t78 -1.5q55 0 104 2t104 8q2 91 3.5 181t1.5 181zM1016 1198l-283 -61l-103 262l-98 -246h-264l231 328l306 26z" />
    <glyph glyph-name="gbreve" unicode="&#x11f;" horiz-adv-x="1286" 
d="M1200 1063q-15 -307 -23.5 -526t-12.5 -359q-5 -165 -7 -272q-5 -127 -55.5 -219t-131 -153t-183 -93t-212.5 -39q-111 0 -202.5 27t-159 76t-110 116t-54.5 148l406 28q-10 -26 -12.5 -53t-2.5 -55q0 -25 2.5 -51t12.5 -52q14 -2 28 -2h29q143 0 283 31q9 112 15 222.5
t11 221.5q-48 -30 -98 -45.5t-92 -23.5q-49 -9 -96 -10q-56 0 -113 15.5t-110 45.5t-100 74t-82 102t-55 128.5t-20 154.5q0 125 33.5 228.5t96.5 178t154 115.5t206 41q47 -1 96 -10q42 -8 92 -24.5t96 -47.5q0 26 -1 53t-1 53zM834 612q0 47 -0.5 93.5t-2.5 93.5
q-18 2 -36 2h-35q-38 0 -75 -1t-76 -3.5t-82 -6t-93 -8.5q-3 -46 -4.5 -89.5t-1.5 -88.5q0 -91 7 -179.5t20 -178.5q48 -3 88 -4.5t78 -1.5q55 0 104 2t104 8q2 91 3.5 181t1.5 181zM1022 1459q0 -62 -16.5 -108.5t-43 -81t-60.5 -58.5t-70 -39q-84 -36 -189 -41
q-106 5 -190 39q-36 15 -70 37.5t-60.5 55.5t-42.5 78t-16 104l246 14q0 -8 -2 -14.5t-2 -14.5q0 -83 43 -159q21 -4 45 -5.5t49 -1.5q23 0 48.5 1.5t51.5 5.5q6 24 9.5 48.5t3.5 47.5q0 25 -3.5 47.5t-9.5 44.5h279z" />
    <glyph glyph-name="gdotaccent" unicode="&#x121;" horiz-adv-x="1286" 
d="M1200 1063q-15 -307 -23.5 -526t-12.5 -359q-5 -165 -7 -272q-5 -127 -55.5 -219t-131 -153t-183 -93t-212.5 -39q-111 0 -202.5 27t-159 76t-110 116t-54.5 148l406 28q-10 -26 -12.5 -53t-2.5 -55q0 -25 2.5 -51t12.5 -52q14 -2 28 -2h29q143 0 283 31q9 112 15 222.5
t11 221.5q-48 -30 -98 -45.5t-92 -23.5q-49 -9 -96 -10q-56 0 -113 15.5t-110 45.5t-100 74t-82 102t-55 128.5t-20 154.5q0 125 33.5 228.5t96.5 178t154 115.5t206 41q47 -1 96 -10q42 -8 92 -24.5t96 -47.5q0 26 -1 53t-1 53zM834 612q0 47 -0.5 93.5t-2.5 93.5
q-18 2 -36 2h-35q-38 0 -75 -1t-76 -3.5t-82 -6t-93 -8.5q-3 -46 -4.5 -89.5t-1.5 -88.5q0 -91 7 -179.5t20 -178.5q48 -3 88 -4.5t78 -1.5q55 0 104 2t104 8q2 91 3.5 181t1.5 181zM760 1242q0 -22 -11.5 -41.5t-31 -34.5t-45.5 -23.5t-56 -8.5q-29 0 -55 8.5t-45 23.5
t-30 34.5t-11 41.5q0 23 11 43.5t30 35.5t45 23.5t55 8.5q30 0 56 -8.5t45.5 -23.5t31 -35.5t11.5 -43.5z" />
    <glyph glyph-name="gcommaaccent" unicode="&#x123;" horiz-adv-x="1286" 
d="M1200 1063q-15 -307 -23.5 -526t-12.5 -359q-5 -165 -7 -272q-5 -127 -55.5 -219t-131 -153t-183 -93t-212.5 -39q-111 0 -202.5 27t-159 76t-110 116t-54.5 148l406 28q-10 -26 -12.5 -53t-2.5 -55q0 -25 2.5 -51t12.5 -52q14 -2 28 -2h29q143 0 283 31q9 112 15 222.5
t11 221.5q-48 -30 -98 -45.5t-92 -23.5q-49 -9 -96 -10q-56 0 -113 15.5t-110 45.5t-100 74t-82 102t-55 128.5t-20 154.5q0 125 33.5 228.5t96.5 178t154 115.5t206 41q47 -1 96 -10q42 -8 92 -24.5t96 -47.5q0 26 -1 53t-1 53zM834 612q0 47 -0.5 93.5t-2.5 93.5
q-18 2 -36 2h-35q-38 0 -75 -1t-76 -3.5t-82 -6t-93 -8.5q-3 -46 -4.5 -89.5t-1.5 -88.5q0 -91 7 -179.5t20 -178.5q48 -3 88 -4.5t78 -1.5q55 0 104 2t104 8q2 91 3.5 181t1.5 181zM494 1237q0 46 13 90.5t29 79.5q18 41 42 78l149 -23q-23 -31 -37 -60.5t-20 -53.5
q25 -4 47 -14t38.5 -25t26 -33t9.5 -39q0 -24 -12 -44.5t-32.5 -36.5t-47.5 -25t-58 -9t-57.5 9t-46.5 25t-31.5 36.5t-11.5 44.5z" />
    <glyph glyph-name="hcircumflex" unicode="&#x125;" horiz-adv-x="1255" 
d="M1178 563q0 -133 -14 -271t-48 -276h-348q12 149 19.5 294.5t7.5 293.5v99.5t-2 99.5q-45 5 -89.5 6.5t-89.5 1.5q-90 0 -180 -6v-129q0 -165 5 -328.5t16 -331.5h-336q0 362 -10 717t-33 713l379 22q-7 -131 -12 -261t-7 -261q58 44 120 67.5t113 34.5q60 13 117 15
q73 0 130.5 -20t101 -55.5t74 -83.5t50 -103.5t28 -116.5t8.5 -121zM1139.5 1190.53l-243.462 -52.5742l-88.6104 225.812l-84.3076 -212.021h-227.117l198.728 282.695l263.248 22.4092z" />
    <glyph glyph-name="hbar" unicode="&#x127;" horiz-adv-x="1255" 
d="M606 1100q-43 2 -84.5 2h-83.5q-2 -38 -2 -78v-78q58 44 120 67.5t113 34.5q60 13 117 15q73 0 130.5 -20t101 -55.5t74 -83.5t50 -103.5t28 -116.5t8.5 -121q0 -133 -14 -271t-48 -276h-348q12 149 19.5 294.5t7.5 293.5v99.5t-2 99.5q-45 5 -89.5 6.5t-89.5 1.5
q-90 0 -180 -6v-129q0 -165 5 -328.5t16 -331.5h-336q0 271 -5 536.5t-18 534.5l-137 -12l-14 246q32 -3 67 -3.5t70 -0.5l-6 129l379 22l-6 -139q69 5 113 10t44 9v-248z" />
    <glyph glyph-name="itilde" unicode="&#x129;" horiz-adv-x="547" 
d="M463 1044q-22 -223 -29.5 -440t-7.5 -434v-76.5t2 -77.5h-309q0 62 1 123t1 121q0 199 -9.5 394t-29.5 390h381zM707 1463q2 -20 4.5 -38t2.5 -35q0 -51 -12.5 -89t-33 -66.5t-46.5 -47.5t-53 -32q-63 -30 -144 -34q-53 2 -100 18q-40 13 -78 42t-54 82h-98
q-6 -19 -8 -37.5t-2 -38.5q0 -17 1.5 -33t6.5 -33l-256 21q0 56 13.5 99t36 74.5t51 53.5t58.5 36q70 33 160 38q1 0 18 -1t43 -6t55.5 -15.5t55.5 -30.5t43.5 -51t18.5 -76h92q2 14 2 26.5v24.5q0 37 -6.5 74.5t-22.5 74.5h252z" />
    <glyph glyph-name="imacron" unicode="&#x12b;" horiz-adv-x="547" 
d="M463 1044q-22 -223 -29.5 -440t-7.5 -434v-76.5t2 -77.5h-309q0 62 1 123t1 121q0 199 -9.5 394t-29.5 390h381zM625 1129h-702v211h702v-211z" />
    <glyph glyph-name="ibreve" unicode="&#x12d;" horiz-adv-x="547" 
d="M463 1044q-22 -223 -29.5 -440t-7.5 -434v-76.5t2 -77.5h-309q0 62 1 123t1 121q0 199 -9.5 394t-29.5 390h381zM655 1449q0 -62 -16.5 -108.5t-43 -81t-60.5 -58.5t-70 -39q-84 -36 -189 -41q-106 5 -190 39q-36 15 -70 37.5t-60.5 55.5t-42.5 78t-16 104l246 14
q0 -8 -2 -14.5t-2 -14.5q0 -83 43 -159q21 -4 45 -5.5t49 -1.5q23 0 48.5 1.5t51.5 5.5q6 24 9.5 48.5t3.5 47.5q0 25 -3.5 47.5t-9.5 44.5h279z" />
    <glyph glyph-name="iogonek" unicode="&#x12f;" horiz-adv-x="547" 
d="M535 -412q-54 -28 -114 -44.5t-126 -16.5q-57 0 -108.5 11t-90 33.5t-61.5 56.5t-23 81q0 42 16.5 83.5t43.5 80.5t60.5 75t68.5 68h-82q0 62 1 123t1 121q0 199 -9.5 394t-29.5 390h381q-22 -223 -29.5 -440t-7.5 -434v-76.5t2 -77.5h-74q-51 -72 -84.5 -151.5
t-44.5 -163.5q79 5 155.5 14.5t154.5 26.5v-154zM463 1368q0 -35 -17 -65.5t-47 -53t-70 -36t-85 -13.5t-84 13.5t-68 36t-46 53t-17 65.5q0 34 17 64.5t46 53t68 35.5t84 13t85 -13t70 -35.5t47 -53t17 -64.5z" />
    <glyph glyph-name="ij" unicode="&#x133;" horiz-adv-x="1102" 
d="M463 1044q-22 -223 -29.5 -440t-7.5 -434v-76.5t2 -77.5h-309q0 62 1 123t1 121q0 199 -9.5 394t-29.5 390h381zM463 1368q0 -35 -17 -65.5t-47 -53t-70 -36t-85 -13.5t-84 13.5t-68 36t-46 53t-17 65.5q0 34 17 64.5t46 53t68 35.5t84 13t85 -13t70 -35.5t47 -53
t17 -64.5zM1008 1063q-5 -191 -9 -347t-8 -281.5t-8 -221.5l-7 -168q-8 -168 -15 -254q-4 -101 -46.5 -178.5t-112 -131t-161 -81t-194.5 -27.5q-84 0 -163.5 27t-144.5 79t-110.5 127t-61.5 171l379 45q0 -60 7 -117t30 -119q62 6 126 14.5t132 22.5q8 178 13.5 353
t5.5 352q0 174 -5 346.5t-14 345.5zM1061 1413q0 -41 -20 -77t-55 -63t-82 -43t-101 -16t-101 16t-82 43t-55 63t-20 77q0 42 20 78t55 63t82 42.5t101 15.5t101 -15.5t82 -42.5t55 -63t20 -78z" />
    <glyph glyph-name="jcircumflex" unicode="&#x135;" horiz-adv-x="555" 
d="M461 1063q-5 -191 -9 -347t-8 -281.5t-8 -221.5l-7 -168q-8 -168 -15 -254q-4 -101 -46.5 -178.5t-112 -131t-161 -81t-194.5 -27.5q-84 0 -163.5 27t-144.5 79t-110.5 127t-61.5 171l379 45q0 -60 7 -117t30 -119q62 6 126 14.5t132 22.5q8 178 13.5 353t5.5 352
q0 174 -5 346.5t-14 345.5zM653 1198l-283 -61l-103 262l-98 -246h-264l231 328l306 26z" />
    <glyph glyph-name="kcommaaccent" unicode="&#x137;" horiz-adv-x="1071" 
d="M1040 1126q-7 -82 -34 -154t-68.5 -134.5t-93.5 -116t-109 -98.5q103 -131 177 -271.5t128 -292.5l-344 -79q-14 136 -52 263.5t-107 245.5q-36 -20 -70.5 -35.5t-63.5 -29.5v-90q0 -81 2.5 -159t2.5 -159l-289 -36q0 371 -11 743t-36 745h372q-15 -220 -25 -438.5
t-13 -439.5q50 40 89 85t69 90t51 89.5t36 84.5q34 94 45 187h344zM684 -213q-1 -48 -14 -92.5t-29 -79.5q-18 -40 -41 -76l-150 23q23 31 36.5 60.5t21.5 53.5q-53 8 -87 38.5t-34 72.5q0 24 11.5 44.5t32 36.5t47.5 25t58 9t58 -9t47 -25t31.5 -36.5t11.5 -44.5z" />
    <glyph glyph-name="kgreenlandic" unicode="&#x138;" horiz-adv-x="1071" 
d="M1040 1126q-7 -82 -34 -154t-68.5 -134.5t-93.5 -116t-109 -98.5q103 -131 177 -271.5t128 -292.5l-344 -79q-14 136 -52 263.5t-107 245.5q-36 -20 -70.5 -35.5t-63.5 -29.5v-90q0 -81 2.5 -159t2.5 -159l-289 -36q0 371 -11 743t-36 745h372q-15 -220 -25 -438.5
t-13 -439.5q50 40 89 85t69 90t51 89.5t36 84.5q34 94 45 187h344z" />
    <glyph glyph-name="lacute" unicode="&#x13a;" horiz-adv-x="532" 
d="M459 1507q-26 -376 -34.5 -748.5t-8.5 -742.5h-312q5 184 7 365t2 364q0 192 -2 381t-7 381h355zM758 1919l-361 -321l-135 35l258 381z" />
    <glyph glyph-name="lcommaaccent" unicode="&#x13c;" horiz-adv-x="532" 
d="M459 1507q-26 -376 -34.5 -748.5t-8.5 -742.5h-312q5 184 7 365t2 364q0 192 -2 381t-7 381h355zM414 -213q-1 -48 -14 -92.5t-29 -79.5q-18 -40 -41 -76l-150 23q23 31 36.5 60.5t21.5 53.5q-53 8 -87 38.5t-34 72.5q0 24 11.5 44.5t32 36.5t47.5 25t58 9t58 -9t47 -25
t31.5 -36.5t11.5 -44.5z" />
    <glyph glyph-name="ldotaccent" unicode="&#x140;" horiz-adv-x="993" 
d="M459 1507q-26 -376 -34.5 -748.5t-8.5 -742.5h-312q5 184 7 365t2 364q0 192 -2 381t-7 381h355zM897 758q0 -29 -14.5 -55t-40 -45.5t-59 -30.5t-70.5 -11q-39 0 -73.5 11t-59.5 30.5t-39.5 45.5t-14.5 55q0 30 14.5 56t39.5 45.5t59.5 30.5t73.5 11q37 0 70.5 -11
t59 -30.5t40 -45.5t14.5 -56z" />
    <glyph glyph-name="lcaron" unicode="&#x13e;" horiz-adv-x="829" 
d="M459 1507q-26 -376 -34.5 -748.5t-8.5 -742.5h-312q5 184 7 365t2 364q0 192 -2 381t-7 381h355zM829 1370q-1 -48 -14 -92.5t-29 -79.5q-18 -40 -41 -76l-150 23q23 29 36.5 58.5t21.5 53.5q-53 8 -87 39.5t-34 73.5q0 24 12 45t32.5 36.5t47.5 24.5t58 9q30 0 57 -9
t47 -24.5t31.5 -36.5t11.5 -45z" />
    <glyph glyph-name="nacute" unicode="&#x144;" horiz-adv-x="1264" 
d="M1184 522q0 -133 -14 -271t-48 -276h-348q13 149 20 294.5t7 293.5v99.5t-2 99.5q-45 5 -89 6.5t-89 1.5q-85 0 -175 -6q-3 -82 -4.5 -152t-1.5 -139q0 -51 1 -103.5t3.5 -112.5t6.5 -129.5t10 -152.5h-336q0 120 -1 212t-3 169.5t-5.5 148t-8.5 148t-11 169t-14 210.5
l379 23l-8 -142q57 40 117 62t110 33q58 12 113 14q73 0 130.5 -20t101 -55.5t73.5 -83.5t49.5 -103.5t28 -116.5t8.5 -121zM1045 1402l-361 -321l-135 35l258 381z" />
    <glyph glyph-name="ncommaaccent" unicode="&#x146;" horiz-adv-x="1264" 
d="M1184 522q0 -133 -14 -271t-48 -276h-348q13 149 20 294.5t7 293.5v99.5t-2 99.5q-45 5 -89 6.5t-89 1.5q-85 0 -175 -6q-3 -82 -4.5 -152t-1.5 -139q0 -51 1 -103.5t3.5 -112.5t6.5 -129.5t10 -152.5h-336q0 120 -1 212t-3 169.5t-5.5 148t-8.5 148t-11 169t-14 210.5
l379 23l-8 -142q57 40 117 62t110 33q58 12 113 14q73 0 130.5 -20t101 -55.5t73.5 -83.5t49.5 -103.5t28 -116.5t8.5 -121zM781 -213q-1 -48 -14 -92.5t-29 -79.5q-18 -40 -41 -76l-150 23q23 31 36.5 60.5t21.5 53.5q-53 8 -87 38.5t-34 72.5q0 24 11.5 44.5t32 36.5
t47.5 25t58 9t58 -9t47 -25t31.5 -36.5t11.5 -44.5z" />
    <glyph glyph-name="ncaron" unicode="&#x148;" horiz-adv-x="1264" 
d="M1184 522q0 -133 -14 -271t-48 -276h-348q13 149 20 294.5t7 293.5v99.5t-2 99.5q-45 5 -89 6.5t-89 1.5q-85 0 -175 -6q-3 -82 -4.5 -152t-1.5 -139q0 -51 1 -103.5t3.5 -112.5t6.5 -129.5t10 -152.5h-336q0 120 -1 212t-3 169.5t-5.5 148t-8.5 148t-11 169t-14 210.5
l379 23l-8 -142q57 40 117 62t110 33q58 12 113 14q73 0 130.5 -20t101 -55.5t73.5 -83.5t49.5 -103.5t28 -116.5t8.5 -121zM258 1446l283 61l102 -262l98 246h265l-232 -328l-305 -26z" />
    <glyph glyph-name="napostrophe" unicode="&#x149;" horiz-adv-x="1464" 
d="M297 1370q-1 -48 -14 -92.5t-29 -79.5q-18 -40 -41 -76l-150 23q23 29 36.5 58.5t21.5 53.5q-53 8 -87 39.5t-34 73.5q0 24 12 45t32.5 36.5t47.5 24.5t58 9q30 0 57 -9t47 -24.5t31.5 -36.5t11.5 -45zM1385 522q0 -133 -14 -271t-48 -276h-348q13 149 20 294.5t7 293.5
v99.5t-2 99.5q-45 5 -89 6.5t-89 1.5q-85 0 -175 -6q-3 -82 -4.5 -152t-1.5 -139q0 -51 1 -103.5t3.5 -112.5t6.5 -129.5t10 -152.5h-336q0 120 -1 212t-3 169.5t-5.5 148t-8.5 148t-11 169t-14 210.5l379 23l-8 -142q57 40 117 62t110 33q58 12 113 14q73 0 130.5 -20
t101 -55.5t73.5 -83.5t49.5 -103.5t28 -116.5t8.5 -121z" />
    <glyph glyph-name="eng" unicode="&#x14b;" horiz-adv-x="1264" 
d="M1184 522q0 -44 -4.5 -106t-11 -132.5t-15.5 -144t-17.5 -140t-17 -121t-14.5 -87.5q-18 -99 -62.5 -176.5t-110.5 -131.5t-152 -82t-189 -28q-84 0 -163 27t-144 79t-110.5 127t-61.5 171l378 45q0 -60 7 -117t30 -119q31 3 59.5 6.5t57.5 8t59 10t64 12.5l33 1139
q-45 5 -89 6.5t-89 1.5q-85 0 -175 -6q-3 -82 -4.5 -152t-1.5 -139q0 -51 1 -103.5t3.5 -112.5t6.5 -129.5t10 -152.5h-336q0 120 -1 212t-3 169.5t-5.5 148t-8.5 148t-11 169t-14 210.5l379 23l-8 -142q57 40 117 62t110 33q58 12 113 14q73 0 130.5 -20t101 -55.5
t73.5 -83.5t49.5 -103.5t28 -116.5t8.5 -121z" />
    <glyph glyph-name="omacron" unicode="&#x14d;" horiz-adv-x="1243" 
d="M823 207q6 85 8.5 165t2.5 158q0 81 -2.5 159.5t-8.5 162.5q-34 5 -67.5 6.5t-67.5 1.5q-140 0 -270 -31q-3 -54 -5.5 -107t-2.5 -106q0 -106 8.5 -211.5t25.5 -220.5q23 -2 46.5 -2h48.5q69 0 140.5 6t143.5 19zM1194 522q0 -119 -46.5 -223.5t-126.5 -182.5
t-187.5 -123.5t-229.5 -45.5q-121 0 -222.5 45.5t-175 123.5t-114.5 182.5t-41 223.5q0 147 41 255t114.5 179t175 105.5t222.5 34.5q122 0 229.5 -39t187.5 -113t126.5 -180.5t46.5 -241.5zM972 1160h-702v211h702v-211z" />
    <glyph glyph-name="obreve" unicode="&#x14f;" horiz-adv-x="1243" 
d="M823 207q6 85 8.5 165t2.5 158q0 81 -2.5 159.5t-8.5 162.5q-34 5 -67.5 6.5t-67.5 1.5q-140 0 -270 -31q-3 -54 -5.5 -107t-2.5 -106q0 -106 8.5 -211.5t25.5 -220.5q23 -2 46.5 -2h48.5q69 0 140.5 6t143.5 19zM1194 522q0 -119 -46.5 -223.5t-126.5 -182.5
t-187.5 -123.5t-229.5 -45.5q-121 0 -222.5 45.5t-175 123.5t-114.5 182.5t-41 223.5q0 147 41 255t114.5 179t175 105.5t222.5 34.5q122 0 229.5 -39t187.5 -113t126.5 -180.5t46.5 -241.5zM1000 1476q0 -62 -16.5 -108.5t-43 -81t-60.5 -58.5t-70 -39q-84 -36 -189 -41
q-106 5 -190 39q-36 15 -70 37.5t-60.5 55.5t-42.5 78t-16 104l246 14q0 -8 -2 -14.5t-2 -14.5q0 -83 43 -159q21 -4 45 -5.5t49 -1.5q23 0 48.5 1.5t51.5 5.5q6 24 9.5 48.5t3.5 47.5q0 25 -3.5 47.5t-9.5 44.5h279z" />
    <glyph glyph-name="ohungarumlaut" unicode="&#x151;" horiz-adv-x="1243" 
d="M823 207q6 85 8.5 165t2.5 158q0 81 -2.5 159.5t-8.5 162.5q-34 5 -67.5 6.5t-67.5 1.5q-140 0 -270 -31q-3 -54 -5.5 -107t-2.5 -106q0 -106 8.5 -211.5t25.5 -220.5q23 -2 46.5 -2h48.5q69 0 140.5 6t143.5 19zM1194 522q0 -119 -46.5 -223.5t-126.5 -182.5
t-187.5 -123.5t-229.5 -45.5q-121 0 -222.5 45.5t-175 123.5t-114.5 182.5t-41 223.5q0 147 41 255t114.5 179t175 105.5t222.5 34.5q122 0 229.5 -39t187.5 -113t126.5 -180.5t46.5 -241.5zM858 1464l-361 -321l-135 35l258 381zM1189 1464l-360 -321l-135 35l258 381z" />
    <glyph glyph-name="racute" unicode="&#x155;" horiz-adv-x="1249" 
d="M852 479q2 25 4 49.5t2 49.5q0 86 -18 170q-93 -4 -184.5 -13t-184.5 -24v-199v-259.5t2 -258.5l-356 -25q3 37 3.5 73t0.5 73q0 232 -8.5 459t-24.5 456l385 33q0 -28 -1 -55.5t-1 -55.5q58 42 116.5 64t106.5 33q55 12 107 14q118 -6 211 -54q39 -20 77 -51.5t68 -77
t48 -107t18 -142.5q0 -28 -3 -58.5t-8 -64.5zM1110 1464l-361 -321l-135 35l258 381z" />
    <glyph glyph-name="rcommaaccent" unicode="&#x157;" horiz-adv-x="1249" 
d="M852 479q2 25 4 49.5t2 49.5q0 86 -18 170q-93 -4 -184.5 -13t-184.5 -24v-199v-259.5t2 -258.5l-356 -25q3 37 3.5 73t0.5 73q0 232 -8.5 459t-24.5 456l385 33q0 -28 -1 -55.5t-1 -55.5q58 42 116.5 64t106.5 33q55 12 107 14q118 -6 211 -54q39 -20 77 -51.5t68 -77
t48 -107t18 -142.5q0 -28 -3 -58.5t-8 -64.5zM430 -213q-1 -48 -14 -92.5t-29 -79.5q-18 -40 -41 -76l-150 23q23 31 36.5 60.5t21.5 53.5q-53 8 -87 38.5t-34 72.5q0 24 11.5 44.5t32 36.5t47.5 25t58 9t58 -9t47 -25t31.5 -36.5t11.5 -44.5z" />
    <glyph glyph-name="rcaron" unicode="&#x159;" horiz-adv-x="1249" 
d="M852 479q2 25 4 49.5t2 49.5q0 86 -18 170q-93 -4 -184.5 -13t-184.5 -24v-199v-259.5t2 -258.5l-356 -25q3 37 3.5 73t0.5 73q0 232 -8.5 459t-24.5 456l385 33q0 -28 -1 -55.5t-1 -55.5q58 42 116.5 64t106.5 33q55 12 107 14q118 -6 211 -54q39 -20 77 -51.5t68 -77
t48 -107t18 -142.5q0 -28 -3 -58.5t-8 -64.5zM250 1446l283 61l102 -262l98 246h265l-232 -328l-305 -26z" />
    <glyph glyph-name="sacute" unicode="&#x15b;" horiz-adv-x="1206" 
d="M1153 233q0 -88 -45 -146.5t-118 -94t-166 -50t-189 -14.5q-53 0 -113.5 6.5t-121.5 23t-118.5 44t-104.5 69.5t-80.5 99t-45.5 133l406 4l16 -174h311l23 201q-62 14 -142 24t-164 24.5t-165 37.5t-144 63t-102 101t-39 151q0 97 47 163.5t123.5 107t173.5 59.5t197 22
q53 0 114.5 -6t122.5 -21.5t117.5 -42.5t101 -68.5t73 -100t32.5 -137.5l-393 -17v197h-338v-266q65 -14 145 -21.5t161 -19.5t157.5 -33t136 -60t95.5 -101t36 -157zM1041 1464l-361 -321l-135 35l258 381z" />
    <glyph glyph-name="scircumflex" unicode="&#x15d;" horiz-adv-x="1206" 
d="M1153 233q0 -88 -45 -146.5t-118 -94t-166 -50t-189 -14.5q-53 0 -113.5 6.5t-121.5 23t-118.5 44t-104.5 69.5t-80.5 99t-45.5 133l406 4l16 -174h311l23 201q-62 14 -142 24t-164 24.5t-165 37.5t-144 63t-102 101t-39 151q0 97 47 163.5t123.5 107t173.5 59.5t197 22
q53 0 114.5 -6t122.5 -21.5t117.5 -42.5t101 -68.5t73 -100t32.5 -137.5l-393 -17v197h-338v-266q65 -14 145 -21.5t161 -19.5t157.5 -33t136 -60t95.5 -101t36 -157zM977 1198l-283 -61l-103 262l-98 -246h-264l231 328l306 26z" />
    <glyph glyph-name="scedilla" unicode="&#x15f;" horiz-adv-x="1206" 
d="M852 -287q0 -54 -26.5 -91t-64.5 -60.5t-79.5 -34t-71.5 -10.5q-25 -1 -62 2q-32 2 -80 6t-116 12v119q64 -6 127 -6q31 0 61 1.5t62 4.5q5 15 6.5 31.5t1.5 31.5q0 16 -1.5 31t-6.5 31q-23 3 -47 5.5t-49 2.5q-23 0 -48.5 -2.5t-51.5 -5.5q8 20 31.5 64t54.5 94
q-72 10 -144 34.5t-133.5 67.5t-105 107t-58.5 155l406 4l16 -174h311l23 201q-62 14 -142 24t-164 24.5t-165 37.5t-144 63t-102 101t-39 151q0 97 47 163.5t123.5 107t173.5 59.5t197 22q53 0 114.5 -6t122.5 -21.5t117.5 -42.5t101 -68.5t73 -100t32.5 -137.5l-393 -17
v197h-338v-266q65 -14 145 -21.5t161 -19.5t157.5 -33t136 -60t95.5 -101t36 -157q0 -58 -20.5 -103t-56 -79t-84 -57t-105 -37.5t-119 -21.5t-125.5 -7l-27 -61q44 -2 77.5 -9.5t58.5 -19t42 -25t28 -27.5q26 -33 30 -73z" />
    <glyph glyph-name="tcommaaccent" unicode="&#x163;" horiz-adv-x="1065" 
d="M1042 762q-97 5 -194.5 9t-194.5 7q-12 -199 -21 -397t-14 -399l-292 -29q6 366 6 725v106h-72q-60 0 -120 -1t-120 -1v254q26 0 52.5 -1t54.5 -1h203q0 93 -1 183.5t-3 181.5h379q-10 -90 -17.5 -178.5t-13.5 -176.5q93 4 183.5 8.5t184.5 10.5v-301zM607 -213
q-1 -48 -14 -92.5t-29 -79.5q-18 -40 -41 -76l-150 23q23 31 36.5 60.5t21.5 53.5q-53 8 -87 38.5t-34 72.5q0 24 11.5 44.5t32 36.5t47.5 25t58 9t58 -9t47 -25t31.5 -36.5t11.5 -44.5z" />
    <glyph glyph-name="tcaron" unicode="&#x165;" horiz-adv-x="1362" 
d="M1042 762q-97 5 -194.5 9t-194.5 7q-12 -199 -21 -397t-14 -399l-292 -29q6 366 6 725v106h-72q-60 0 -120 -1t-120 -1v254q26 0 52.5 -1t54.5 -1h203q0 93 -1 183.5t-3 181.5h379q-10 -90 -17.5 -178.5t-13.5 -176.5q93 4 183.5 8.5t184.5 10.5v-301zM1362 1370
q-1 -48 -14 -92.5t-29 -79.5q-18 -40 -41 -76l-150 23q23 29 36.5 58.5t21.5 53.5q-53 8 -87 39.5t-34 73.5q0 24 12 45t32.5 36.5t47.5 24.5t58 9q30 0 57 -9t47 -24.5t31.5 -36.5t11.5 -45z" />
    <glyph glyph-name="tbar" unicode="&#x167;" horiz-adv-x="1065" 
d="M893 289h-266q-3 -78 -5 -154t-4 -153l-292 -29q2 83 3 166.5t1 167.5h-256v291h258v100v106h-72q-60 0 -120 -1t-120 -1v254q26 0 52.5 -1t54.5 -1h203q0 93 -1 183.5t-3 181.5h379q-10 -90 -17.5 -178.5t-13.5 -176.5q93 4 183.5 8.5t184.5 10.5v-301q-97 5 -194.5 9
t-194.5 7l-12 -198h252v-291z" />
    <glyph glyph-name="utilde" unicode="&#x169;" horiz-adv-x="1217" 
d="M1151 635q0 -86 -8.5 -168.5t-30 -157t-59 -139t-94.5 -113.5t-137 -80.5t-187 -39.5q-275 0 -413 139t-138 411v37.5t1 76t2.5 102t5.5 115.5t9.5 116t14.5 104h350q-19 -99 -28 -209t-9 -225q0 -106 8.5 -210.5t28.5 -198.5q37 -5 72.5 -8t70.5 -3q34 0 70.5 3t71.5 8
q11 94 16.5 197.5t5.5 209.5q0 116 -5.5 226.5t-16.5 209.5h362q22 -117 29.5 -221t7.5 -182zM1040 1453q2 -20 4.5 -38t2.5 -35q0 -51 -12.5 -89t-33 -66.5t-46.5 -47.5t-53 -32q-63 -30 -144 -34q-53 2 -100 18q-40 13 -78 42t-54 82h-98q-6 -19 -8 -37.5t-2 -38.5
q0 -17 1.5 -33t6.5 -33l-256 21q0 56 13.5 99t36 74.5t51 53.5t58.5 36q70 33 160 38q1 0 18 -1t43 -6t55.5 -15.5t55.5 -30.5t43.5 -51t18.5 -76h92q2 14 2 26.5v24.5q0 37 -6.5 74.5t-22.5 74.5h252z" />
    <glyph glyph-name="umacron" unicode="&#x16b;" horiz-adv-x="1217" 
d="M1151 635q0 -86 -8.5 -168.5t-30 -157t-59 -139t-94.5 -113.5t-137 -80.5t-187 -39.5q-275 0 -413 139t-138 411v37.5t1 76t2.5 102t5.5 115.5t9.5 116t14.5 104h350q-19 -99 -28 -209t-9 -225q0 -106 8.5 -210.5t28.5 -198.5q37 -5 72.5 -8t70.5 -3q34 0 70.5 3t71.5 8
q11 94 16.5 197.5t5.5 209.5q0 116 -5.5 226.5t-16.5 209.5h362q22 -117 29.5 -221t7.5 -182zM958 1135h-702v211h702v-211z" />
    <glyph glyph-name="ubreve" unicode="&#x16d;" horiz-adv-x="1217" 
d="M1151 635q0 -86 -8.5 -168.5t-30 -157t-59 -139t-94.5 -113.5t-137 -80.5t-187 -39.5q-275 0 -413 139t-138 411v37.5t1 76t2.5 102t5.5 115.5t9.5 116t14.5 104h350q-19 -99 -28 -209t-9 -225q0 -106 8.5 -210.5t28.5 -198.5q37 -5 72.5 -8t70.5 -3q34 0 70.5 3t71.5 8
q11 94 16.5 197.5t5.5 209.5q0 116 -5.5 226.5t-16.5 209.5h362q22 -117 29.5 -221t7.5 -182zM987 1431q0 -62 -16.5 -108.5t-43 -81t-60.5 -58.5t-70 -39q-84 -36 -189 -41q-106 5 -190 39q-36 15 -70 37.5t-60.5 55.5t-42.5 78t-16 104l246 14q0 -8 -2 -14.5t-2 -14.5
q0 -83 43 -159q21 -4 45 -5.5t49 -1.5q23 0 48.5 1.5t51.5 5.5q6 24 9.5 48.5t3.5 47.5q0 25 -3.5 47.5t-9.5 44.5h279z" />
    <glyph glyph-name="uring" unicode="&#x16f;" horiz-adv-x="1217" 
d="M1151 635q0 -86 -8.5 -168.5t-30 -157t-59 -139t-94.5 -113.5t-137 -80.5t-187 -39.5q-275 0 -413 139t-138 411v37.5t1 76t2.5 102t5.5 115.5t9.5 116t14.5 104h350q-19 -99 -28 -209t-9 -225q0 -106 8.5 -210.5t28.5 -198.5q37 -5 72.5 -8t70.5 -3q34 0 70.5 3t71.5 8
q11 94 16.5 197.5t5.5 209.5q0 116 -5.5 226.5t-16.5 209.5h362q22 -117 29.5 -221t7.5 -182zM703 1233q3 26 4.5 53t1.5 53q0 51 -6 101q-11 0 -19 1t-16 1q-86 0 -168 -17q-5 -23 -6.5 -47t-1.5 -49q0 -23 1.5 -47t6.5 -49q26 -3 51.5 -4.5t48.5 -1.5q50 0 103 6z
M891 1323q0 -47 -22 -88t-60 -71.5t-89.5 -48t-110.5 -17.5t-111 17.5t-90.5 48t-61 71.5t-22.5 88t22.5 88.5t61 72t90.5 48.5t111 18t110.5 -18t89.5 -48.5t60 -72t22 -88.5z" />
    <glyph glyph-name="uhungarumlaut" unicode="&#x171;" horiz-adv-x="1217" 
d="M1151 635q0 -86 -8.5 -168.5t-30 -157t-59 -139t-94.5 -113.5t-137 -80.5t-187 -39.5q-275 0 -413 139t-138 411v37.5t1 76t2.5 102t5.5 115.5t9.5 116t14.5 104h350q-19 -99 -28 -209t-9 -225q0 -106 8.5 -210.5t28.5 -198.5q37 -5 72.5 -8t70.5 -3q34 0 70.5 3t71.5 8
q11 94 16.5 197.5t5.5 209.5q0 116 -5.5 226.5t-16.5 209.5h362q22 -117 29.5 -221t7.5 -182zM867 1440l-361 -321l-135 35l258 381zM1198 1440l-360 -321l-135 35l258 381z" />
    <glyph glyph-name="uogonek" unicode="&#x173;" horiz-adv-x="1217" 
d="M897 -412q-54 -28 -114 -44.5t-126 -16.5q-57 0 -108 11t-89.5 33.5t-61.5 56.5t-23 81q0 31 9.5 62t26 61t38.5 59t47 56q-206 34 -309 169.5t-103 370.5v37.5t1 76t2.5 102t5.5 115.5t9.5 116t14.5 104h350q-19 -99 -28 -209t-9 -225q0 -106 8.5 -210.5t28.5 -198.5
q37 -5 72.5 -8t70.5 -3q34 0 70.5 3t71.5 8q11 94 16.5 197.5t5.5 209.5q0 116 -5.5 226.5t-16.5 209.5h362q22 -117 29.5 -221t7.5 -182q0 -83 -8 -163.5t-28.5 -153.5t-55 -136.5t-88 -113t-128 -82.5t-173.5 -45q-31 -57 -52.5 -117t-29.5 -123q78 5 155 14.5t154 26.5
v-154z" />
    <glyph glyph-name="wcircumflex" unicode="&#x175;" horiz-adv-x="1745" 
d="M1712 1069l-190 -1085h-504l-129 741l-201 -702h-463l-192 1026h411l142 -764l221 743h356l166 -805l127 846h256zM1356 1170l-283 -61l-103 262l-98 -246h-264l231 328l306 26z" />
    <glyph glyph-name="wgrave" unicode="&#x1e81;" horiz-adv-x="1745" 
d="M1712 1069l-190 -1085h-504l-129 741l-201 -702h-463l-192 1026h411l142 -764l221 743h356l166 -805l127 846h256zM781 1529l258 -381l-136 -35l-360 321z" />
    <glyph glyph-name="wacute" unicode="&#x1e83;" horiz-adv-x="1745" 
d="M1712 1069l-190 -1085h-504l-129 741l-201 -702h-463l-192 1026h411l142 -764l221 743h356l166 -805l127 846h256zM1395 1422l-361 -321l-135 35l258 381z" />
    <glyph glyph-name="wdieresis" unicode="&#x1e85;" horiz-adv-x="1745" 
d="M1712 1069l-190 -1085h-504l-129 741l-201 -702h-463l-192 1026h411l142 -764l221 743h356l166 -805l127 846h256zM922 1217q0 -22 -11.5 -41.5t-31 -34.5t-45.5 -23.5t-56 -8.5q-29 0 -55 8.5t-45 23.5t-30 34.5t-11 41.5q0 23 11 43.5t30 35.5t45 23.5t55 8.5
q30 0 56 -8.5t45.5 -23.5t31 -35.5t11.5 -43.5zM1342 1217q0 -22 -11.5 -41.5t-31 -34.5t-45.5 -23.5t-56 -8.5q-29 0 -54.5 8.5t-44.5 23.5t-30.5 34.5t-11.5 41.5q0 23 11.5 43.5t30.5 35.5t44.5 23.5t54.5 8.5q30 0 56 -8.5t45.5 -23.5t31 -35.5t11.5 -43.5z" />
    <glyph glyph-name="ycircumflex" unicode="&#x177;" horiz-adv-x="1288" 
d="M1198 1036q-5 -262 -13 -452t-16 -317q-9 -148 -18 -249q-6 -121 -44.5 -221t-108.5 -172t-170 -111.5t-230 -39.5q-87 0 -152 10.5t-113.5 31t-83 50.5t-60.5 69.5t-45.5 88.5t-37.5 106l367 8q0 -14 -1 -26.5t-1 -24.5q0 -75 12 -145q39 -5 68 -8t57 -3q38 0 78 5
t96 14q10 105 17 208.5t12 207.5q-42 -18 -80.5 -27.5t-67.5 -14.5q-34 -5 -65 -6q-145 0 -239 36.5t-151.5 103t-84 160t-36.5 206.5t-10 242.5t-3 269.5l409 -28q-8 -94 -13 -187t-5 -186q0 -96 5 -190.5t13 -188.5q37 -3 69 -3.5t64 -0.5q53 0 102.5 1.5t98.5 6.5
q2 32 2 65.5v65.5q0 167 -8.5 332t-28.5 330zM1018 1198l-283 -61l-103 262l-98 -246h-264l231 328l306 26z" />
    <glyph glyph-name="ygrave" unicode="&#x1ef3;" horiz-adv-x="1288" 
d="M1198 1036q-5 -262 -13 -452t-16 -317q-9 -148 -18 -249q-6 -121 -44.5 -221t-108.5 -172t-170 -111.5t-230 -39.5q-87 0 -152 10.5t-113.5 31t-83 50.5t-60.5 69.5t-45.5 88.5t-37.5 106l367 8q0 -14 -1 -26.5t-1 -24.5q0 -75 12 -145q39 -5 68 -8t57 -3q38 0 78 5
t96 14q10 105 17 208.5t12 207.5q-42 -18 -80.5 -27.5t-67.5 -14.5q-34 -5 -65 -6q-145 0 -239 36.5t-151.5 103t-84 160t-36.5 206.5t-10 242.5t-3 269.5l409 -28q-8 -94 -13 -187t-5 -186q0 -96 5 -190.5t13 -188.5q37 -3 69 -3.5t64 -0.5q53 0 102.5 1.5t98.5 6.5
q2 32 2 65.5v65.5q0 167 -8.5 332t-28.5 330zM443 1490l258 -381l-136 -35l-360 321z" />
    </font>
</defs>
</svg>
